#VERSION:0.83;
#TITLE:パラレル;
#SUBTITLE:;
#ARTIST:KEYTALK;
#TITLETRANSLIT:Pallarel;
#SUBTITLETRANSLIT:;
#ARTISTTRANSLIT:KEYTALK;
#GENRE:;
#ORIGIN:;
#CREDIT:;
#BANNER:;
#BACKGROUND:;
#PREVIEWVID:;
#JACKET:;
#CDIMAGE:;
#DISCIMAGE:;
#LYRICSPATH:;
#CDTITLE:;
#MUSIC:Pallarel;
#OFFSET:-1.264000;
#SAMPLESTART:40.196583;
#SAMPLELENGTH:15.000000;
#SELECTABLE:YES;
#BPMS:0.000=178.000;
#STOPS:;
#DELAYS:;
#WARPS:;
#TIMESIGNATURES:0.000=4=4;
#TICKCOUNTS:0.000=4;
#COMBOS:0.000=1;
#SPEEDS:0.000=1.000=0.000=0;
#SCROLLS:0.000=1.000;
#FAKES:;
#LABELS:0.000=Song Start;
#BGCHANGES:;
#KEYSOUNDS:;
#ATTACKS:
;

//---------------dance-single - ----------------
#NOTEDATA:;
#CHARTNAME:;
#STEPSTYPE:dance-single;
#DESCRIPTION:;
#CHARTSTYLE:;
#DIFFICULTY:Easy;
#METER:10;
#RADARVALUES:0.387612,0.482608,0.133440,0.144560,0.000000,488.000000,464.000000,24.000000,26.000000,0.000000,0.000000,0.000000,0.000000,0.000000,0.387612,0.482608,0.133440,0.144560,0.000000,488.000000,464.000000,24.000000,26.000000,0.000000,0.000000,0.000000,0.000000,0.000000;
#CREDIT:;
#NOTES:
// measure 0
0000
0000
0000
0000
,  // measure 1
0000
0000
0000
0000
,  // measure 2
0000
0000
0000
0000
,  // measure 3
0000
0000
0000
0000
,  // measure 4
1000
1000
0001
0010
,  // measure 5
1000
0000
0001
0000
0001
0000
0010
0010
,  // measure 6
0001
0001
1000
0100
,  // measure 7
0001
0000
1000
0000
1000
0000
0100
0100
,  // measure 8
0010
0010
0100
0001
,  // measure 9
0010
0000
0100
0000
0100
0000
0001
0001
,  // measure 10
0100
0100
0010
1000
,  // measure 11
0100
0000
0010
0000
0010
0000
1000
1000
,  // measure 12
1001
0010
0000
0010
,  // measure 13
0000
0100
0000
0100
,  // measure 14
1001
0100
0000
0100
,  // measure 15
0000
0010
0000
0010
,  // measure 16
0110
0001
0000
0001
,  // measure 17
0000
1000
0000
1000
,  // measure 18
0110
1000
0000
1000
,  // measure 19
0000
0001
0000
0001
,  // measure 20
0010
0100
0010
0100
0001
1000
0001
1000
,  // measure 21
0002
0000
0003
0020
0000
0030
0000
2000
,  // measure 22
0000
0000
0001
3001
,  // measure 23
2000
0000
3000
0200
0000
0300
0000
0002
,  // measure 24
0000
0000
1000
1003
,  // measure 25
0002
0000
0003
0020
0000
0030
0000
2000
,  // measure 26
0000
0000
0001
3001
,  // measure 27
0010
0000
0000
0110
0000
0000
0110
0000
,  // measure 28
0022
0000
0000
0003
2000
0000
0000
3030
,  // measure 29
1000
0001
1000
0000
0010
0000
0010
0000
,  // measure 30
0001
1000
0001
0000
0100
0000
0100
0000
,  // measure 31
0010
0100
0010
0000
0001
0000
0001
0000
,  // measure 32
0100
0010
0100
0000
1000
0000
1000
0000
,  // measure 33
1000
0001
1000
0000
0010
0000
0010
0000
,  // measure 34
0001
1000
0001
0000
0100
0000
0100
0000
,  // measure 35
0010
0100
0010
0000
0001
0000
0001
0000
,  // measure 36
0100
0010
0100
0000
1000
0000
1000
0000
,  // measure 37
0101
0000
0001
0000
,  // measure 38
1010
0000
1000
0000
,  // measure 39
1100
0000
0100
0000
,  // measure 40
0011
0000
0010
0000
,  // measure 41
2001
0000
0001
0000
,  // measure 42
0020
0000
0000
3030
,  // measure 43
1000
1000
0001
0010
,  // measure 44
1000
0000
0001
0000
0001
0000
0010
0010
,  // measure 45
0001
0001
1000
0100
,  // measure 46
0001
0000
1000
0000
1000
0000
0100
0100
,  // measure 47
0010
0010
0100
0001
,  // measure 48
0010
0000
0100
0000
0100
0000
0001
0001
,  // measure 49
0100
0100
0010
1000
,  // measure 50
0100
0000
0010
0000
0010
0000
1000
1000
,  // measure 51
0020
0000
0000
0030
,  // measure 52
1100
0000
0000
1000
,  // measure 53
0011
0000
0000
0001
,  // measure 54
1001
0000
0110
0000
,  // measure 55
1000
1000
0001
0001
,  // measure 56
0010
0010
0100
0100
,  // measure 57
0001
1000
0001
1000
0010
0100
0010
0100
,  // measure 58
2002
0000
0000
3003
,  // measure 59
1000
0001
1000
0000
0010
0000
0010
0000
,  // measure 60
0001
1000
0001
0000
0100
0000
0100
0000
,  // measure 61
0010
0100
0010
0000
0001
0000
0001
0000
,  // measure 62
0100
0010
0100
0000
1000
0000
1000
0000
,  // measure 63
1000
0001
1000
0000
0010
0000
0010
0000
,  // measure 64
0001
1000
0001
0000
0100
0000
0100
0000
,  // measure 65
0010
0100
0010
0000
0001
0000
0001
0000
,  // measure 66
0100
0010
0100
0000
1000
0000
1000
0000
,  // measure 67
0101
0000
0001
0000
,  // measure 68
1010
0000
1000
0000
,  // measure 69
1100
0000
0100
0000
,  // measure 70
0011
0000
0010
0000
,  // measure 71
2001
0000
0001
0000
,  // measure 72
0020
0000
0000
3030
,  // measure 73
1000
1000
0001
0010
,  // measure 74
1000
0000
0001
0000
0001
0000
0010
0010
,  // measure 75
0001
0001
1000
0100
,  // measure 76
0001
0000
1000
0000
1000
0000
0100
0100
,  // measure 77
0010
0010
0100
0001
,  // measure 78
0010
0000
0100
0000
0100
0000
0001
0001
,  // measure 79
0100
0100
0010
1000
,  // measure 80
0010
0100
0010
0100
0001
1000
0001
1000
,  // measure 81
0020
0000
0000
0000
,  // measure 82
0000
0000
0000
0000
,  // measure 83
0200
0000
0000
0000
,  // measure 84
0330
0000
0010
0001
0100
0001
1000
0001
,  // measure 85
1000
1000
0001
0010
,  // measure 86
1000
0000
0001
0000
0001
0000
0010
0010
,  // measure 87
0001
0001
1000
0100
,  // measure 88
0001
0000
1000
0000
1000
0000
0100
0100
,  // measure 89
0010
0010
0100
0001
,  // measure 90
0010
0000
0100
0000
0100
0000
0001
0001
,  // measure 91
0100
0100
0010
1000
,  // measure 92
0100
0000
0010
0000
0010
0000
1000
1000
,  // measure 93
1000
1000
0001
0010
,  // measure 94
1000
0000
0001
0000
0001
0000
0010
0010
,  // measure 95
0001
0001
1000
0100
,  // measure 96
0001
0000
1000
0000
1000
0000
0100
0100
,  // measure 97
0010
0010
0100
0001
,  // measure 98
0010
0000
0100
0000
0100
0000
0001
0001
,  // measure 99
0100
0100
0010
1000
,  // measure 100
0100
0000
0010
0000
0010
0000
1000
1000
,  // measure 101
0022
0000
0000
0003
2000
0000
0000
3030
,  // measure 102
0000
0000
0000
0000
,  // measure 103
1000
0001
1000
0000
0010
0000
0010
0000
,  // measure 104
0001
1000
0001
0000
0100
0000
0100
0000
,  // measure 105
0010
0100
0010
0000
0001
0000
0001
0000
,  // measure 106
0100
0010
0100
0000
1000
0000
1000
0000
,  // measure 107
1000
0001
1000
0000
0010
0000
0010
0000
,  // measure 108
0001
1000
0001
0000
0100
0000
0100
0000
,  // measure 109
0010
0100
0010
0000
0001
0000
0001
0000
,  // measure 110
0100
0010
0100
0000
1000
0000
1000
0000
,  // measure 111
1000
0001
1000
0000
0010
0000
0010
0000
,  // measure 112
0001
1000
0001
0000
0100
0000
0100
0000
,  // measure 113
0010
0100
0010
0000
0001
0000
0001
0000
,  // measure 114
0100
0010
0100
0000
1000
0000
1000
0000
,  // measure 115
1000
1000
0001
0010
,  // measure 116
1000
0000
0001
0000
0001
0000
0010
0010
,  // measure 117
0001
0001
1000
0100
,  // measure 118
0001
0000
1000
0000
1000
0000
0100
0100
,  // measure 119
0010
0010
0100
0001
,  // measure 120
0010
0000
0100
0000
0100
0000
0001
0001
,  // measure 121
0100
0100
0010
1000
,  // measure 122
0100
0000
0010
0000
0010
0000
1000
1000
,  // measure 123
2002
0000
0000
0000
,  // measure 124
3003
0000
0000
0000
;

//---------------dance-single - ----------------
#NOTEDATA:;
#CHARTNAME:;
#STEPSTYPE:dance-single;
#DESCRIPTION:;
#CHARTSTYLE:;
#DIFFICULTY:Medium;
#METER:11;
#RADARVALUES:0.459097,0.482608,0.139000,0.144560,0.000000,578.000000,553.000000,25.000000,26.000000,0.000000,0.000000,0.000000,0.000000,0.000000,0.459097,0.482608,0.139000,0.144560,0.000000,578.000000,553.000000,25.000000,26.000000,0.000000,0.000000,0.000000,0.000000,0.000000;
#CREDIT:;
#NOTES:
// measure 0
0000
0000
0000
0000
,  // measure 1
0000
0000
0000
0000
,  // measure 2
0000
0000
0000
0000
,  // measure 3
0000
0000
0000
0000
,  // measure 4
1000
0000
1000
0000
0001
1000
0010
0000
,  // measure 5
1000
0000
0001
0000
0001
1000
0010
0010
,  // measure 6
0001
0000
0001
0000
1000
0001
0100
0000
,  // measure 7
0001
0000
1000
0000
1000
0001
0100
0100
,  // measure 8
0010
0000
0010
0000
0100
1000
0001
0000
,  // measure 9
0010
0000
0100
0000
0100
1000
0001
0001
,  // measure 10
0100
0000
0100
0000
0010
0001
1000
0000
,  // measure 11
0100
0000
0010
0000
0010
0001
1000
1000
,  // measure 12
1001
0010
0000
0010
,  // measure 13
0010
0100
0000
0100
,  // measure 14
1001
0100
0000
0100
,  // measure 15
0100
0010
0000
0010
,  // measure 16
0110
0001
0000
0001
,  // measure 17
0001
1000
0000
1000
,  // measure 18
0110
1000
0000
1000
,  // measure 19
1000
0001
0000
0001
,  // measure 20
0010
0100
0010
0100
0001
1000
0001
1000
,  // measure 21
0002
0000
0003
0020
0000
0030
0100
2000
,  // measure 22
0000
0000
0001
3001
,  // measure 23
2000
0000
3000
0200
0000
0300
0010
0002
,  // measure 24
0000
0000
1000
1003
,  // measure 25
0002
0000
0003
0020
0000
0030
0100
2000
,  // measure 26
0000
0000
0001
3001
,  // measure 27
1010
0000
0000
0110
0000
0000
0101
0000
,  // measure 28
0022
0000
0000
0003
2000
0000
0000
3030
,  // measure 29
1000
0001
1000
0000
0010
0001
0010
0000
,  // measure 30
0001
1000
0001
0000
0100
1000
0100
0000
,  // measure 31
0010
0100
0010
0000
0001
0100
0001
0000
,  // measure 32
0100
0010
0100
0000
1000
0010
1000
0000
,  // measure 33
1000
0001
1000
0000
0010
0001
0010
0000
,  // measure 34
0001
1000
0001
0000
0100
1000
0100
0000
,  // measure 35
0010
0100
0010
0000
0001
0100
0001
0000
,  // measure 36
0100
0010
0100
0000
1000
0010
1000
0000
,  // measure 37
0101
0001
0001
0000
,  // measure 38
1010
1000
1000
0000
,  // measure 39
1100
0100
0100
0000
,  // measure 40
0011
0010
0010
0000
,  // measure 41
2001
0001
0001
0001
,  // measure 42
0020
0000
0000
3030
,  // measure 43
1000
0000
1000
0000
0001
1000
0010
0000
,  // measure 44
1000
0000
0001
0000
0001
1000
0010
0010
,  // measure 45
0001
0000
0001
0000
1000
0001
0100
0000
,  // measure 46
0001
0000
1000
0000
1000
0001
0100
0100
,  // measure 47
0010
0000
0010
0000
0100
0010
0001
0000
,  // measure 48
0010
0000
0100
0000
0100
0010
0001
0001
,  // measure 49
0100
0000
0100
0000
0010
0100
1000
0000
,  // measure 50
0100
0000
0010
0000
0010
0100
1000
1000
,  // measure 51
0020
0000
0000
0030
,  // measure 52
1100
1000
0000
1000
,  // measure 53
0011
0001
0000
0001
,  // measure 54
1001
0000
0110
0000
,  // measure 55
1000
1000
0001
0001
,  // measure 56
0010
0010
0100
0100
,  // measure 57
0001
1000
0001
1000
0010
0100
0010
0100
,  // measure 58
2002
0000
0000
3003
,  // measure 59
1000
0001
1000
0000
0010
0001
0010
0000
,  // measure 60
0001
1000
0001
0000
0100
1000
0100
0000
,  // measure 61
0010
0100
0010
0000
0001
0100
0001
0000
,  // measure 62
0100
0010
0100
0000
1000
0010
1000
0000
,  // measure 63
1000
0001
1000
0000
0010
0001
0010
0000
,  // measure 64
0001
1000
0001
0000
0100
1000
0100
0000
,  // measure 65
0010
0100
0010
0000
0001
0100
0001
0000
,  // measure 66
0100
0010
0100
0000
1000
0010
1000
0000
,  // measure 67
0101
0001
0001
0000
,  // measure 68
1010
1000
1000
0000
,  // measure 69
1100
0100
0100
0000
,  // measure 70
0011
0010
0010
0000
,  // measure 71
2001
0001
0001
0001
,  // measure 72
0020
0000
0000
3030
,  // measure 73
1000
1000
0001
0010
,  // measure 74
1000
0000
0001
0000
0001
0000
0010
0010
,  // measure 75
0001
0001
1000
0100
,  // measure 76
0001
0000
1000
0000
1000
0000
0100
0100
,  // measure 77
0010
0010
0100
0001
,  // measure 78
0010
0000
0100
0000
0100
0000
0001
0001
,  // measure 79
0100
0100
0010
1000
,  // measure 80
0010
0100
0010
0100
0001
1000
0001
1000
,  // measure 81
0020
0000
0000
0000
,  // measure 82
0000
0000
0000
0000
,  // measure 83
0200
0000
0000
0000
,  // measure 84
0330
0000
0010
0001
0100
0001
1000
0001
,  // measure 85
1000
0000
1000
0000
0001
1000
0010
0000
,  // measure 86
1000
0000
0001
0000
0001
1000
0010
0010
,  // measure 87
0001
0000
0001
0000
1000
0001
0100
0000
,  // measure 88
0001
0000
1000
0000
1000
0001
0100
0100
,  // measure 89
0010
0000
0010
0000
0100
1000
0001
0000
,  // measure 90
0010
0000
0100
0000
0100
1000
0001
0001
,  // measure 91
0100
0000
0100
0000
0010
0001
1000
0000
,  // measure 92
0100
0000
0010
0000
0010
0001
1000
1000
,  // measure 93
1000
0000
1000
0000
0001
1000
0010
0000
,  // measure 94
1000
0000
0001
0000
0001
1000
0010
0010
,  // measure 95
0001
0000
0001
0000
1000
0001
0100
0000
,  // measure 96
0001
0000
1000
0000
1000
0001
0100
0100
,  // measure 97
0010
0000
0010
0000
0100
1000
0001
0000
,  // measure 98
0010
0000
0100
0000
0100
1000
0001
0001
,  // measure 99
0100
0000
0100
0000
0010
0001
1000
0000
,  // measure 100
0100
0000
0010
0000
0010
0001
1000
1000
,  // measure 101
0022
0000
0000
0003
2000
0000
0000
3030
,  // measure 102
0000
0000
0000
0000
,  // measure 103
1000
0001
1000
0000
0010
0001
0010
0000
,  // measure 104
0001
1000
0001
0000
0100
1000
0100
0000
,  // measure 105
0010
0100
0010
0000
0001
0100
0001
0000
,  // measure 106
0100
0010
0100
0000
1000
0010
1000
0000
,  // measure 107
1000
0001
1000
0000
0010
0001
0010
0000
,  // measure 108
0001
1000
0001
0000
0100
1000
0100
0000
,  // measure 109
0010
0100
0010
0000
0001
0100
0001
0000
,  // measure 110
0100
0010
0100
0000
1000
0010
1000
0000
,  // measure 111
1000
0001
1000
0000
0010
0001
0010
0000
,  // measure 112
0001
1000
0001
0000
0100
1000
0100
0000
,  // measure 113
0010
0100
0010
0000
0001
0100
0001
0000
,  // measure 114
0100
0010
0100
0000
1000
0010
1000
0000
,  // measure 115
1000
0000
1000
0000
0001
1000
0010
0000
,  // measure 116
1000
0000
0001
0000
0001
1000
0010
0010
,  // measure 117
0001
0000
0001
0000
1000
0001
0100
0000
,  // measure 118
0001
0000
1000
0000
1000
0001
0100
0100
,  // measure 119
0010
0000
0010
0000
0100
1000
0001
0000
,  // measure 120
0010
0000
0100
0000
0100
1000
0001
0001
,  // measure 121
0100
0000
0100
0000
0010
0001
1000
0000
,  // measure 122
0100
0000
0010
0000
0010
0001
1000
1000
,  // measure 123
2002
0000
0000
0000
,  // measure 124
3003
0000
0000
0000
;

//---------------dance-single - ----------------
#NOTEDATA:;
#CHARTNAME:;
#STEPSTYPE:dance-single;
#DESCRIPTION:;
#CHARTSTYLE:;
#DIFFICULTY:Beginner;
#METER:9;
#RADARVALUES:0.335983,0.413664,0.116760,0.139000,0.000000,423.000000,402.000000,21.000000,25.000000,0.000000,0.000000,0.000000,0.000000,0.000000,0.335983,0.413664,0.116760,0.139000,0.000000,423.000000,402.000000,21.000000,25.000000,0.000000,0.000000,0.000000,0.000000,0.000000;
#CREDIT:;
#NOTES:
// measure 0
0000
0000
0000
0000
,  // measure 1
0000
0000
0000
0000
,  // measure 2
0000
0000
0000
0000
,  // measure 3
0000
0000
0000
0000
,  // measure 4
1000
1000
0001
0010
,  // measure 5
1000
0001
0001
0010
,  // measure 6
0001
0001
1000
0100
,  // measure 7
0001
1000
1000
0100
,  // measure 8
0010
0010
0100
0001
,  // measure 9
0010
0100
0100
0001
,  // measure 10
0100
0100
0010
1000
,  // measure 11
0100
0010
0010
1000
,  // measure 12
1001
0010
0000
0010
,  // measure 13
0000
0100
0000
0100
,  // measure 14
1001
0100
0000
0100
,  // measure 15
0000
0010
0000
0010
,  // measure 16
0110
0001
0000
0001
,  // measure 17
0000
1000
0000
1000
,  // measure 18
0110
1000
0000
1000
,  // measure 19
0000
0001
0000
0001
,  // measure 20
0010
0000
0100
0000
0001
1000
0001
1000
,  // measure 21
0002
0000
0003
0020
0000
0030
0000
2000
,  // measure 22
0000
0000
0001
3001
,  // measure 23
2000
0000
3000
0200
0000
0300
0000
0002
,  // measure 24
0000
0000
1000
1003
,  // measure 25
0002
0000
0003
0020
0000
0030
0000
2000
,  // measure 26
0000
0000
0001
3001
,  // measure 27
0010
0000
0000
0100
0000
0000
0010
0000
,  // measure 28
0022
0000
0000
0003
2000
0000
0000
3030
,  // measure 29
1000
1000
0010
0010
,  // measure 30
0001
0001
0100
0100
,  // measure 31
0010
0010
0001
0001
,  // measure 32
0100
0100
1000
1000
,  // measure 33
1000
1000
0010
0010
,  // measure 34
0001
0001
0100
0100
,  // measure 35
0010
0010
0001
0001
,  // measure 36
0100
0100
1000
1000
,  // measure 37
0101
0000
0001
0000
,  // measure 38
1010
0000
1000
0000
,  // measure 39
1100
0000
0100
0000
,  // measure 40
0011
0000
0010
0000
,  // measure 41
2001
0000
0001
0000
,  // measure 42
0020
0000
0000
3030
,  // measure 43
1000
1000
0001
0010
,  // measure 44
1000
0001
0001
0010
,  // measure 45
0001
0001
1000
0100
,  // measure 46
0001
1000
1000
0100
,  // measure 47
0010
0010
0100
0001
,  // measure 48
0010
0100
0100
0001
,  // measure 49
0100
0100
0010
1000
,  // measure 50
0100
0010
0010
1000
,  // measure 51
0020
0000
0000
0030
,  // measure 52
1100
0000
0000
0000
,  // measure 53
0011
0000
0000
0000
,  // measure 54
0100
0000
0110
0000
,  // measure 55
1000
1000
0001
0001
,  // measure 56
0010
0010
0100
0100
,  // measure 57
0001
0000
1000
0000
0010
0100
0010
0100
,  // measure 58
2002
0000
0000
3003
,  // measure 59
1000
1000
0010
0010
,  // measure 60
0001
0001
0100
0100
,  // measure 61
0010
0010
0001
0001
,  // measure 62
0100
0100
1000
1000
,  // measure 63
1000
1000
0010
0010
,  // measure 64
0001
0001
0100
0100
,  // measure 65
0010
0010
0001
0001
,  // measure 66
0100
0100
1000
1000
,  // measure 67
0101
0000
0001
0000
,  // measure 68
1010
0000
1000
0000
,  // measure 69
1100
0000
0100
0000
,  // measure 70
0011
0000
0010
0000
,  // measure 71
2001
0000
0001
0000
,  // measure 72
0020
0000
0000
3030
,  // measure 73
1000
1000
0001
0010
,  // measure 74
1000
0001
0001
0010
,  // measure 75
0001
0001
1000
0100
,  // measure 76
0001
1000
1000
0100
,  // measure 77
0010
0010
0100
0001
,  // measure 78
0010
0100
0100
0001
,  // measure 79
0100
0100
0010
1000
,  // measure 80
0010
0000
0100
0000
0001
1000
0001
1000
,  // measure 81
0020
0000
0000
0000
,  // measure 82
0000
0000
0000
0000
,  // measure 83
0000
0000
0000
0000
,  // measure 84
0030
0000
0010
0000
0100
0000
0010
0100
,  // measure 85
1000
1000
0001
0010
,  // measure 86
1000
0001
0001
0010
,  // measure 87
0001
0001
1000
0100
,  // measure 88
0001
1000
1000
0100
,  // measure 89
0010
0010
0100
0001
,  // measure 90
0010
0100
0100
0001
,  // measure 91
0100
0100
0010
1000
,  // measure 92
0100
0010
0010
1000
,  // measure 93
1000
1000
0001
0010
,  // measure 94
1000
0001
0001
0010
,  // measure 95
0001
0001
1000
0100
,  // measure 96
0001
1000
1000
0100
,  // measure 97
0010
0010
0100
0001
,  // measure 98
0010
0100
0100
0001
,  // measure 99
0100
0100
0010
1000
,  // measure 100
0100
0010
0010
1000
,  // measure 101
0022
0000
0000
0003
2000
0000
0000
3030
,  // measure 102
0000
0000
0000
0000
,  // measure 103
1000
1000
0010
0010
,  // measure 104
0001
0001
0100
0100
,  // measure 105
0010
0010
0001
0001
,  // measure 106
0100
0100
1000
1000
,  // measure 107
1000
1000
0010
0010
,  // measure 108
0001
0001
0100
0100
,  // measure 109
0010
0010
0001
0001
,  // measure 110
0100
0100
1000
1000
,  // measure 111
1000
1000
0010
0010
,  // measure 112
0001
0001
0100
0100
,  // measure 113
0010
0010
0001
0001
,  // measure 114
0100
0100
1000
1000
,  // measure 115
1000
1000
0001
0010
,  // measure 116
1000
0001
0001
0010
,  // measure 117
0001
0001
1000
0100
,  // measure 118
0001
1000
1000
0100
,  // measure 119
0010
0010
0100
0001
,  // measure 120
0010
0100
0100
0001
,  // measure 121
0100
0100
0010
1000
,  // measure 122
0100
0010
0010
1000
,  // measure 123
2002
0000
0000
0000
,  // measure 124
3003
0000
0000
0000
;

//---------------dance-single - ----------------
#NOTEDATA:;
#CHARTNAME:;
#STEPSTYPE:dance-single;
#DESCRIPTION:;
#CHARTSTYLE:;
#DIFFICULTY:Hard;
#METER:12;
#RADARVALUES:0.516286,0.551552,0.139000,0.144560,0.000000,650.000000,625.000000,25.000000,26.000000,0.000000,0.000000,0.000000,0.000000,0.000000,0.516286,0.551552,0.139000,0.144560,0.000000,650.000000,625.000000,25.000000,26.000000,0.000000,0.000000,0.000000,0.000000,0.000000;
#CREDIT:;
#NOTES:
// measure 0
0000
0000
0000
0000
,  // measure 1
0000
0000
0000
0000
,  // measure 2
0000
0000
0000
0000
,  // measure 3
0000
0000
0000
0000
,  // measure 4
1000
0001
1000
0000
0001
1000
0010
0000
,  // measure 5
1000
0000
0001
0000
0001
1000
0010
0010
,  // measure 6
0001
1000
0001
0000
1000
0001
0100
0000
,  // measure 7
0001
0000
1000
0000
1000
0001
0100
0100
,  // measure 8
0010
0100
0010
0000
0100
1000
0001
0000
,  // measure 9
0010
0000
0100
0000
0100
1000
0001
0001
,  // measure 10
0100
0010
0100
0000
0010
0001
1000
0000
,  // measure 11
0100
0000
0010
0000
0010
0001
1000
1000
,  // measure 12
1001
0010
0010
0010
,  // measure 13
0010
0100
0100
0100
,  // measure 14
1001
0100
0100
0100
,  // measure 15
0100
0010
0010
0010
,  // measure 16
0110
0001
0001
0001
,  // measure 17
0001
1000
1000
1000
,  // measure 18
0110
1000
1000
1000
,  // measure 19
1000
0001
0001
0001
,  // measure 20
0001
0010
0100
1000
0001
0010
0100
1000
,  // measure 21
0002
0000
1003
0020
0000
0030
0100
2000
,  // measure 22
0000
0000
0001
3001
,  // measure 23
2000
0000
3001
0200
0000
0300
0010
0002
,  // measure 24
0000
0000
1000
1003
,  // measure 25
0002
0000
1003
0020
0000
0030
0100
2000
,  // measure 26
0000
0000
0001
3001
,  // measure 27
1010
0000
0000
0110
0000
0000
0101
0000
,  // measure 28
0022
0000
0000
0003
2000
0000
0000
3030
,  // measure 29
1000
0001
1000
0001
0010
0001
0010
0000
,  // measure 30
0001
1000
0001
1000
0100
1000
0100
0000
,  // measure 31
0010
0100
0010
0100
0001
0100
0001
0000
,  // measure 32
0100
0010
0100
0010
1000
0010
1000
0000
,  // measure 33
1000
0001
1000
0001
0010
0001
0010
0000
,  // measure 34
0001
1000
0001
1000
0100
1000
0100
0000
,  // measure 35
0010
0100
0010
0100
0001
0100
0001
0000
,  // measure 36
0100
0010
0100
0010
1000
0010
1000
0000
,  // measure 37
0101
0001
0001
0001
,  // measure 38
1010
1000
1000
1000
,  // measure 39
1100
0100
0100
0100
,  // measure 40
0011
0010
0010
0010
,  // measure 41
2001
0001
0001
0001
,  // measure 42
0020
0000
0000
3030
,  // measure 43
1000
0001
1000
0000
0001
1000
0010
0000
,  // measure 44
1000
0000
0001
0000
0001
1000
0010
0010
,  // measure 45
0001
1000
0001
0000
1000
0001
0100
0000
,  // measure 46
0001
0000
1000
0000
1000
0001
0100
0100
,  // measure 47
0010
0100
0010
0000
0100
0010
0001
0000
,  // measure 48
0010
0000
0100
0000
0100
0010
0001
0001
,  // measure 49
0100
0010
0100
0000
0010
0100
1000
0000
,  // measure 50
0100
0000
0010
0000
0010
0100
1000
1000
,  // measure 51
0020
0000
0000
0030
,  // measure 52
1100
1000
1000
1000
,  // measure 53
0011
0001
0001
0001
,  // measure 54
1001
0000
0110
0100
,  // measure 55
1000
0000
1000
0000
0001
0000
0001
1000
,  // measure 56
0010
0000
0010
0000
0100
0000
0100
0010
,  // measure 57
1000
0100
0010
0001
1000
0100
0010
0001
,  // measure 58
2002
0000
0000
3003
,  // measure 59
1000
0001
1000
0001
0010
0001
0010
0000
,  // measure 60
0001
1000
0001
1000
0100
1000
0100
0000
,  // measure 61
0010
0100
0010
0100
0001
0100
0001
0000
,  // measure 62
0100
0010
0100
0010
1000
0010
1000
0000
,  // measure 63
1000
0001
1000
0001
0010
0001
0010
0000
,  // measure 64
0001
1000
0001
1000
0100
1000
0100
0000
,  // measure 65
0010
0100
0010
0100
0001
0100
0001
0000
,  // measure 66
0100
0010
0100
0010
1000
0010
1000
0000
,  // measure 67
0101
0001
0001
0001
,  // measure 68
1010
1000
1000
1000
,  // measure 69
1100
0100
0100
0100
,  // measure 70
0011
0010
0010
0010
,  // measure 71
2001
0001
0001
0001
,  // measure 72
0020
0000
0000
3030
,  // measure 73
1000
1000
0001
0010
,  // measure 74
1000
0000
0001
0000
0001
0000
0010
0010
,  // measure 75
0001
0001
1000
0100
,  // measure 76
0001
0000
1000
0000
1000
0000
0100
0100
,  // measure 77
0010
0010
0100
0001
,  // measure 78
0010
0000
0100
0000
0100
0000
0001
0001
,  // measure 79
0100
0100
0010
1000
,  // measure 80
1000
0100
0010
0001
1000
0100
0010
0001
,  // measure 81
0020
0000
0000
0000
,  // measure 82
0000
0000
0000
0000
,  // measure 83
0200
0000
0000
0000
,  // measure 84
0330
0000
0010
0001
0100
0001
1000
0001
,  // measure 85
1000
0001
1000
0000
0001
1000
0010
0000
,  // measure 86
1000
0000
0001
0000
0001
1000
0010
0010
,  // measure 87
0001
1000
0001
0000
1000
0001
0100
0000
,  // measure 88
0001
0000
1000
0000
1000
0001
0100
0100
,  // measure 89
0010
0100
0010
0000
0100
1000
0001
0000
,  // measure 90
0010
0000
0100
0000
0100
1000
0001
0001
,  // measure 91
0100
0010
0100
0000
0010
0001
1000
0000
,  // measure 92
0100
0000
0010
0000
0010
0001
1000
1000
,  // measure 93
1000
0001
1000
0000
0001
1000
0010
0000
,  // measure 94
1000
0000
0001
0000
0001
1000
0010
0010
,  // measure 95
0001
1000
0001
0000
1000
0001
0100
0000
,  // measure 96
0001
0000
1000
0000
1000
0001
0100
0100
,  // measure 97
0010
0100
0010
0000
0100
1000
0001
0000
,  // measure 98
0010
0000
0100
0000
0100
1000
0001
0001
,  // measure 99
0100
0010
0100
0000
0010
0001
1000
0000
,  // measure 100
0100
0000
0010
0000
0010
0001
1000
1000
,  // measure 101
0022
0000
0000
0003
2000
0000
0000
3030
,  // measure 102
0000
0000
0000
0000
,  // measure 103
1000
0001
1000
0001
0010
0001
0010
0000
,  // measure 104
0001
1000
0001
1000
0100
1000
0100
0000
,  // measure 105
0010
0100
0010
0100
0001
0100
0001
0000
,  // measure 106
0100
0010
0100
0010
1000
0010
1000
0000
,  // measure 107
1000
0001
1000
0001
0010
0001
0010
0000
,  // measure 108
0001
1000
0001
1000
0100
1000
0100
0000
,  // measure 109
0010
0100
0010
0100
0001
0100
0001
0000
,  // measure 110
0100
0010
0100
0010
1000
0010
1000
0000
,  // measure 111
1000
0001
1000
0001
0010
0001
0010
0000
,  // measure 112
0001
1000
0001
1000
0100
1000
0100
0000
,  // measure 113
0010
0100
0010
0100
0001
0100
0001
0000
,  // measure 114
0100
0010
0100
0010
1000
0010
1000
0000
,  // measure 115
1000
0001
1000
0000
0001
1000
0010
0000
,  // measure 116
1000
0000
0001
0000
0001
1000
0010
0010
,  // measure 117
0001
1000
0001
0000
1000
0001
0100
0000
,  // measure 118
0001
0000
1000
0000
1000
0001
0100
0100
,  // measure 119
0010
0100
0010
0000
0100
1000
0001
0000
,  // measure 120
0010
0000
0100
0000
0100
1000
0001
0001
,  // measure 121
0100
0010
0100
0000
0010
0001
1000
0000
,  // measure 122
0100
0000
0010
0000
0010
0001
1000
1000
,  // measure 123
2002
0000
0000
0000
,  // measure 124
3003
0000
0000
0000
;
