#VERSION:0.83;
#TITLE:Guillaume Tell;
#SUBTITLE:;
#ARTIST:MC F 40;
#TITLETRANSLIT:;
#SUBTITLETRANSLIT:;
#ARTISTTRANSLIT:;
#GENRE:;
#ORIGIN:;
#CREDIT:;
#BANNER:;
#BACKGROUND:;
#PREVIEWVID:;
#JACKET:;
#CDIMAGE:;
#DISCIMAGE:;
#LYRICSPATH:;
#CDTITLE:;
#MUSIC:Guillaume Tell.ogg;
#OFFSET:-0.073000;
#SAMPLESTART:34.573002;
#SAMPLELENGTH:15.000000;
#SELECTABLE:YES;
#BPMS:0.000=180.000;
#STOPS:;
#DELAYS:;
#WARPS:;
#TIMESIGNATURES:0.000=4=4;
#TICKCOUNTS:0.000=4;
#COMBOS:0.000=1;
#SPEEDS:0.000=1.000=0.000=0;
#SCROLLS:0.000=1.000;
#FAKES:;
#LABELS:0.000=Song Start;
#BGCHANGES:;
#KEYSOUNDS:;
#ATTACKS:
;

//---------------dance-single - ----------------
#NOTEDATA:;
#CHARTNAME:;
#STEPSTYPE:dance-single;
#DESCRIPTION:;
#CHARTSTYLE:;
#DIFFICULTY:Easy;
#METER:10;
#RADARVALUES:0.432147,0.478743,0.089436,0.163088,0.000000,575.000000,558.000000,17.000000,31.000000,0.000000,0.000000,0.000000,0.000000,0.000000,0.432147,0.478743,0.089436,0.163088,0.000000,575.000000,558.000000,17.000000,31.000000,0.000000,0.000000,0.000000,0.000000,0.000000;
#CREDIT:;
#NOTES:
// measure 0
0000
0000
0000
0000
,  // measure 1
0000
0000
0000
0000
,  // measure 2
0000
0000
0000
0000
,  // measure 3
0000
0000
0000
0000
,  // measure 4
0000
0000
0000
0000
,  // measure 5
0000
0000
0000
0000
,  // measure 6
0000
0000
0000
0000
,  // measure 7
0000
0000
0000
0000
,  // measure 8
0000
0000
0000
0000
,  // measure 9
1000
0000
1000
0000
,  // measure 10
0001
0100
0010
1000
,  // measure 11
0001
0000
0001
0000
,  // measure 12
1000
0010
0100
0001
,  // measure 13
0010
0000
0010
0000
,  // measure 14
0100
1000
0001
0010
,  // measure 15
0100
0000
0100
0000
,  // measure 16
0010
0001
1000
0100
,  // measure 17
0001
0010
1000
0010
,  // measure 18
1000
0010
1000
0000
0001
0010
0001
0000
,  // measure 19
1000
0100
1000
0000
0010
0100
0010
0000
,  // measure 20
1000
0010
1000
0010
,  // measure 21
0100
0001
0100
0001
,  // measure 22
1000
0001
1000
0001
,  // measure 23
1000
0000
0001
0000
1000
0001
1000
0001
,  // measure 24
2002
0000
0000
0000
,  // measure 25
0000
0000
0000
3003
,  // measure 26
1000
0100
1000
0000
0010
0100
0010
0000
,  // measure 27
1000
0000
0100
0000
0001
0010
1000
0000
,  // measure 28
0001
0010
0001
0000
0100
0010
0100
0000
,  // measure 29
0001
0000
0010
0000
1000
0100
0001
0000
,  // measure 30
0010
1000
0010
0000
0001
1000
0001
0000
,  // measure 31
0010
0000
1000
0000
0100
0001
0010
0000
,  // measure 32
0100
0001
0100
0000
1000
0001
1000
0000
,  // measure 33
0100
0000
0001
0000
0010
1000
0100
0000
,  // measure 34
1000
0010
0100
0010
,  // measure 35
0001
0010
1000
0000
0102
0000
0103
0000
,  // measure 36
0001
0100
0010
0100
,  // measure 37
1000
0100
0001
0000
2010
0000
3010
0000
,  // measure 38
0010
0001
1000
0001
,  // measure 39
0100
0001
0010
0000
1200
0000
1300
0000
,  // measure 40
0100
1000
0001
1000
,  // measure 41
0010
1000
0100
0000
2002
0000
0000
0000
,  // measure 42
0000
0000
0000
0000
,  // measure 43
0000
0000
0000
0000
,  // measure 44
0000
0000
0000
0000
,  // measure 45
0000
0000
0000
3003
,  // measure 46
0001
0010
0001
0000
0100
0010
0100
0000
,  // measure 47
0001
0000
0010
0000
1000
0100
0001
0000
,  // measure 48
1000
0100
1000
0000
0010
0100
0010
0000
,  // measure 49
1000
0000
0100
0000
0001
0010
1000
0000
,  // measure 50
0100
0001
0100
0000
1000
0001
1000
0000
,  // measure 51
0100
0000
0001
0000
0010
1000
0100
0000
,  // measure 52
0010
1000
0010
0000
0001
1000
0001
0000
,  // measure 53
0010
0000
1000
0000
0100
0001
0010
0000
,  // measure 54
1000
0000
1000
0010
2000
0000
0000
0000
,  // measure 55
3001
0010
1000
0010
0001
0000
0001
0000
,  // measure 56
1000
1000
0010
0010
,  // measure 57
0100
0000
0100
0000
0010
0100
0010
0000
,  // measure 58
0001
0000
0001
0100
0002
0000
0000
0000
,  // measure 59
1003
0100
0001
0100
1000
0000
1000
0000
,  // measure 60
0001
0001
0100
0100
,  // measure 61
0010
0000
0010
0000
0200
0000
0000
0300
,  // measure 62
1000
0000
0100
0000
0010
0100
0010
0000
,  // measure 63
0001
0000
0001
0000
1000
0001
1000
0000
,  // measure 64
0001
0000
0010
0000
0100
0010
0100
0000
,  // measure 65
1000
0000
1000
0000
0001
1000
0001
0000
,  // measure 66
2000
3010
0020
0130
,  // measure 67
0001
0010
0100
0000
0010
0100
1000
0000
,  // measure 68
0002
0103
0200
0310
,  // measure 69
1000
0100
0010
0000
0100
0010
0001
0000
,  // measure 70
2000
3010
0002
0103
,  // measure 71
0010
0100
0010
0000
0001
0100
0010
0000
,  // measure 72
0002
0103
2000
3010
,  // measure 73
0100
0010
0100
0000
1000
0010
0100
0000
,  // measure 74
2000
3001
0002
1003
,  // measure 75
1000
0001
1000
0000
0001
1000
0001
0000
,  // measure 76
0001
0000
0001
0100
0002
0000
0000
0000
,  // measure 77
1003
0100
0001
0100
1000
0000
1000
0000
,  // measure 78
0001
0001
0100
0100
,  // measure 79
0010
0000
0010
0000
0100
0010
0100
0000
,  // measure 80
1000
0000
1000
0010
2000
0000
0000
0000
,  // measure 81
3001
0010
1000
0010
0001
0000
0001
0000
,  // measure 82
1000
1000
0010
0010
,  // measure 83
0100
0000
0100
0000
0010
0100
0010
0000
,  // measure 84
1000
0010
0100
0010
,  // measure 85
0001
0010
1000
0000
0102
0000
0103
0000
,  // measure 86
0001
0100
0010
0100
,  // measure 87
1000
0100
0001
0000
2010
0000
3010
0000
,  // measure 88
0010
0001
1000
0001
,  // measure 89
0100
0001
0010
0000
1200
0000
1300
0000
,  // measure 90
0100
1000
0001
1000
,  // measure 91
0010
1000
0100
0000
2002
0000
0000
0000
,  // measure 92
0000
0000
0000
0000
,  // measure 93
0000
0000
0000
0000
,  // measure 94
0000
0000
0000
0000
,  // measure 95
0000
0000
0000
3003
,  // measure 96
0001
0000
0001
0000
,  // measure 97
1000
0010
0100
0001
,  // measure 98
1000
0000
1000
0000
,  // measure 99
0001
0100
0010
1000
,  // measure 100
0100
0000
0100
0000
,  // measure 101
0010
0001
1000
0100
,  // measure 102
0010
0000
0010
0000
,  // measure 103
2002
0000
0000
3003
,  // measure 104
0001
0010
0001
0000
0100
0010
0100
0000
,  // measure 105
0001
0000
0010
0000
1000
0100
0001
0000
,  // measure 106
1000
0100
1000
0000
0010
0100
0010
0000
,  // measure 107
1000
0000
0100
0000
0001
0010
1000
0000
,  // measure 108
0100
0001
0100
0000
1000
0001
1000
0000
,  // measure 109
0100
0000
0001
0000
0010
1000
0100
0000
,  // measure 110
0010
1000
0010
0000
0001
1000
0001
0000
,  // measure 111
0010
0000
1000
0000
0100
0001
0010
0000
,  // measure 112
1000
1000
1000
1000
,  // measure 113
1000
0010
0001
0000
1000
0100
0001
0000
,  // measure 114
0001
0001
0001
0001
,  // measure 115
0001
0100
1000
0000
0001
0010
1000
0000
,  // measure 116
1000
1000
1001
0001
,  // measure 117
0001
0001
1001
1000
,  // measure 118
1000
0000
0010
0000
1000
0010
1000
0000
,  // measure 119
0001
0000
0100
0000
0001
0100
0001
0000
,  // measure 120
0010
0000
0001
0000
0010
0001
0010
0000
,  // measure 121
0100
0000
1000
0000
0100
1000
0100
0000
,  // measure 122
1000
0100
0010
0001
,  // measure 123
1000
0100
0010
0001
,  // measure 124
1000
0001
1000
0000
1000
0010
1000
0000
,  // measure 125
0001
0100
0001
0000
0001
0100
0001
0000
,  // measure 126
1000
0010
1000
0000
1000
1000
1000
0000
,  // measure 127
0001
0001
0001
0000
0000
0000
0000
0000
,  // measure 128
1000
0010
0100
0001
,  // measure 129
1000
0100
0010
0000
0001
0010
0100
0000
,  // measure 130
1000
0100
0010
0000
0001
0010
0100
0000
,  // measure 131
1000
0010
1000
0000
0001
0100
0001
0000
,  // measure 132
1000
0100
1000
0000
0001
0010
0001
0000
,  // measure 133
1000
0100
0001
0000
1000
0010
0001
0000
,  // measure 134
0001
0010
1000
0000
0001
0100
1000
0000
,  // measure 135
1000
0000
1000
0000
1000
0001
1000
0000
,  // measure 136
0001
0000
0001
0000
0001
1000
0001
0000
,  // measure 137
1001
0000
1010
0000
,  // measure 138
1001
0000
0101
0000
,  // measure 139
2002
0000
0000
0000
,  // measure 140
3003
0000
0000
0000
;

//---------------dance-single - ----------------
#NOTEDATA:;
#CHARTNAME:;
#STEPSTYPE:dance-single;
#DESCRIPTION:;
#CHARTSTYLE:;
#DIFFICULTY:Beginner;
#METER:10;
#RADARVALUES:0.408848,0.478743,0.089436,0.163088,0.000000,544.000000,527.000000,17.000000,31.000000,0.000000,0.000000,0.000000,0.000000,0.000000,0.408848,0.478743,0.089436,0.163088,0.000000,544.000000,527.000000,17.000000,31.000000,0.000000,0.000000,0.000000,0.000000,0.000000;
#CREDIT:;
#NOTES:
0000
0000
0000
0000
,
0000
0000
0000
0000
,
0000
0000
0000
0000
,
0000
0000
0000
0000
,
0000
0000
0000
0000
,
0000
0000
0000
0000
,
0000
0000
0000
0000
,
0000
0000
0000
0000
,
0000
0000
0000
0000
,
1000
0000
1000
0000
,
0001
0100
0010
1000
,
0001
0000
0001
0000
,
1000
0010
0100
0001
,
0010
0000
0010
0000
,
0100
1000
0001
0010
,
0100
0000
0100
0000
,
0010
0001
1000
0100
,
0001
0010
1000
0010
,
1000
0000
1000
0000
0001
0010
0001
0000
,
1000
0000
1000
0000
0010
0100
0010
0000
,
1000
0010
1000
0010
,
0100
0001
0100
0001
,
1000
0001
1000
0001
,
1000
0000
0001
0000
1000
0001
1000
0000
,
2002
0000
0000
0000
,
0000
0000
0000
3003
,
1000
0000
1000
0000
0010
0100
0010
0000
,
1000
0000
0100
0000
0001
0010
1000
0000
,
0001
0000
0001
0000
0100
0010
0100
0000
,
0001
0000
0010
0000
1000
0100
0001
0000
,
0010
0000
0010
0000
0001
1000
0001
0000
,
0010
0000
1000
0000
0100
0001
0010
0000
,
0100
0000
0100
0000
1000
0001
1000
0000
,
0100
0000
0001
0000
0010
1000
0100
0000
,
1000
0010
0100
0010
,
0001
0010
1000
0000
0102
0000
0103
0000
,
0001
0100
0010
0100
,
1000
0100
0001
0000
2010
0000
3010
0000
,
0010
0001
1000
0001
,
0100
0001
0010
0000
1200
0000
1300
0000
,
0100
1000
0001
1000
,
0010
1000
0100
0000
2002
0000
0000
0000
,
0000
0000
0000
0000
,
0000
0000
0000
0000
,
0000
0000
0000
0000
,
0000
0000
0000
3003
,
0001
0000
0001
0000
0100
0010
0100
0000
,
0001
0000
0010
0000
1000
0100
0001
0000
,
1000
0000
1000
0000
0010
0100
0010
0000
,
1000
0000
0100
0000
0001
0010
1000
0000
,
0100
0000
0100
0000
1000
0001
1000
0000
,
0100
0000
0001
0000
0010
1000
0100
0000
,
0010
0000
0010
0000
0001
1000
0001
0000
,
0010
0000
1000
0000
0100
0001
0010
0000
,
1000
0000
1000
0010
2000
0000
0000
0000
,
3001
0010
1000
0000
0001
0000
0001
0000
,
1000
1000
0010
0010
,
0100
0000
0100
0000
0010
0100
0010
0000
,
0001
0000
0001
0100
0002
0000
0000
0000
,
1003
0100
0001
0000
1000
0000
1000
0000
,
0001
0001
0100
0100
,
0010
0000
0010
0000
0200
0000
0000
0300
,
1000
0100
0010
0010
,
0001
0000
0001
0000
1000
0001
1000
0000
,
0001
0010
0100
0100
,
1000
0000
1000
0000
0001
1000
0001
0000
,
2000
3010
0020
0130
,
0001
0000
0100
0000
0010
0100
1000
0000
,
0002
0103
0200
0310
,
1000
0000
0010
0000
0100
0010
0001
0000
,
2000
3010
0002
0103
,
0010
0000
0010
0000
0001
0100
0010
0000
,
0002
0103
2000
3010
,
0100
0000
0100
0000
1000
0010
0100
0000
,
2000
3001
0002
1003
,
1000
0001
1000
0000
0001
1000
0001
0000
,
0001
0000
0001
0100
0002
0000
0000
0000
,
1003
0100
0001
0000
1000
0000
1000
0000
,
0001
0001
0100
0100
,
0010
0000
0010
0000
0100
0010
0100
0000
,
1000
0000
1000
0010
2000
0000
0000
0000
,
3001
0010
1000
0000
0001
0000
0001
0000
,
1000
1000
0010
0010
,
0100
0000
0100
0000
0010
0100
0010
0000
,
1000
0010
0100
0010
,
0001
0010
1000
0000
0102
0000
0103
0000
,
0001
0100
0010
0100
,
1000
0100
0001
0000
2010
0000
3010
0000
,
0010
0001
1000
0001
,
0100
0001
0010
0000
1200
0000
1300
0000
,
0100
1000
0001
1000
,
0010
1000
0100
0000
2002
0000
0000
0000
,
0000
0000
0000
0000
,
0000
0000
0000
0000
,
0000
0000
0000
0000
,
0000
0000
0000
3003
,
0001
0000
0001
0000
,
1000
0010
0100
0001
,
1000
0000
1000
0000
,
0001
0100
0010
1000
,
0100
0000
0100
0000
,
0010
0001
1000
0100
,
0010
0000
0010
0000
,
2002
0000
0000
3003
,
0001
0000
0001
0000
0100
0010
0100
0000
,
0001
0000
0010
0000
1000
0100
0001
0000
,
1000
0000
1000
0000
0010
0100
0010
0000
,
1000
0000
0100
0000
0001
0010
1000
0000
,
0100
0000
0100
0000
1000
0001
1000
0000
,
0100
0000
0001
0000
0010
1000
0100
0000
,
0010
0000
0010
0000
0001
1000
0001
0000
,
0010
0000
1000
0000
0100
0001
0010
0000
,
1000
1000
1000
1000
,
1000
0010
0001
0000
1000
0100
0001
0000
,
0001
0001
0001
0001
,
0001
0100
1000
0000
0001
0010
1000
0000
,
1000
1000
1001
0001
,
0001
0001
1001
1000
,
1000
0000
0010
0000
1000
0010
1000
0000
,
0001
0000
0100
0000
0001
0100
0001
0000
,
0010
0000
0001
0000
0010
0001
0010
0000
,
0100
0000
1000
0000
0100
1000
0100
0000
,
1000
0100
0010
0001
,
1000
0100
0010
0001
,
1000
0001
1000
0000
1000
0000
1000
0000
,
0001
0000
0001
0000
0001
0100
0001
0000
,
1000
0010
1000
0000
1000
1000
1000
0000
,
0001
0001
0001
0000
0000
0000
0000
0000
,
1000
0010
0100
0001
,
1000
0100
0010
0000
0001
0000
0100
0000
,
1000
0100
0010
0000
0001
0000
0100
0000
,
1000
0010
1000
0000
0001
0100
0001
0000
,
1000
0100
1000
0000
0001
0010
0001
0000
,
1000
0100
0001
0000
1000
0010
0001
0000
,
0001
0010
1000
0000
0001
0100
1000
0000
,
1000
1000
1000
1000
,
0001
0001
0001
0001
,
1001
0000
1010
0000
,
1001
0000
0101
0000
,
2002
0000
0000
0000
,
3003
0000
0000
0000
;

//---------------dance-single - ----------------
#NOTEDATA:;
#CHARTNAME:;
#STEPSTYPE:dance-single;
#DESCRIPTION:;
#CHARTSTYLE:;
#DIFFICULTY:Medium;
#METER:11;
#RADARVALUES:0.456948,0.515570,0.094696,0.163088,0.000000,608.000000,590.000000,18.000000,31.000000,0.000000,0.000000,0.000000,0.000000,0.000000,0.456948,0.515570,0.094696,0.163088,0.000000,608.000000,590.000000,18.000000,31.000000,0.000000,0.000000,0.000000,0.000000,0.000000;
#CREDIT:;
#NOTES:
0000
0000
0000
0000
,
0000
0000
0000
0000
,
0000
0000
0000
0000
,
0000
0000
0000
0000
,
0000
0000
0000
0000
,
0000
0000
0000
0000
,
0000
0000
0000
0000
,
0000
0000
0000
0000
,
0000
0000
0000
0000
,
1000
0000
1000
1000
,
0001
0100
0010
1000
,
0001
0000
0001
0001
,
1000
0010
0100
0001
,
0010
0000
0010
0010
,
0100
1000
0001
0010
,
0100
0000
0100
0100
,
0010
0001
1000
0100
,
0001
0010
1000
0010
,
1000
0010
1000
0000
0001
0010
0001
0000
,
1000
0100
1000
0000
0010
0100
0010
0000
,
1000
0010
1000
0010
,
0100
0001
0100
0001
,
1000
0001
1000
0001
,
1000
0001
1000
0001
1000
0001
1000
0001
,
2002
0000
0000
0000
,
0000
0000
0000
3003
,
1000
0100
1000
0000
0010
0100
0010
0000
,
1000
0000
0100
0010
0001
0010
1000
0000
,
0001
0010
0001
0000
0100
0010
0100
0000
,
0001
0000
0010
0100
1000
0100
0001
0000
,
0010
1000
0010
0000
0001
1000
0001
0000
,
0010
0000
1000
0001
0100
0001
0010
0000
,
0100
0001
0100
0000
1000
0001
1000
0000
,
0100
0000
0001
1000
0010
1000
0100
0000
,
1000
0010
0100
0010
,
0001
0010
1000
0000
0102
0000
0103
0000
,
0001
0100
0010
0100
,
1000
0100
0001
0000
2010
0000
3010
0000
,
0010
0001
1000
0001
,
0100
0001
0010
0000
1200
0000
1300
0000
,
0100
1000
0001
1000
,
0010
1000
0100
0000
2002
0000
0000
0000
,
0000
0000
0000
0000
,
0000
0000
0000
0000
,
0000
0000
0000
0000
,
0000
0000
0000
3003
,
0001
0010
0001
0000
0100
0010
0100
0000
,
0001
0000
0010
0100
1000
0100
0001
0000
,
1000
0100
1000
0000
0010
0100
0010
0000
,
1000
0000
0100
0010
0001
0010
1000
0000
,
0100
0001
0100
0000
1000
0001
1000
0000
,
0100
0000
0001
1000
0010
1000
0100
0000
,
0010
1000
0010
0000
0001
1000
0001
0000
,
0010
0000
1000
0001
0100
0001
0010
0000
,
1000
0000
1000
0010
2000
0000
0000
0000
,
3001
0010
1000
0010
0001
0000
0001
0000
,
1000
1000
0010
0010
,
0100
0010
0100
0000
0010
0100
0010
0000
,
0001
0000
0001
0100
0002
0000
0000
0000
,
1003
0100
0001
0100
1000
0000
1000
0000
,
0001
0001
0100
0100
,
0010
0100
0010
0000
0200
0000
0000
0300
,
1000
0000
0100
0000
0010
0100
0010
0000
,
0001
0000
0001
0000
1000
0001
1000
0000
,
0001
0000
0010
0000
0100
0010
0100
0000
,
1000
0000
1000
0000
0001
1000
0001
0000
,
2000
3010
0020
0130
,
0001
0010
0100
0000
0010
0100
1000
0000
,
0002
0103
0200
0310
,
1000
0100
0010
0000
0100
0010
0001
0000
,
2000
3010
0002
0103
,
0010
0100
0010
0000
0001
0100
0010
0000
,
0002
0103
2000
3010
,
0100
0010
0100
0000
1000
0010
0100
0000
,
2000
3001
0002
1003
,
1000
0001
1000
0000
0001
1000
0001
0000
,
0001
0000
0001
0100
0002
0000
0000
0000
,
1003
0100
0001
0100
1000
0000
1000
0000
,
0001
0001
0100
0100
,
0010
0100
0010
0000
0100
0010
0100
0000
,
1000
0000
1000
0010
2000
0000
0000
0000
,
3001
0010
1000
0010
0001
0000
0001
0000
,
1000
1000
0010
0010
,
0100
0010
0100
0000
0010
0100
0010
0000
,
1000
0010
0100
0010
,
0001
0010
1000
0000
0102
0000
0103
0000
,
0001
0100
0010
0100
,
1000
0100
0001
0000
2010
0000
3010
0000
,
0010
0001
1000
0001
,
0100
0001
0010
0000
1200
0000
1300
0000
,
0100
1000
0001
1000
,
0010
1000
0100
0000
2002
0000
0000
0000
,
0000
0000
0000
0000
,
0000
0000
0000
0000
,
0000
0000
0000
0000
,
0000
0000
0000
3003
,
0001
0000
0001
0001
,
1000
0010
0100
0001
,
1000
0000
1000
1000
,
0001
0100
0010
1000
,
0100
0000
0100
0100
,
0010
0001
1000
0100
,
0010
0000
0010
0010
,
2002
0000
0000
3003
,
0001
0010
0001
0000
0100
0010
0100
0000
,
0001
0000
0010
0100
1000
0100
0001
0000
,
1000
0100
1000
0000
0010
0100
0010
0000
,
1000
0000
0100
0010
0001
0010
1000
0000
,
0100
0001
0100
0000
1000
0001
1000
0000
,
0100
0000
0001
1000
0010
1000
0100
0000
,
0010
1000
0010
0000
0001
1000
0001
0000
,
0010
0000
1000
0001
0100
0001
0010
0000
,
1000
0001
1000
0000
1000
0000
1000
0000
,
1000
0010
0001
0000
1000
0100
0001
0000
,
0001
1000
0001
0000
0001
0000
0001
0000
,
0001
0100
1000
0000
0001
0010
1000
0000
,
1000
0001
1000
0000
1001
0000
0001
0000
,
0001
1000
0001
0000
1001
0000
1000
0000
,
1000
0000
0010
0000
1000
0010
1000
0000
,
0001
0000
0100
0000
0001
0100
0001
0000
,
0010
0000
0001
0000
0010
0001
0010
0000
,
0100
0000
1000
0000
0100
1000
0100
0000
,
1000
0100
0010
0001
,
1000
0100
0010
0001
,
1000
0001
1000
0000
1000
0010
1000
0000
,
0001
0100
0001
0000
0001
0100
0001
0000
,
1000
0010
1000
0000
1000
1000
1000
0000
,
0001
0001
0001
0000
0000
0000
0000
0000
,
1000
0001
0010
0000
0100
0000
0001
0000
,
1000
0100
0010
0000
0001
0010
0100
0000
,
1000
0100
0010
0000
0001
0010
0100
0000
,
1000
0010
1000
0000
0001
0100
0001
0000
,
1000
0100
1000
0000
0001
0010
0001
0000
,
1000
0100
0001
0000
1000
0010
0001
0000
,
0001
0010
1000
0000
0001
0100
1000
0000
,
1000
0000
1000
0000
1000
0001
1000
0000
,
0001
0000
0001
0000
0001
1000
0001
0000
,
1001
0000
1010
0000
,
1001
0000
0000
0000
0101
0000
0000
1001
,
2002
0000
0000
0000
,
3003
0000
0000
0000
;

//---------------dance-single - ----------------
#NOTEDATA:;
#CHARTNAME:;
#STEPSTYPE:dance-single;
#DESCRIPTION:;
#CHARTSTYLE:;
#DIFFICULTY:Hard;
#METER:11;
#RADARVALUES:0.482501,0.552396,0.099957,0.163088,0.000000,642.000000,623.000000,19.000000,31.000000,0.000000,0.000000,0.000000,0.000000,0.000000,0.482501,0.552396,0.099957,0.163088,0.000000,642.000000,623.000000,19.000000,31.000000,0.000000,0.000000,0.000000,0.000000,0.000000;
#CREDIT:;
#NOTES:
0000
0000
0000
0000
,
0000
0000
0000
0000
,
0000
0000
0000
0000
,
0000
0000
0000
0000
,
0000
0000
0000
0000
,
0000
0000
0000
0000
,
0000
0000
0000
0000
,
0000
0000
0000
0000
,
0000
0000
0000
0000
,
1000
1000
1000
1000
,
0001
0100
0010
1000
,
0001
0001
0001
0001
,
1000
0010
0100
0001
,
0010
0010
0010
0010
,
0100
1000
0001
0010
,
0100
0100
0100
0100
,
0010
0001
1000
0100
,
0001
0010
1000
0010
,
1000
0010
1000
0010
0001
0010
0001
0000
,
1000
0100
1000
0100
0010
0100
0010
0000
,
1000
0010
1000
0010
,
0100
0001
0100
0001
,
1000
0001
1000
0001
,
1000
0001
1000
0001
1000
0001
1000
0001
,
2002
0000
0000
0000
,
0000
0000
0000
3003
,
1000
0100
1000
0000
0010
0100
0010
0000
,
1000
0000
0100
0010
0001
0010
1000
0000
,
0001
0010
0001
0000
0100
0010
0100
0000
,
0001
0000
0010
0100
1000
0100
0001
0000
,
0010
1000
0010
0000
0001
1000
0001
0000
,
0010
0000
1000
0001
0100
0001
0010
0000
,
0100
0001
0100
0000
1000
0001
1000
0000
,
0100
0000
0001
1000
0010
1000
0100
0000
,
1000
0100
0010
0000
0100
0000
0010
0000
,
0001
0010
1000
0010
0102
0000
0103
0000
,
0001
0010
0100
0000
0010
0000
0100
0000
,
1000
0100
0001
0100
2010
0000
3010
0000
,
0010
1000
0001
0000
1000
0000
0001
0000
,
0100
0001
0010
0001
1200
0000
1300
0000
,
0100
0001
1000
0000
0001
0000
1000
0000
,
0010
1000
0100
0000
2002
0000
0000
0000
,
0000
0000
0000
0000
,
0000
0000
0000
0000
,
0000
0000
0000
0000
,
0000
0000
0000
3003
,
0001
0010
0001
0000
0100
0010
0100
0000
,
0001
0000
0010
0100
1000
0100
0001
0000
,
1000
0100
1000
0000
0010
0100
0010
0000
,
1000
0000
0100
0010
0001
0010
1000
0000
,
0100
0001
0100
0000
1000
0001
1000
0000
,
0100
0000
0001
1000
0010
1000
0100
0000
,
0010
1000
0010
0000
0001
1000
0001
0000
,
0010
0000
1000
0001
0100
0001
0010
0000
,
1000
0010
1000
0010
2000
0000
0000
0000
,
3001
0010
1000
0010
0001
0000
0001
0000
,
1000
1000
0010
0010
,
0100
0010
0100
0000
0010
0100
0010
0000
,
0001
0100
0001
0100
0002
0000
0000
0000
,
1003
0100
0001
0100
1000
0000
1000
0000
,
0001
0001
0100
0100
,
0010
0100
0010
0000
0200
0000
0000
0300
,
1000
0000
0100
0000
0010
0100
0010
0000
,
0001
0000
0001
0000
1000
0001
1000
0000
,
0001
0000
0010
0000
0100
0010
0100
0000
,
1000
0000
1000
0000
0001
1000
0001
0000
,
2000
3010
0020
0130
,
0001
0010
0100
0000
0010
0100
1000
0000
,
0002
0103
0200
0310
,
1000
0100
0010
0000
0100
0010
0001
0000
,
2000
3010
0002
0103
,
0010
0100
0010
0000
0001
0100
0010
0000
,
0002
0103
2000
3010
,
0100
0010
0100
0000
1000
0010
0100
0000
,
2000
3001
0002
1003
,
1000
0001
1000
0000
0001
1000
0001
0000
,
0001
0100
0001
0100
0002
0000
0000
0000
,
1003
0100
0001
0100
1000
0000
1000
0000
,
0001
0001
0100
0100
,
0010
0100
0010
0000
0100
0010
0100
0000
,
1000
0010
1000
0010
2000
0000
0000
0000
,
3001
0010
1000
0010
0001
0000
0001
0000
,
1000
1000
0010
0010
,
0100
0010
0100
0000
0010
0100
0010
0000
,
1000
0010
0100
0010
,
0001
0010
1000
0010
0102
0000
0103
0000
,
0001
0100
0010
0100
,
1000
0100
0001
0100
2010
0000
3010
0000
,
0010
0001
1000
0001
,
0100
0001
0010
0001
1200
0000
1300
0000
,
0100
1000
0001
1000
,
0010
1000
0100
1000
2002
0000
0000
0000
,
0000
0000
0000
0000
,
0000
0000
0000
0000
,
0000
0000
0000
0000
,
0000
0000
0000
3003
,
0001
0001
0001
0001
,
1000
0010
0100
0001
,
1000
1000
1000
1000
,
0001
0100
0010
1000
,
0100
0100
0100
0100
,
0010
0001
1000
0100
,
0010
0010
0010
0010
,
2002
0000
0000
3003
,
0001
0010
0001
0000
0100
0010
0100
0000
,
0001
0000
0010
0100
1000
0100
0001
0000
,
1000
0100
1000
0000
0010
0100
0010
0000
,
1000
0000
0100
0010
0001
0010
1000
0000
,
0100
0001
0100
0000
1000
0001
1000
0000
,
0100
0000
0001
1000
0010
1000
0100
0000
,
0010
1000
0010
0000
0001
1000
0001
0000
,
0010
0000
1000
0001
0100
0001
0010
0000
,
1000
0001
1000
0000
1000
0000
1000
0000
,
1000
0010
0001
0000
1000
0100
0001
0000
,
0001
1000
0001
0000
0001
0000
0001
0000
,
0001
0100
1000
0000
0001
0010
1000
0000
,
1000
0001
1000
0000
1001
0000
0001
0000
,
0001
1000
0001
0000
1001
0000
1000
0000
,
1000
0010
1000
0000
1000
0010
1000
0000
,
0001
0100
0001
0000
0001
0100
0001
0000
,
0010
0001
0010
0000
0010
0001
0010
0000
,
0100
1000
0100
0000
0100
1000
0100
0000
,
1000
0100
0010
0001
,
1000
0000
0001
0000
1000
0100
0010
0001
,
1000
0001
1000
0000
1000
0010
1000
0000
,
0001
0100
0001
0000
0001
0100
0001
0000
,
1000
0010
1000
0000
1000
1000
1000
0000
,
0001
0001
0001
0000
0000
0000
0000
0000
,
1000
0001
0010
0000
0100
1000
0001
0000
,
1000
0100
0010
0000
0001
0010
0100
0000
,
1000
0100
0010
0000
0001
0010
0100
0000
,
1000
0010
1000
0000
0001
0100
0001
0000
,
1000
0100
1000
0000
0001
0010
0001
0000
,
1000
0100
0001
0000
1000
0010
0001
0000
,
0001
0010
1000
0000
0001
0100
1000
0000
,
1000
0000
1000
0000
1000
0001
1000
0000
,
0001
0000
0001
0000
0001
1000
0001
0000
,
1001
0000
1010
0110
,
1001
0000
0000
0000
0101
0000
0000
1001
,
2002
0000
0000
0000
,
3003
0000
0000
0000
;

//---------------dance-single - ----------------
#NOTEDATA:;
#CHARTNAME:;
#STEPSTYPE:dance-single;
#DESCRIPTION:;
#CHARTSTYLE:;
#DIFFICULTY:Challenge;
#METER:11;
#RADARVALUES:0.496029,0.589223,0.115740,0.163088,0.000000,660.000000,638.000000,22.000000,31.000000,0.000000,0.000000,0.000000,0.000000,0.000000,0.496029,0.589223,0.115740,0.163088,0.000000,660.000000,638.000000,22.000000,31.000000,0.000000,0.000000,0.000000,0.000000,0.000000;
#CREDIT:;
#NOTES:
0000
0000
0000
0000
,
0000
0000
0000
0000
,
0000
0000
0000
0000
,
0000
0000
0000
0000
,
0000
0000
0000
0000
,
0000
0000
0000
0000
,
0000
0000
0000
0000
,
0000
0000
0000
0000
,
0000
0000
0000
0000
,
1000
1000
1000
1000
,
0001
0100
0010
1000
,
0001
0001
0001
0001
,
1000
0010
0100
0001
,
0010
0010
0010
0010
,
0100
1000
0001
0010
,
0100
0100
0100
0100
,
0010
0001
1000
0100
,
0001
0010
1000
0010
,
1000
0010
1000
0010
0001
0010
0001
0000
,
1000
0100
1000
0100
0010
0100
0010
0000
,
1000
0010
1000
0010
,
0100
0001
0100
0001
,
1000
0001
1000
0001
,
1000
0001
1000
0001
1000
0001
1000
0001
,
2002
0000
0000
0000
,
0000
0000
0000
3003
,
1000
0100
1000
0000
0010
0100
0010
0000
,
1000
0000
0100
0010
0001
0010
1000
0000
,
0001
0010
0001
0000
0100
0010
0100
0000
,
0001
0000
0010
0100
1000
0100
0001
0000
,
0010
1000
0010
0000
0001
1000
0001
0000
,
0010
0000
1000
0001
0100
0001
0010
0000
,
0100
0001
0100
0000
1000
0001
1000
0000
,
0100
0000
0001
1000
0010
1000
0100
0000
,
1000
0100
0010
0000
0100
0000
0010
0000
,
0001
0010
1000
0010
0102
0000
0103
0000
,
0001
0010
0100
0000
0010
0000
0100
0000
,
1000
0100
0001
0100
2010
0000
3010
0000
,
0010
1000
0001
0000
1000
0000
0001
0000
,
0100
0001
0010
0001
1200
0000
1300
0000
,
0100
0001
1000
0000
0001
0000
1000
0000
,
0010
1000
0100
0000
2002
0000
0000
0000
,
0000
0000
0000
0000
,
0000
0000
0000
0000
,
0000
0000
0000
0000
,
0000
0000
0000
3003
,
0001
0010
0001
0000
0100
0010
0100
0000
,
0001
0000
0010
0100
1000
0100
0001
0000
,
1000
0100
1000
0000
0010
0100
0010
0000
,
1000
0000
0100
0010
0001
0010
1000
0000
,
0100
0001
0100
0000
1000
0001
1000
0000
,
0100
0000
0001
1000
0010
1000
0100
0000
,
0010
1000
0010
0000
0001
1000
0001
0000
,
0010
0000
1000
0001
0100
0001
0010
0000
,
1000
0010
1000
0010
2000
0000
0000
0000
,
3001
0010
1000
0010
0001
0000
0001
0000
,
1000
0001
1000
0000
0010
0000
0010
0000
,
0100
0010
0100
0000
0010
0100
0010
0000
,
0001
0100
0001
0100
0002
0000
0000
0000
,
1003
0100
0001
0100
1000
0000
1000
0000
,
0001
1000
0001
0000
0100
0000
0100
0000
,
0010
0100
0010
0000
0200
0000
0000
0300
,
1000
0000
0100
0000
0010
0100
0010
0000
,
0001
1000
0001
0000
1000
0001
1000
0000
,
0001
0000
0010
0000
0100
0010
0100
0000
,
1000
0001
1000
0000
0001
1000
0001
0000
,
2000
3010
0020
0130
,
0001
0010
0100
0000
0010
0100
1000
0000
,
0002
0103
0200
0310
,
1000
0100
0010
0000
0100
0010
0001
0000
,
2000
3010
0002
0103
,
0010
0100
0010
0000
0001
0100
0010
0000
,
0002
0103
2000
3010
,
0100
0010
0100
0000
1000
0010
0100
0000
,
2000
3001
0002
1003
,
1000
0001
1000
0000
0001
1000
0001
0000
,
0001
0100
0001
0100
0002
0000
0000
0000
,
1003
0100
0001
0100
1000
0000
1000
0000
,
0001
1000
0001
0000
0100
0000
0100
0000
,
0010
0100
0010
0000
0100
0010
0100
0000
,
1000
0010
1000
0010
2000
0000
0000
0000
,
3001
0010
1000
0010
0001
0000
0001
0000
,
1000
0001
1000
0000
0010
0000
0010
0000
,
0100
0010
0100
0000
0010
0100
0010
0000
,
1000
0010
0100
0010
,
0001
0010
1000
0010
0102
0000
0103
0000
,
0001
0100
0010
0100
,
1000
0100
0001
0100
2010
0000
3010
0000
,
0010
0001
1000
0001
,
0100
0001
0010
0001
1200
0000
1300
0000
,
0100
1000
0001
1000
,
0010
1000
0100
1000
2002
0000
0000
0000
,
0000
0000
0000
0000
,
0000
0000
0000
0000
,
0000
0000
0000
0000
,
0000
0000
0000
3003
,
0001
0001
0001
0001
,
1000
0010
0100
0001
,
1000
1000
1000
1000
,
0001
0100
0010
1000
,
0100
0100
0100
0100
,
0010
0001
1000
0100
,
0010
0010
0010
0010
,
2002
0000
0000
3003
,
0001
0010
0001
0000
0100
0010
0100
0000
,
0001
0000
0010
0100
1000
0100
0001
0000
,
1000
0100
1000
0000
0010
0100
0010
0000
,
1000
0000
0100
0010
0001
0010
1000
0000
,
0100
0001
0100
0000
1000
0001
1000
0000
,
0100
0000
0001
1000
0010
1000
0100
0000
,
0010
1000
0010
0000
0001
1000
0001
0000
,
0010
0000
1000
0001
0100
0001
0010
0000
,
1000
0001
1000
0000
1000
0000
1000
0000
,
1000
0010
0001
0010
1000
0100
0001
0000
,
0001
1000
0001
0000
0001
0000
0001
0000
,
0001
0100
1000
0100
0001
0010
1000
0000
,
1000
0001
1000
0000
1001
0000
0001
0000
,
0001
1000
0001
0000
1001
0000
1000
0000
,
1000
0010
1000
0000
1000
0010
1000
0000
,
0001
0100
0001
0000
0001
0100
0001
0000
,
0010
0001
0010
0000
0010
0001
0010
0000
,
0100
1000
0100
0000
0100
1000
0100
0000
,
1000
0100
0010
0001
,
1000
0100
0010
0001
1000
0100
0010
0001
,
1000
0001
1000
0000
1000
0010
1000
0000
,
0001
0100
0001
0000
0001
0100
0001
0000
,
1000
0010
1000
0000
1010
1000
1000
0000
,
0101
0001
0001
0000
0000
0000
0000
0000
,
1000
0001
0010
0000
0100
1000
0001
0000
,
1000
0100
0010
0010
0001
0010
0100
0000
,
1000
0100
0010
0100
0001
0010
0100
0000
,
1000
0010
1000
0000
0001
0100
0001
0000
,
1000
0100
1000
0000
0001
0010
0001
0000
,
1000
0100
0001
0010
1000
0010
0001
0000
,
0001
0010
1000
0100
0001
0100
1000
0000
,
1000
0000
1000
0000
1000
0001
1000
0000
,
0001
0000
0001
0000
0001
1000
0001
0000
,
1001
0000
1010
0110
,
1001
0000
0000
1010
0101
0000
0000
1001
,
2002
0000
0000
0000
,
3003
0000
0000
0000
;
