#TITLE:Dragon Night;
#SUBTITLE:;
#ARTIST:SEKAI NO OWARI;
#TITLETRANSLIT:;
#SUBTITLETRANSLIT:;
#ARTISTTRANSLIT:END OF THE WORLD;
#GENRE:;
#CREDIT:;
#BANNER:;
#BACKGROUND:;
#LYRICSPATH:;
#CDTITLE:;
#MUSIC:Dragon Night.ogg;
#OFFSET:-0.732000;
#SAMPLESTART:38.958000;
#SAMPLELENGTH:15.000000;
#SELECTABLE:YES;
#BPMS:0.000000=124.000000
;
#STOPS:
;
#BGCHANGES:;
#KEYSOUNDS:;
#ATTACKS:;

//---------------dance-single - ----------------
#NOTES:
     dance-single:
     :
     Beginner:
     8:
     0.329895,0.498942,0.521020,0.220771,0.052985,523.000000,405.000000,118.000000,50.000000,0.000000,0.000000,0.329895,0.498942,0.521020,0.220771,0.052985,523.000000,405.000000,118.000000,50.000000,0.000000,0.000000:
0000
0000
0000
0000
,
0000
0000
0000
0000
,
2000
0000
0010
0000
,
3002
0000
0100
0000
,
0023
0000
0001
0000
,
0230
0000
1000
0000
,
2300
0000
0010
0000
,
3002
0000
0100
0000
,
0023
0000
0001
0000
,
0230
0000
0000
0000
1000
0000
0000
0300
,
1001
0000
0001
0000
0001
1000
0001
1000
,
1001
0000
1000
0000
1000
0001
1000
0001
,
2000
0000
0010
0000
,
3002
0000
0100
0000
,
0023
0000
0001
0000
,
0230
0000
1000
0000
,
2300
0000
0010
0000
,
3002
0000
0100
0000
,
0023
0000
0001
0000
,
0230
0000
0000
0000
1000
0000
0000
0300
,
0011
0001
1001
1000
,
1100
1000
1001
0001
,
0101
0100
0110
0010
,
1010
0010
0110
0100
,
0011
0001
1001
1000
,
1100
1000
1001
0001
,
0101
0100
0110
0010
,
1010
0000
0010
0000
1001
0010
0010
0010
,
0011
0001
1001
1000
,
1100
1000
1001
0001
,
0101
0100
0110
0010
,
1010
0010
0110
0100
,
0011
0001
1001
1000
,
1100
1000
1001
0001
,
0101
0100
0110
0010
,
1001
0000
0010
0000
1001
0010
0010
0010
,
1000
0001
1000
0001
0020
0000
0000
0030
,
0001
1000
0001
1000
0200
0000
0000
0300
,
2000
0000
0010
0000
,
3002
0000
0100
0000
,
0023
0000
0001
0000
,
0230
0000
1000
0000
,
2300
0000
0010
0000
,
3002
0000
0100
0000
,
0023
0000
0001
0000
,
0230
0000
0000
0000
1000
0000
0000
0300
,
1001
0000
0001
0000
0001
1000
0001
1000
,
1001
0000
1000
0000
1000
0001
1000
0001
,
2000
0000
0010
0000
,
3002
0000
0100
0000
,
0023
0000
0001
0000
,
0230
0000
1000
0000
,
2300
0000
0010
0000
,
3002
0000
0100
0000
,
0023
0000
0001
0000
,
0230
0000
0000
0000
1000
0000
0000
0300
,
0011
0001
1001
1000
,
1100
1000
1001
0001
,
0101
0100
0110
0010
,
1010
0010
0110
0100
,
0011
0001
1001
1000
,
1100
1000
1001
0001
,
0101
0100
0110
0010
,
1010
0000
0010
0000
1001
0010
0010
0010
,
0011
0001
1001
1000
,
1100
1000
1001
0001
,
0101
0100
0110
0010
,
1010
0010
0110
0100
,
0011
0001
1001
1000
,
1100
1000
1001
0001
,
0101
0100
0110
0010
,
1001
0000
0010
0000
1001
0010
0010
0010
,
1000
0001
1000
0001
0020
0100
0000
0030
,
0001
1000
0001
1000
0200
0010
0000
0300
,
1000
0000
0100
0000
0010
0000
0001
0010
0100
0010
0100
1000
,
0001
0000
0010
0000
0100
0000
1000
0100
0010
0100
0010
0001
,
1000
0001
1000
0001
0020
0000
0000
0030
,
0001
1000
0001
1000
0200
0000
0000
0300
,
1000
0000
0100
0000
0010
0000
0001
0010
0100
0010
0100
1000
,
0001
0000
0010
0000
0100
0000
1000
0100
0010
0100
0010
0001
,
2000
0000
0000
0000
,
3002
0000
0000
0000
,
0023
0000
0000
0000
,
0230
0000
0000
0000
,
2300
0000
0000
0000
,
3002
0000
0000
0000
,
0023
0000
0000
0000
,
0230
0000
0000
0000
0000
0000
0000
0300
,
2002
0000
0000
3003
0220
0000
0000
0330
,
0011
0001
1001
1000
,
1100
1000
1001
0001
,
0101
0100
0110
0010
,
1010
0010
0110
0100
,
0011
0001
1001
1000
,
1100
1000
1001
0001
,
0101
0100
0110
0010
,
1010
0000
0010
0000
1001
0010
0010
0010
,
0011
0001
1001
1000
,
1100
1000
1001
0001
,
0101
0100
0110
0010
,
1010
0010
0110
0100
,
0011
0001
1001
1000
,
1100
1000
1001
0001
,
0101
0100
0110
0010
,
1001
0000
0010
0000
1001
0010
0010
0010
,
0011
0001
1001
1000
,
1100
1000
1001
0001
,
0101
0100
0110
0010
,
1010
0010
0110
0100
,
0011
0001
1001
1000
,
1100
1000
1001
0001
,
0101
0100
0110
0010
,
1001
0000
0010
0000
1001
0010
0010
0010
,
0010
0000
0000
0000
;

//---------------dance-single - ----------------
#NOTES:
     dance-single:
     :
     Easy:
     10:
     0.356388,0.623678,0.057400,0.362064,0.342195,565.000000,552.000000,13.000000,82.000000,0.000000,0.000000,0.356388,0.623678,0.057400,0.362064,0.342195,565.000000,552.000000,13.000000,82.000000,0.000000,0.000000:
0000
0000
0000
0000
,
0000
0000
0000
0000
,
2000
0000
0020
0030
,
3002
0000
0200
0300
,
0023
0000
0002
0003
,
0230
0000
2000
3000
,
2300
0000
0020
0030
,
3002
0000
0200
0300
,
0023
0000
0002
0003
,
0230
0000
0000
0000
2000
0000
3000
0300
,
1000
0001
0000
0000
0001
0000
0000
0000
1000
0001
1000
0000
0001
0000
1000
0000
,
0001
1000
0000
0000
1000
0000
0000
0000
0001
1000
0001
0000
1000
0000
0001
0000
,
2000
0000
0020
0030
,
3002
0000
0200
0300
,
0023
0000
0002
0003
,
0230
0000
2000
3000
,
2300
0000
0020
0030
,
3002
0000
0200
0300
,
0023
0000
0002
0003
,
0230
0000
0000
0000
2000
0000
3000
0300
,
0010
0001
0000
0000
0001
0000
0000
0000
0001
1000
0000
0000
1000
0000
0000
0000
,
0100
1000
0000
0000
1000
0000
0000
0000
1000
0001
0000
0000
0001
0000
0000
0000
,
0001
0100
0000
0000
0100
0000
0000
0000
0100
0010
0000
0000
0010
0000
0000
0000
,
1000
0010
0000
0000
0010
0000
0000
0000
0010
0100
0000
0000
0100
0000
0000
0000
,
0010
0001
0000
0000
0001
0000
0000
0000
0001
1000
0000
0000
1000
0000
0000
0000
,
0100
1000
0000
0000
1000
0000
0000
0000
1000
0001
0000
0000
0001
0000
0000
0000
,
0001
0100
0000
0000
0100
0000
0000
0000
0100
0010
0000
0000
0010
0000
0000
0000
,
1000
0010
0000
0000
0010
0000
0000
0000
1001
0000
0010
0000
0010
0100
0010
0100
,
0010
0001
0000
0000
0001
0000
0000
0000
0001
1000
0000
0000
1000
0000
0000
0000
,
0100
1000
0000
0000
1000
0000
0000
0000
1000
0001
0000
0000
0001
0000
0000
0000
,
0001
0100
0000
0000
0100
0000
0000
0000
0100
0010
0000
0000
0010
0000
0000
0000
,
1000
0010
0000
0000
0010
0000
0000
0000
0010
0100
0000
0000
0100
0000
0000
0000
,
0010
0001
0000
0000
0001
0000
0000
0000
0001
1000
0000
0000
1000
0000
0000
0000
,
0100
1000
0000
0000
1000
0000
0000
0000
1000
0001
0000
0000
0001
0000
0000
0000
,
0001
0100
0000
0000
0100
0000
0000
0000
0100
0010
0000
0000
0010
0000
0000
0000
,
1001
0000
0000
0000
0010
0000
0000
0000
1001
0000
0010
0000
0010
0100
0010
0100
,
1000
0001
1000
0001
0020
0100
0000
0030
,
0001
1000
0001
1000
0200
0010
0000
0300
,
2000
0000
0020
0030
,
3002
0000
0200
0300
,
0023
0000
0002
0003
,
0230
0000
2000
3000
,
2300
0000
0020
0030
,
3002
0000
0200
0300
,
0023
0000
0002
0003
,
0230
0000
0000
0000
2000
0000
3000
0300
,
1000
0001
0000
0000
0001
0000
0000
0000
1000
0001
1000
0000
0001
0000
1000
0000
,
0001
1000
0000
0000
1000
0000
0000
0000
0001
1000
0001
0000
1000
0000
0001
0000
,
2000
0000
0020
0030
,
3002
0000
0200
0300
,
0023
0000
0002
0003
,
0230
0000
2000
3000
,
2300
0000
0020
0030
,
3002
0000
0200
0300
,
0023
0000
0002
0003
,
0230
0000
0000
0000
2000
0000
3000
0300
,
0010
0001
0000
0000
0001
0000
0000
0000
0001
1000
0000
0000
1000
0000
0000
0000
,
0100
1000
0000
0000
1000
0000
0000
0000
1000
0001
0000
0000
0001
0000
0000
0000
,
0001
0100
0000
0000
0100
0000
0000
0000
0100
0010
0000
0000
0010
0000
0000
0000
,
1000
0010
0000
0000
0010
0000
0000
0000
0010
0100
0000
0000
0100
0000
0000
0000
,
0010
0001
0000
0000
0001
0000
0000
0000
0001
1000
0000
0000
1000
0000
0000
0000
,
0100
1000
0000
0000
1000
0000
0000
0000
1000
0001
0000
0000
0001
0000
0000
0000
,
0001
0100
0000
0000
0100
0000
0000
0000
0100
0010
0000
0000
0010
0000
0000
0000
,
1000
0010
0000
0000
0010
0000
0000
0000
1001
0000
0010
0000
0010
0100
0010
0100
,
0010
0001
0000
0000
0001
0000
0000
0000
0001
1000
0000
0000
1000
0000
0000
0000
,
0100
1000
0000
0000
1000
0000
0000
0000
1000
0001
0000
0000
0001
0000
0000
0000
,
0001
0100
0000
0000
0100
0000
0000
0000
0100
0010
0000
0000
0010
0000
0000
0000
,
1000
0010
0000
0000
0010
0000
0000
0000
0010
0100
0000
0000
0100
0000
0000
0000
,
0010
0001
0000
0000
0001
0000
0000
0000
0001
1000
0000
0000
1000
0000
0000
0000
,
0100
1000
0000
0000
1000
0000
0000
0000
1000
0001
0000
0000
0001
0000
0000
0000
,
0001
0100
0000
0000
0100
0000
0000
0000
0100
0010
0000
0000
0010
0000
0000
0000
,
1001
0000
0000
0000
0010
0000
0000
0000
1001
0000
0010
0000
0010
0100
0010
0100
,
1000
0001
1000
0001
0020
0100
0000
0030
,
0001
1000
0001
1000
0200
0010
0000
0300
,
0010
0100
0001
0010
0100
1000
0100
0010
0100
0010
0100
1000
,
0100
0010
1000
0100
0010
0001
0010
0100
0010
0100
0010
0001
,
1000
0001
1000
0001
0020
0100
0000
0030
,
0001
1000
0001
1000
0200
0010
0000
0300
,
0010
0100
0001
0010
0100
1000
0100
0010
0100
0010
0100
1000
,
0100
0010
1000
0100
0010
0001
0010
0100
0010
0100
0010
0001
,
2000
0000
0001
0000
,
3002
0000
1000
0000
,
0023
0000
1000
0000
,
0230
0000
0001
0000
,
2300
0000
0001
0000
,
3002
0000
1000
0000
,
0023
0000
1000
0000
,
0230
0000
0000
0000
0001
0000
0000
0300
,
2002
0000
0000
3003
0220
0000
0000
0330
,
0010
0001
0000
0000
0001
0000
0000
0000
0001
1000
0000
0000
1000
0000
0000
0000
,
0100
1000
0000
0000
1000
0000
0000
0000
1000
0001
0000
0000
0001
0000
0000
0000
,
0001
0100
0000
0000
0100
0000
0000
0000
0100
0010
0000
0000
0010
0000
0000
0000
,
1000
0010
0000
0000
0010
0000
0000
0000
0010
0100
0000
0000
0100
0000
0000
0000
,
0010
0001
0000
0000
0001
0000
0000
0000
0001
1000
0000
0000
1000
0000
0000
0000
,
0100
1000
0000
0000
1000
0000
0000
0000
1000
0001
0000
0000
0001
0000
0000
0000
,
0001
0100
0000
0000
0100
0000
0000
0000
0100
0010
0000
0000
0010
0000
0000
0000
,
1000
0010
0000
0000
0010
0000
0000
0000
1001
0000
0010
0000
0010
0100
0010
0100
,
0010
0001
0000
0000
0001
0000
0000
0000
0001
1000
0000
0000
1000
0000
0000
0000
,
0100
1000
0000
0000
1000
0000
0000
0000
1000
0001
0000
0000
0001
0000
0000
0000
,
0001
0100
0000
0000
0100
0000
0000
0000
0100
0010
0000
0000
0010
0000
0000
0000
,
1000
0010
0000
0000
0010
0000
0000
0000
0010
0100
0000
0000
0100
0000
0000
0000
,
0010
0001
0000
0000
0001
0000
0000
0000
0001
1000
0000
0000
1000
0000
0000
0000
,
0100
1000
0000
0000
1000
0000
0000
0000
1000
0001
0000
0000
0001
0000
0000
0000
,
0001
0100
0000
0000
0100
0000
0000
0000
0100
0010
0000
0000
0010
0000
0000
0000
,
1001
0000
0000
0000
0010
0000
0000
0000
1001
0000
0010
0000
0010
0100
0010
0100
,
0010
0001
0000
0000
0001
0000
0000
0000
0001
1000
0000
0000
1000
0000
0000
0000
,
0100
1000
0000
0000
1000
0000
0000
0000
1000
0001
0000
0000
0001
0000
0000
0000
,
0001
0100
0000
0000
0100
0000
0000
0000
0100
0010
0000
0000
0010
0000
0000
0000
,
1000
0010
0000
0000
0010
0000
0000
0000
0010
0100
0000
0000
0100
0000
0000
0000
,
0010
0001
0000
0000
0001
0000
0000
0000
0001
1000
0000
0000
1000
0000
0000
0000
,
0100
1000
0000
0000
1000
0000
0000
0000
1000
0001
0000
0000
0001
0000
0000
0000
,
0001
0100
0000
0000
0100
0000
0000
0000
0100
0010
0000
0000
0010
0000
0000
0000
,
1001
0000
0000
0000
0010
0000
0000
0000
1001
0000
0010
0000
0010
0100
0010
0100
,
0010
0000
0000
0000
;

//---------------dance-single - ----------------
#NOTES:
     dance-single:
     :
     Medium:
     11:
     0.402434,0.626438,0.105970,0.401803,0.342195,638.000000,614.000000,24.000000,91.000000,0.000000,0.000000,0.402434,0.626438,0.105970,0.401803,0.342195,638.000000,614.000000,24.000000,91.000000,0.000000,0.000000:
0000
0000
0000
0000
,
0000
0000
0000
0000
,
2000
0020
0000
0030
,
3002
0200
0000
0300
,
0023
0002
0000
0003
,
0230
2000
0000
3000
,
2300
0020
0000
0030
,
3002
0200
0000
0300
,
0023
0002
0000
0003
,
0230
0000
2000
0000
0000
0000
3000
0300
,
1000
0001
0010
0000
0001
0000
0000
0000
1000
0001
1000
0000
0001
0000
1000
0000
,
0001
1000
0100
0000
1000
0000
0000
0000
0001
1000
0001
0000
1000
0000
0001
0000
,
2000
0020
0000
0030
,
3002
0200
0000
0300
,
0023
0002
0000
0003
,
0230
2000
0000
3000
,
2300
0020
0000
0030
,
3002
0200
0000
0300
,
0023
0002
0000
0003
,
0230
0000
2000
0000
0000
0000
3000
0300
,
0010
0001
0010
0000
0001
0000
0000
0000
0001
1000
0000
0000
1000
0000
0000
0000
,
0100
1000
0100
0000
1000
0000
0000
0000
1000
0001
0000
0000
0001
0000
0000
0000
,
0001
0100
0001
0000
0100
0000
0000
0000
0100
0010
0000
0000
0010
0000
0000
0000
,
1000
0010
1000
0000
0010
0000
0000
0000
0010
0100
0000
0000
0100
0000
0000
0000
,
0010
0001
0010
0000
0001
0000
0000
0000
0001
1000
0000
0000
1000
0000
0000
0000
,
0100
1000
0100
0000
1000
0000
0000
0000
1000
0001
0000
0000
0001
0000
0000
0000
,
0001
0100
0001
0000
0100
0000
0000
0000
0100
0010
0000
0000
0010
0000
0000
0000
,
1000
0010
1000
0000
0010
0000
0000
0000
1001
0000
0110
0000
0010
0100
0010
0100
,
0010
0001
0010
0000
0001
0000
0000
0000
0001
1000
0000
0000
1000
0000
0000
0000
,
0100
1000
0100
0000
1000
0000
0000
0000
1000
0001
0000
0000
0001
0000
0000
0000
,
0001
0100
0001
0000
0100
0000
0000
0000
0100
0010
0000
0000
0010
0000
0000
0000
,
1000
0010
1000
0000
0010
0000
0000
0000
0010
0100
0000
0000
0100
0000
0000
0000
,
0010
0001
0010
0000
0001
0000
0000
0000
0001
1000
0000
0000
1000
0000
0000
0000
,
0100
1000
0100
0000
1000
0000
0000
0000
1000
0001
0000
0000
0001
0000
0000
0000
,
0001
0100
0001
0000
0100
0000
0000
0000
0100
0010
0000
0000
0010
0000
0000
0000
,
1001
0000
0000
0000
0110
0000
0000
0000
1001
0000
0110
0000
0010
0100
0010
0100
,
1000
0001
1000
0001
0020
0100
0000
0130
,
0001
1000
0001
1000
0200
0010
0000
0310
,
2000
0020
0000
0030
,
3002
0200
0000
0300
,
0023
0002
0000
0003
,
0230
2000
0000
3000
,
2300
0020
0000
0030
,
3002
0200
0000
0300
,
0023
0002
0000
0003
,
0230
0000
2000
0000
0000
0000
3000
0300
,
1000
0001
0010
0000
0001
0000
0000
0000
1000
0001
1000
0000
0001
0000
1000
0000
,
0001
1000
0100
0000
1000
0000
0000
0000
0001
1000
0001
0000
1000
0000
0001
0000
,
2000
0020
0000
0030
,
3002
0200
0000
0300
,
0023
0002
0000
0003
,
0230
2000
0000
3000
,
2300
0020
0000
0030
,
3002
0200
0000
0300
,
0023
0002
0000
0003
,
0230
0000
2000
0000
0000
0000
3000
0300
,
0010
0001
0010
0000
0001
0000
0000
0000
0001
1000
0000
0000
1000
0000
0000
0000
,
0100
1000
0100
0000
1000
0000
0000
0000
1000
0001
0000
0000
0001
0000
0000
0000
,
0001
0100
0001
0000
0100
0000
0000
0000
0100
0010
0000
0000
0010
0000
0000
0000
,
1000
0010
1000
0000
0010
0000
0000
0000
0010
0100
0000
0000
0100
0000
0000
0000
,
0010
0001
0010
0000
0001
0000
0000
0000
0001
1000
0000
0000
1000
0000
0000
0000
,
0100
1000
0100
0000
1000
0000
0000
0000
1000
0001
0000
0000
0001
0000
0000
0000
,
0001
0100
0001
0000
0100
0000
0000
0000
0100
0010
0000
0000
0010
0000
0000
0000
,
1000
0010
1000
0000
0010
0000
0000
0000
1001
0000
0110
0000
0010
0100
0010
0100
,
0010
0001
0010
0000
0001
0000
0000
0000
0001
1000
0000
0000
1000
0000
0000
0000
,
0100
1000
0100
0000
1000
0000
0000
0000
1000
0001
0000
0000
0001
0000
0000
0000
,
0001
0100
0001
0000
0100
0000
0000
0000
0100
0010
0000
0000
0010
0000
0000
0000
,
1000
0010
1000
0000
0010
0000
0000
0000
0010
0100
0000
0000
0100
0000
0000
0000
,
0010
0001
0010
0000
0001
0000
0000
0000
0001
1000
0000
0000
1000
0000
0000
0000
,
0100
1000
0100
0000
1000
0000
0000
0000
1000
0001
0000
0000
0001
0000
0000
0000
,
0001
0100
0001
0000
0100
0000
0000
0000
0100
0010
0000
0000
0010
0000
0000
0000
,
1001
0000
0000
0000
0110
0000
0000
0000
1001
0000
0110
0000
0010
0100
0010
0100
,
1000
0001
1000
0001
0020
0100
0000
0130
,
0001
1000
0001
1000
0200
0010
0000
0310
,
0010
0100
0001
0010
0100
1000
0100
0010
0001
0010
0100
1000
,
0100
0010
1000
0100
0010
0001
0010
0100
1000
0100
0010
0001
,
1000
0001
1000
0001
0020
0100
0000
0130
,
0001
1000
0001
1000
0200
0010
0000
0310
,
0010
0100
0001
0010
0100
1000
0100
0010
0001
0010
0100
1000
,
0100
0010
1000
0100
0010
0001
0010
0100
1000
0100
0010
0001
,
2000
0000
0002
0003
,
3002
0000
2000
3000
,
0023
0000
2000
3000
,
0230
0000
0002
0003
,
2300
0000
0002
0003
,
3002
0000
2000
3000
,
0023
0000
2000
3000
,
0230
0000
0000
0000
0002
0000
0003
0300
,
2002
0000
0000
3003
0220
0000
0000
0330
,
0010
0001
0010
0000
0001
0000
0000
0000
0001
1000
0000
0000
1000
0000
0000
0000
,
0100
1000
0100
0000
1000
0000
0000
0000
1000
0001
0000
0000
0001
0000
0000
0000
,
0001
0100
0001
0000
0100
0000
0000
0000
0100
0010
0000
0000
0010
0000
0000
0000
,
1000
0010
1000
0000
0010
0000
0000
0000
0010
0100
0000
0000
0100
0000
0000
0000
,
0010
0001
0010
0000
0001
0000
0000
0000
0001
1000
0000
0000
1000
0000
0000
0000
,
0100
1000
0100
0000
1000
0000
0000
0000
1000
0001
0000
0000
0001
0000
0000
0000
,
0001
0100
0001
0000
0100
0000
0000
0000
0100
0010
0000
0000
0010
0000
0000
0000
,
1000
0010
1000
0000
0010
0000
0000
0000
1001
0000
0110
0000
0010
0100
0010
0100
,
0010
0001
0010
0000
0001
0000
0000
0000
0001
1000
0000
0000
1000
0000
0000
0000
,
0100
1000
0100
0000
1000
0000
0000
0000
1000
0001
0000
0000
0001
0000
0000
0000
,
0001
0100
0001
0000
0100
0000
0000
0000
0100
0010
0000
0000
0010
0000
0000
0000
,
1000
0010
1000
0000
0010
0000
0000
0000
0010
0100
0000
0000
0100
0000
0000
0000
,
0010
0001
0010
0000
0001
0000
0000
0000
0001
1000
0000
0000
1000
0000
0000
0000
,
0100
1000
0100
0000
1000
0000
0000
0000
1000
0001
0000
0000
0001
0000
0000
0000
,
0001
0100
0001
0000
0100
0000
0000
0000
0100
0010
0000
0000
0010
0000
0000
0000
,
1001
0000
0000
0000
0110
0000
0000
0000
1001
0000
0110
0000
0010
0100
0010
0100
,
0010
0001
0010
0000
0001
0000
0000
0000
0001
1000
0000
0000
1000
0000
0000
0000
,
0100
1000
0100
0000
1000
0000
0000
0000
1000
0001
0000
0000
0001
0000
0000
0000
,
0001
0100
0001
0000
0100
0000
0000
0000
0100
0010
0000
0000
0010
0000
0000
0000
,
1000
0010
1000
0000
0010
0000
0000
0000
0010
0100
0000
0000
0100
0000
0000
0000
,
0010
0001
0010
0000
0001
0000
0000
0000
0001
1000
0000
0000
1000
0000
0000
0000
,
0100
1000
0100
0000
1000
0000
0000
0000
1000
0001
0000
0000
0001
0000
0000
0000
,
0001
0100
0001
0000
0100
0000
0000
0000
0100
0010
0000
0000
0010
0000
0000
0000
,
1001
0000
0000
0000
0110
0000
0000
0000
1001
0000
0110
0000
0010
0100
0010
0100
,
0020
0000
0030
0000
;

//---------------dance-single - ----------------
#NOTES:
     dance-single:
     :
     Hard:
     12:
     0.466773,0.626438,0.119216,0.366480,0.355441,740.000000,713.000000,27.000000,83.000000,0.000000,0.000000,0.466773,0.626438,0.119216,0.366480,0.355441,740.000000,713.000000,27.000000,83.000000,0.000000,0.000000:
0000
0000
0000
0000
,
0000
0000
0000
0000
,
2000
0010
0020
0030
,
3002
0100
0200
0300
,
0023
0001
0002
0003
,
0230
1000
2000
3000
,
2300
0010
0020
0030
,
3002
0100
0200
0300
,
0023
0001
0002
0003
,
0230
0000
1000
0000
2000
0000
3000
0300
,
1000
0001
0010
0000
0001
0000
0010
0000
1000
0001
1000
0000
0001
0000
1000
0000
,
0001
1000
0100
0000
1000
0000
0100
0000
0001
1000
0001
0000
1000
0000
0001
0000
,
2000
0010
0020
0030
,
3002
0100
0200
0300
,
0023
0001
0002
0003
,
0230
1000
2000
3000
,
2300
0010
0020
0030
,
3002
0100
0200
0300
,
0023
0001
0002
0003
,
0230
0000
1000
0000
2000
0000
3000
0300
,
0010
0001
0010
0000
0001
0000
0000
0000
0001
1000
0001
0000
1000
0000
0000
0000
,
0100
1000
0100
0000
1000
0000
0000
0000
1000
0001
1000
0000
0001
0000
0000
0000
,
0001
0100
0001
0000
0100
0000
0000
0000
0100
0010
0100
0000
0010
0000
0000
0000
,
1000
0010
1000
0000
0010
0000
0000
0000
0010
0100
0010
0000
0100
0000
0000
0000
,
0010
0001
0010
0000
0001
0000
0000
0000
0001
1000
0001
0000
1000
0000
0000
0000
,
0100
1000
0100
0000
1000
0000
0000
0000
1000
0001
1000
0000
0001
0000
0000
0000
,
0001
0100
0001
0000
0100
0000
0000
0000
0100
0010
0100
0000
0010
0000
0000
0000
,
1000
0010
1000
0000
0110
0000
0000
0000
1001
0000
0110
0000
0010
0100
0010
0100
,
0010
0001
0010
0000
0001
0000
0000
0000
0001
1000
0001
0000
1000
0000
0000
0000
,
0100
1000
0100
0000
1000
0000
0000
0000
1000
0001
1000
0000
0001
0000
0000
0000
,
0001
0100
0001
0000
0100
0000
0000
0000
0100
0010
0100
0000
0010
0000
0000
0000
,
1000
0010
1000
0000
0010
0000
0000
0000
0010
0100
0010
0000
0100
0000
0000
0000
,
0010
0001
0010
0000
0001
0000
0000
0000
0001
1000
0001
0000
1000
0000
0000
0000
,
0100
1000
0100
0000
1000
0000
0000
0000
1000
0001
1000
0000
0001
0000
0000
0000
,
0001
0100
0001
0000
0100
0000
0000
0000
0100
0010
0100
0000
0010
0000
0000
0000
,
1001
0000
0000
0000
0110
0000
0000
0000
1001
0000
0110
0000
0010
0100
0010
0100
,
1000
0000
0001
0000
1000
0000
0001
0100
0020
0000
0100
0000
0000
0000
0130
0000
,
0001
0000
1000
0000
0001
0000
1000
0010
0200
0000
0010
0000
0000
0000
0310
0000
,
2000
0010
0020
0030
,
3002
0100
0200
0300
,
0023
0001
0002
0003
,
0230
1000
2000
3000
,
2300
0010
0020
0030
,
3002
0100
0200
0300
,
0023
0001
0002
0003
,
0230
0000
1000
0000
2000
0000
3000
0300
,
1000
0001
0010
0000
0001
0000
0010
0000
1000
0001
1000
0000
0001
0000
1000
0000
,
0001
1000
0100
0000
1000
0000
0100
0000
0001
1000
0001
0000
1000
0000
0001
0000
,
2000
0010
0020
0030
,
3002
0100
0200
0300
,
0023
0001
0002
0003
,
0230
1000
2000
3000
,
2300
0010
0020
0030
,
3002
0100
0200
0300
,
0023
0001
0002
0003
,
0230
0000
1000
0000
2000
0000
3000
0300
,
0010
0001
0010
0000
0001
0000
0000
0000
0001
1000
0001
0000
1000
0000
0000
0000
,
0100
1000
0100
0000
1000
0000
0000
0000
1000
0001
1000
0000
0001
0000
0000
0000
,
0001
0100
0001
0000
0100
0000
0000
0000
0100
0010
0100
0000
0010
0000
0000
0000
,
1000
0010
1000
0000
0010
0000
0000
0000
0010
0100
0010
0000
0100
0000
0000
0000
,
0010
0001
0010
0000
0001
0000
0000
0000
0001
1000
0001
0000
1000
0000
0000
0000
,
0100
1000
0100
0000
1000
0000
0000
0000
1000
0001
1000
0000
0001
0000
0000
0000
,
0001
0100
0001
0000
0100
0000
0000
0000
0100
0010
0100
0000
0010
0000
0000
0000
,
1000
0010
1000
0000
0110
0000
0000
0000
1001
0000
0110
0000
0010
0100
0010
0100
,
0010
0001
0010
0000
0001
0000
0000
0000
0001
1000
0001
0000
1000
0000
0000
0000
,
0100
1000
0100
0000
1000
0000
0000
0000
1000
0001
1000
0000
0001
0000
0000
0000
,
0001
0100
0001
0000
0100
0000
0000
0000
0100
0010
0100
0000
0010
0000
0000
0000
,
1000
0010
1000
0000
0010
0000
0000
0000
0010
0100
0010
0000
0100
0000
0000
0000
,
0010
0001
0010
0000
0001
0000
0000
0000
0001
1000
0001
0000
1000
0000
0000
0000
,
0100
1000
0100
0000
1000
0000
0000
0000
1000
0001
1000
0000
0001
0000
0000
0000
,
0001
0100
0001
0000
0100
0000
0000
0000
0100
0010
0100
0000
0010
0000
0000
0000
,
1001
0000
0000
0000
0110
0000
0000
0000
1001
0000
0110
0000
0010
0100
0010
0100
,
1000
0000
0001
0000
1000
0000
0001
0100
0020
0000
0100
0000
0000
0000
0130
0000
,
0001
0000
1000
0000
0001
0000
1000
0010
0200
0000
0010
0000
0000
0000
0310
0000
,
0010
1000
0001
0010
0100
1000
0100
0010
0001
0010
0100
1000
,
0100
0001
1000
0100
0010
0001
0010
0100
1000
0100
0010
0001
,
1000
0000
0001
0000
1000
0000
0001
0100
0020
0000
0100
0000
0000
0000
0130
0000
,
0001
0000
1000
0000
0001
0000
1000
0010
0200
0000
0010
0000
0000
0000
0310
0000
,
0010
1000
0001
0010
0100
1000
0100
0010
0001
0010
0100
1000
,
0100
0001
1000
0100
0010
0001
0010
0100
1000
0100
0010
0001
,
2000
0000
0001
0001
,
3002
0000
1000
1000
,
0023
0000
1000
1000
,
0230
0000
0001
0001
,
2300
0000
0001
0001
,
3002
0000
1000
1000
,
0023
0000
1000
1000
,
0230
0000
0000
0000
0001
0000
0001
0300
,
2002
0000
0000
3003
0220
0000
0000
0330
,
0010
0001
0010
0000
0001
0000
0000
0000
0001
1000
0001
0000
1000
0000
0000
0000
,
0100
1000
0100
0000
1000
0000
0000
0000
1000
0001
1000
0000
0001
0000
0000
0000
,
0001
0100
0001
0000
0100
0000
0000
0000
0100
0010
0100
0000
0010
0000
0000
0000
,
1000
0010
1000
0000
0010
0000
0000
0000
0010
0100
0010
0000
0100
0000
0000
0000
,
0010
0001
0010
0000
0001
0000
0000
0000
0001
1000
0001
0000
1000
0000
0000
0000
,
0100
1000
0100
0000
1000
0000
0000
0000
1000
0001
1000
0000
0001
0000
0000
0000
,
0001
0100
0001
0000
0100
0000
0000
0000
0100
0010
0100
0000
0010
0000
0000
0000
,
1000
0010
1000
0000
0110
0000
0000
0000
1001
0000
0110
0000
0010
0100
0010
0100
,
0010
0001
0010
0000
0001
0000
0000
0000
0001
1000
0001
0000
1000
0000
0000
0000
,
0100
1000
0100
0000
1000
0000
0000
0000
1000
0001
1000
0000
0001
0000
0000
0000
,
0001
0100
0001
0000
0100
0000
0000
0000
0100
0010
0100
0000
0010
0000
0000
0000
,
1000
0010
1000
0000
0010
0000
0000
0000
0010
0100
0010
0000
0100
0000
0000
0000
,
0010
0001
0010
0000
0001
0000
0000
0000
0001
1000
0001
0000
1000
0000
0000
0000
,
0100
1000
0100
0000
1000
0000
0000
0000
1000
0001
1000
0000
0001
0000
0000
0000
,
0001
0100
0001
0000
0100
0000
0000
0000
0100
0010
0100
0000
0010
0000
0000
0000
,
1001
0000
0000
0000
0110
0000
0000
0000
1001
0000
0110
0000
0010
0100
0010
0100
,
0010
0001
0010
0000
0001
0000
0000
0000
0001
1000
0001
0000
1000
0000
0000
0000
,
0100
1000
0100
0000
1000
0000
0000
0000
1000
0001
1000
0000
0001
0000
0000
0000
,
0001
0100
0001
0000
0100
0000
0000
0000
0100
0010
0100
0000
0010
0000
0000
0000
,
1000
0010
1000
0000
0010
0000
0000
0000
0010
0100
0010
0000
0100
0000
0000
0000
,
0010
0001
0010
0000
0001
0000
0000
0000
0001
1000
0001
0000
1000
0000
0000
0000
,
0100
1000
0100
0000
1000
0000
0000
0000
1000
0001
1000
0000
0001
0000
0000
0000
,
0001
0100
0001
0000
0100
0000
0000
0000
0100
0010
0100
0000
0010
0000
0000
0000
,
1001
0000
0000
0000
0110
0000
0000
0000
1001
0000
0110
0000
0010
0100
0010
0100
,
0020
0000
0030
0000
;

//---------------dance-single - ----------------
#NOTES:
     dance-single:
     :
     Challenge:
     13:
     0.569589,0.726668,0.172201,0.366480,0.355441,903.000000,864.000000,39.000000,83.000000,0.000000,0.000000,0.569589,0.726668,0.172201,0.366480,0.355441,903.000000,864.000000,39.000000,83.000000,0.000000,0.000000:
// measure 0
0000
0000
0000
0000
,  // measure 1
0000
0000
0000
0000
,  // measure 2
2000
0000
0010
0010
0020
0000
0030
0000
,  // measure 3
3002
0000
0100
0100
0200
0000
0300
0000
,  // measure 4
0023
0000
0001
0001
0002
0000
0003
0000
,  // measure 5
0230
0000
1000
1000
2000
0000
3000
0000
,  // measure 6
2300
0000
0010
0010
0020
0000
0030
0000
,  // measure 7
3002
0000
0100
0100
0200
0000
0300
0000
,  // measure 8
0023
0000
0001
0001
0002
0000
0003
0000
,  // measure 9
0230
0000
1000
1000
2000
0000
3000
0300
,  // measure 10
1000
0001
0010
0000
0001
0000
0010
0000
1000
0001
1000
0000
1001
0000
1000
0000
,  // measure 11
0001
1000
0100
0000
1000
0000
0100
0000
0001
1000
0001
0000
1001
0000
0001
0000
,  // measure 12
2000
0000
0010
0010
0020
0000
0030
0000
,  // measure 13
3002
0000
0100
0100
0200
0000
0300
0000
,  // measure 14
0023
0000
0001
0001
0002
0000
0003
0000
,  // measure 15
0230
0000
1000
1000
2000
0000
3000
0000
,  // measure 16
2300
0000
0010
0010
0020
0000
0030
0000
,  // measure 17
3002
0000
0100
0100
0200
0000
0300
0000
,  // measure 18
0023
0000
0001
0001
0002
0000
0003
0000
,  // measure 19
0230
0000
1000
1000
2000
0000
3000
0300
,  // measure 20
0010
0001
0010
0000
0001
0000
0010
0000
0001
1000
0001
0000
1000
0000
0001
0000
,  // measure 21
0100
1000
0100
0000
1000
0000
0100
0000
1000
0001
1000
0000
0001
0000
1000
0000
,  // measure 22
0001
0100
0001
0000
0100
0000
0001
0000
0100
0010
0100
0000
0010
0000
0100
0000
,  // measure 23
1000
0010
1000
0000
0010
0000
1000
0000
0010
0100
0010
0000
0100
0000
0010
0000
,  // measure 24
0010
0001
0010
0000
0001
0000
0010
0000
0001
1000
0001
0000
1000
0000
0001
0000
,  // measure 25
0100
1000
0100
0000
1000
0000
0100
0000
1000
0001
1000
0000
0001
0000
1000
0000
,  // measure 26
0001
0100
0001
0000
0100
0000
0001
0000
0100
0010
0100
0000
0010
0000
0100
0000
,  // measure 27
1000
0010
1000
0000
0110
0000
0010
0000
1001
0000
0110
0000
0010
0100
0010
0100
,  // measure 28
0010
0001
0010
0000
0001
0000
0010
0000
0001
1000
0001
0000
1000
0000
0001
0000
,  // measure 29
0100
1000
0100
0000
1000
0000
0100
0000
1000
0001
1000
0000
0001
0000
1000
0000
,  // measure 30
0001
0100
0001
0000
0100
0000
0001
0000
0100
0010
0100
0000
0010
0000
0100
0000
,  // measure 31
1000
0010
1000
0000
0010
0000
1000
0000
0010
0100
0010
0000
0100
0000
0010
0000
,  // measure 32
0010
0001
0010
0000
0001
0000
0010
0000
0001
1000
0001
0000
1000
0000
0001
0000
,  // measure 33
0100
1000
0100
0000
1000
0000
0100
0000
1000
0001
1000
0000
0001
0000
1000
0000
,  // measure 34
0001
0100
0001
0000
0100
0000
0001
0000
0100
0010
0100
0000
0010
0000
0100
0000
,  // measure 35
1001
0000
0000
0000
0110
0000
0010
0000
1001
0000
0110
0000
0010
0100
0010
0100
,  // measure 36
1000
0000
0001
0000
1000
0000
0001
0100
0020
0000
0100
0000
0100
0000
0130
0000
,  // measure 37
0001
0000
1000
0000
0001
0000
1000
0010
0200
0000
0010
0000
0010
0000
0310
0000
,  // measure 38
2000
0000
0010
0010
0020
0000
0030
0000
,  // measure 39
3002
0000
0100
0100
0200
0000
0300
0000
,  // measure 40
0023
0000
0001
0001
0002
0000
0003
0000
,  // measure 41
0230
0000
1000
1000
2000
0000
3000
0000
,  // measure 42
2300
0000
0010
0010
0020
0000
0030
0000
,  // measure 43
3002
0000
0100
0100
0200
0000
0300
0000
,  // measure 44
0023
0000
0001
0001
0002
0000
0003
0000
,  // measure 45
0230
0000
1000
1000
2000
0000
3000
0300
,  // measure 46
1000
0001
0010
0000
0001
0000
0010
0000
1000
0001
1000
0000
1001
0000
1000
0000
,  // measure 47
0001
1000
0100
0000
1000
0000
0100
0000
0001
1000
0001
0000
1001
0000
0001
0000
,  // measure 48
2000
0000
0010
0010
0020
0000
0030
0000
,  // measure 49
3002
0000
0100
0100
0200
0000
0300
0000
,  // measure 50
0023
0000
0001
0001
0002
0000
0003
0000
,  // measure 51
0230
0000
1000
1000
2000
0000
3000
0000
,  // measure 52
2300
0000
0010
0010
0020
0000
0030
0000
,  // measure 53
3002
0000
0100
0100
0200
0000
0300
0000
,  // measure 54
0023
0000
0001
0001
0002
0000
0003
0000
,  // measure 55
0230
0000
1000
1000
2000
0000
3000
0300
,  // measure 56
0010
0001
0010
0000
0001
0000
0010
0000
0001
1000
0001
0000
1000
0000
0001
0000
,  // measure 57
0100
1000
0100
0000
1000
0000
0100
0000
1000
0001
1000
0000
0001
0000
1000
0000
,  // measure 58
0001
0100
0001
0000
0100
0000
0001
0000
0100
0010
0100
0000
0010
0000
0100
0000
,  // measure 59
1000
0010
1000
0000
0010
0000
1000
0000
0010
0100
0010
0000
0100
0000
0010
0000
,  // measure 60
0010
0001
0010
0000
0001
0000
0010
0000
0001
1000
0001
0000
1000
0000
0001
0000
,  // measure 61
0100
1000
0100
0000
1000
0000
0100
0000
1000
0001
1000
0000
0001
0000
1000
0000
,  // measure 62
0001
0100
0001
0000
0100
0000
0001
0000
0100
0010
0100
0000
0010
0000
0100
0000
,  // measure 63
1000
0010
1000
0000
0110
0000
0010
0000
1001
0000
0110
0000
0010
0100
0010
0100
,  // measure 64
0010
0001
0010
0000
0001
0000
0010
0000
0001
1000
0001
0000
1000
0000
0001
0000
,  // measure 65
0100
1000
0100
0000
1000
0000
0100
0000
1000
0001
1000
0000
0001
0000
1000
0000
,  // measure 66
0001
0100
0001
0000
0100
0000
0001
0000
0100
0010
0100
0000
0010
0000
0100
0000
,  // measure 67
1000
0010
1000
0000
0010
0000
1000
0000
0010
0100
0010
0000
0100
0000
0010
0000
,  // measure 68
0010
0001
0010
0000
0001
0000
0010
0000
0001
1000
0001
0000
1000
0000
0001
0000
,  // measure 69
0100
1000
0100
0000
1000
0000
0100
0000
1000
0001
1000
0000
0001
0000
1000
0000
,  // measure 70
0001
0100
0001
0000
0100
0000
0001
0000
0100
0010
0100
0000
0010
0000
0100
0000
,  // measure 71
1001
0000
0000
0000
0110
0000
0010
0000
1001
0000
0110
0000
0010
0100
0010
0100
,  // measure 72
1000
0000
0001
0000
1000
0000
0001
0100
0020
0000
0100
0000
0100
0000
0130
0000
,  // measure 73
0001
0000
1000
0000
0001
0000
1000
0010
0200
0000
0010
0000
0010
0000
0310
0000
,  // measure 74
0110
1000
0001
0010
0100
1000
0110
0010
0001
0010
0100
1000
,  // measure 75
0110
0001
1000
0100
0010
0001
0110
0100
1000
0100
0010
0001
,  // measure 76
1000
0000
0001
0000
1000
0000
0001
0100
0020
0000
0100
0000
0100
0000
0130
0000
,  // measure 77
0001
0000
1000
0000
0001
0000
1000
0010
0200
0000
0010
0000
0010
0000
0310
0000
,  // measure 78
0110
1000
0001
0010
0100
1000
0110
0010
0001
0010
0100
1000
,  // measure 79
0110
0001
1000
0100
0010
0001
0110
0100
1000
0100
0010
0001
,  // measure 80
2000
0000
0000
0000
0001
0001
0001
0000
,  // measure 81
3002
0000
0000
0000
1000
1000
1000
0000
,  // measure 82
0023
0000
0000
0000
1000
1000
1000
0000
,  // measure 83
0230
0000
0000
0000
0001
0001
0001
0000
,  // measure 84
2300
0000
0000
0000
0001
0001
0001
0000
,  // measure 85
3002
0000
0000
0000
1000
1000
1000
0000
,  // measure 86
0023
0000
0000
0000
1000
1000
1000
0000
,  // measure 87
0230
0000
0000
0000
0001
0001
0001
0300
,  // measure 88
2002
0000
0000
3003
0220
0000
0000
0330
,  // measure 89
0010
0001
0010
0000
0001
0000
0010
0000
0001
1000
0001
0000
1000
0000
0001
0000
,  // measure 90
0100
1000
0100
0000
1000
0000
0100
0000
1000
0001
1000
0000
0001
0000
1000
0000
,  // measure 91
0001
0100
0001
0000
0100
0000
0001
0000
0100
0010
0100
0000
0010
0000
0100
0000
,  // measure 92
1000
0010
1000
0000
0010
0000
1000
0000
0010
0100
0010
0000
0100
0000
0010
0000
,  // measure 93
0010
0001
0010
0000
0001
0000
0010
0000
0001
1000
0001
0000
1000
0000
0001
0000
,  // measure 94
0100
1000
0100
0000
1000
0000
0100
0000
1000
0001
1000
0000
0001
0000
1000
0000
,  // measure 95
0001
0100
0001
0000
0100
0000
0001
0000
0100
0010
0100
0000
0010
0000
0100
0000
,  // measure 96
1000
0010
1000
0000
0110
0000
0010
0000
1001
0000
0110
0000
0010
0100
0010
0100
,  // measure 97
0010
0001
0010
0000
0001
0000
0010
0000
0001
1000
0001
0000
1000
0000
0001
0000
,  // measure 98
0100
1000
0100
0000
1000
0000
0100
0000
1000
0001
1000
0000
0001
0000
1000
0000
,  // measure 99
0001
0100
0001
0000
0100
0000
0001
0000
0100
0010
0100
0000
0010
0000
0100
0000
,  // measure 100
1000
0010
1000
0000
0010
0000
1000
0000
0010
0100
0010
0000
0100
0000
0010
0000
,  // measure 101
0010
0001
0010
0000
0001
0000
0010
0000
0001
1000
0001
0000
1000
0000
0001
0000
,  // measure 102
0100
1000
0100
0000
1000
0000
0100
0000
1000
0001
1000
0000
0001
0000
1000
0000
,  // measure 103
0001
0100
0001
0000
0100
0000
0001
0000
0100
0010
0100
0000
0010
0000
0100
0000
,  // measure 104
1001
0000
0000
0000
0110
0000
0010
0000
1001
0000
0110
0000
0010
0100
0010
0100
,  // measure 105
0010
0001
0010
0000
0001
0000
0010
0000
0001
1000
0001
0000
1000
0000
0001
0000
,  // measure 106
0100
1000
0100
0000
1000
0000
0100
0000
1000
0001
1000
0000
0001
0000
1000
0000
,  // measure 107
0001
0100
0001
0000
0100
0000
0001
0000
0100
0010
0100
0000
0010
0000
0100
0000
,  // measure 108
1000
0010
1000
0000
0010
0000
1000
0000
0010
0100
0010
0000
0100
0000
0010
0000
,  // measure 109
0010
0001
0010
0000
0001
0000
0010
0000
0001
1000
0001
0000
1000
0000
0001
0000
,  // measure 110
0100
1000
0100
0000
1000
0000
0100
0000
1000
0001
1000
0000
0001
0000
1000
0000
,  // measure 111
0001
0100
0001
0000
0100
0000
0001
0000
0100
0010
0100
0000
0010
0000
0100
0000
,  // measure 112
1001
0000
0000
0000
0110
0000
0010
0000
1001
0000
0110
0000
0010
0100
0010
0100
,  // measure 113
0020
0000
0030
0000
;
