#VERSION:0.83;
#TITLE:カーニバる?;
#SUBTITLE:;
#ARTIST:ナオト・インティライミ;
#TITLETRANSLIT:Carnival?;
#SUBTITLETRANSLIT:;
#ARTISTTRANSLIT:Naoto Inti Raymi;
#GENRE:;
#ORIGIN:;
#CREDIT:;
#BANNER:;
#BACKGROUND:;
#PREVIEWVID:;
#JACKET:;
#CDIMAGE:;
#DISCIMAGE:;
#LYRICSPATH:;
#CDTITLE:;
#MUSIC:Carnival.ogg;
#OFFSET:-2.900000;
#SAMPLESTART:59.735001;
#SAMPLELENGTH:15.000000;
#SELECTABLE:YES;
#BPMS:0.000=69.000,
12.000=165.000;
#STOPS:;
#DELAYS:;
#WARPS:;
#TIMESIGNATURES:0.000=4=4;
#TICKCOUNTS:0.000=4;
#COMBOS:0.000=1;
#SPEEDS:0.000=1.000=0.000=0;
#SCROLLS:0.000=1.000;
#FAKES:;
#LABELS:0.000=Song Start;
#BGCHANGES:;
#KEYSOUNDS:;
#ATTACKS:
;

//---------------dance-single - ----------------
#NOTEDATA:;
#CHARTNAME:;
#STEPSTYPE:dance-single;
#DESCRIPTION:;
#CHARTSTYLE:;
#DIFFICULTY:Beginner;
#METER:9;
#RADARVALUES:0.353706,0.424454,0.192783,0.090721,0.085051,655.000000,604.000000,51.000000,24.000000,0.000000,0.000000,0.000000,0.000000,0.000000,0.353706,0.424454,0.192783,0.090721,0.085051,655.000000,604.000000,51.000000,24.000000,0.000000,0.000000,0.000000,0.000000,0.000000;
#CREDIT:;
#NOTES:
0000
0000
0000
0000
,
0000
0000
0000
0000
,
0000
0000
0000
0000
,
1001
0000
0001
0000
,
0110
0000
0010
0000
,
1000
1000
0001
0001
,
0010
0010
0100
0100
,
0020
0000
0000
0030
,
1000
0000
0010
0000
1000
0000
1000
0001
,
0200
0000
0000
0300
,
0001
0000
0100
0000
0001
0000
0001
1000
,
0020
0000
0000
0030
,
1000
0000
0010
0000
1000
0000
1000
0001
,
0200
0000
0000
0300
,
0001
0000
0100
0000
0001
0000
0001
1000
,
0100
0000
0000
0010
0000
0000
0001
0000
0000
0000
0001
0000
0000
0000
0000
0000
,
0010
0000
0000
0100
0000
0000
1000
0000
0000
0000
1000
0000
0000
0000
0000
0000
,
0100
0000
0000
0010
0000
0000
0001
0000
0000
0000
0001
0000
0000
0000
0000
0000
,
0010
0000
0000
0100
0000
0000
1000
0000
0000
0000
1000
0000
0000
0000
0000
0000
,
1000
0000
0000
0001
0000
0000
0100
0000
0000
0000
0100
0000
0000
0000
0000
0000
,
0001
0000
0000
1000
0000
0000
0010
0000
0000
0000
0010
0000
0000
0000
0000
0000
,
1000
0000
0000
0001
0000
0000
0100
0000
0000
0000
0100
0000
0000
0000
0000
0000
,
0001
0000
0000
1000
0000
0000
0010
0000
0000
0000
0010
0000
0000
0000
0000
0000
,
0100
0000
0000
0010
0000
0000
0001
0000
0000
0000
0001
0000
0000
0000
0000
0000
,
0010
0000
0000
0100
0000
0000
1000
0000
0000
0000
1000
0000
0000
0000
0000
0000
,
0100
0000
0000
0010
0000
0000
0001
0000
0000
0000
0001
0000
0000
0000
0000
0000
,
0010
0000
0000
0100
0000
0000
1000
0000
0000
0000
1000
0000
0000
0000
0000
0000
,
1000
0000
0000
0001
0000
0000
0100
0000
0000
0000
0100
0000
0000
0000
0100
0000
,
0001
0000
0000
1000
0000
0000
0010
0000
0000
0000
0010
0000
0000
0000
0010
0000
,
0200
0000
0000
0010
0000
0000
0000
0001
,
0300
1000
0000
0010
0000
0000
0000
0000
,
0020
0000
0000
0100
0000
0000
0000
1000
,
0030
0001
0000
0100
0000
0000
0000
0000
,
2001
0000
0000
0001
3020
0000
0030
0001
,
0020
0000
0000
0030
,
1001
0000
0110
0000
,
0001
0010
0100
1000
,
0001
0001
0001
0001
,
1000
0100
0001
0100
,
1001
0000
0110
0000
,
1000
0100
0010
0001
,
1000
1000
1000
1000
,
0001
0010
1000
0010
,
1001
0000
0110
0000
,
0001
0010
0100
1000
,
0001
0001
0001
0001
,
1000
0100
0001
0100
,
1001
0000
0110
0000
,
1000
0100
0010
0001
,
1000
1000
1000
1000
,
0010
0100
0010
0100
0010
0000
0110
0000
,
0020
0000
0000
0030
,
1000
0000
0010
0000
1000
0000
1000
0001
,
0200
0000
0000
0300
,
0001
0000
0100
0000
0001
0000
0001
1000
,
0020
0000
0000
0030
,
1000
0000
0010
0000
1000
0000
1000
0001
,
0200
0000
0000
0300
,
0001
0000
0100
0000
0001
0000
0001
1000
,
0100
0000
0000
0010
0000
0000
0001
0000
0000
0000
0001
0000
0000
0000
0000
0000
,
0010
0000
0000
0100
0000
0000
1000
0000
0000
0000
1000
0000
0000
0000
0000
0000
,
0100
0000
0000
0010
0000
0000
0001
0000
0000
0000
0001
0000
0000
0000
0000
0000
,
0010
0000
0000
0100
0000
0000
1000
0000
0000
0000
1000
0000
0000
0000
0000
0000
,
1000
0000
0000
0001
0000
0000
0100
0000
0000
0000
0100
0000
0000
0000
0000
0000
,
0001
0000
0000
1000
0000
0000
0010
0000
0000
0000
0010
0000
0000
0000
0000
0000
,
1000
0000
0000
0001
0000
0000
0100
0000
0000
0000
0100
0000
0000
0000
0000
0000
,
0001
0000
0000
1000
0000
0000
0010
0000
0000
0000
0010
0000
0000
0000
0000
0000
,
0100
0000
0000
0010
0000
0000
0001
0000
0000
0000
0001
0000
0000
0000
0000
0000
,
0010
0000
0000
0100
0000
0000
1000
0000
0000
0000
1000
0000
0000
0000
0000
0000
,
0100
0000
0000
0010
0000
0000
0001
0000
0000
0000
0001
0000
0000
0000
0000
0000
,
0010
0000
0000
0100
0000
0000
1000
0000
0000
0000
1000
0000
0000
0000
0000
0000
,
1000
0000
0000
0001
0000
0000
0100
0000
0000
0000
0100
0000
0000
0000
0100
0000
,
0001
0000
0000
1000
0000
0000
0010
0000
0000
0000
0010
0000
0000
0000
0010
0000
,
0200
0000
0000
0010
0000
0000
0000
0001
,
0300
1000
0000
0010
0000
0000
0000
0000
,
0020
0000
0000
0100
0000
0000
0000
1000
,
0030
0001
0000
0100
0000
0000
0000
0000
,
2001
0000
0000
0001
3020
0000
0030
0001
,
0020
0000
0000
0030
,
1001
0000
0110
0000
,
0001
0010
0100
1000
,
0001
0001
0001
0001
,
1000
0100
0001
0100
,
1001
0000
0110
0000
,
1000
0100
0010
0001
,
1000
1000
1000
1000
,
0001
0010
1000
0010
,
1001
0000
0110
0000
,
0001
0010
0100
1000
,
0001
0001
0001
0001
,
1000
0100
0001
0100
,
1001
0000
0110
0000
,
1000
0100
0010
0001
,
1000
1000
1000
1000
,
0010
0100
0010
0100
0010
0000
0110
0000
,
0020
0000
0000
0030
,
1000
0000
0010
0000
1000
0000
1000
0001
,
0200
0000
0000
0300
,
0001
0000
0100
0000
0001
0000
0001
1000
,
0020
0000
0000
0030
,
1000
0000
0010
0000
1000
0000
1000
0001
,
0200
0000
0000
0300
,
0001
0000
0100
0000
0001
0000
0001
1000
,
0100
0000
0000
0010
0000
0000
0001
0000
0000
0000
0001
0000
0000
0000
0000
0000
,
0010
0000
0000
0100
0000
0000
1000
0000
0000
0000
1000
0000
0000
0000
0000
0000
,
0100
0000
0000
0010
0000
0000
0001
0000
0000
0000
0001
0000
0000
0000
0000
0000
,
0010
0000
0000
0100
0000
0000
1000
0000
0000
0000
1000
0000
0000
0000
0000
0000
,
0100
0000
0000
0010
0000
0000
0001
0000
0000
0000
0001
0000
0000
0000
0000
0000
,
0010
0000
0000
0100
0000
0000
1000
0000
0000
0000
1000
0000
0000
0000
0000
0000
,
0100
0000
0000
0010
0000
0000
0001
0000
0000
0000
0001
0000
0000
0000
0000
0000
,
0010
0000
0000
0100
0000
0000
1000
0000
0000
0000
1000
0000
0000
0000
0000
0000
,
0100
0000
0000
0010
0000
0000
0001
0000
0000
0000
0001
0000
0000
0000
0000
0000
,
0010
0000
0000
0100
0000
0000
1000
0000
0000
0000
1000
0000
0000
0000
0000
0000
,
0100
0000
0000
0010
0000
0000
0001
0000
0000
0000
0001
0000
0000
0000
0000
0000
,
0010
0000
0000
0100
0000
0000
1000
0000
0000
0000
1000
0000
0000
0000
0000
0000
,
0100
0000
0000
0010
0000
0000
0001
0000
0000
0000
0001
0000
0000
0000
0000
0000
,
0010
0000
0000
0100
0000
0000
1000
0000
0000
0000
1000
0000
0000
0000
0000
0000
,
0100
0000
0000
0010
0000
0000
0001
0000
0000
0000
0001
0000
0000
0000
0000
0000
,
0010
0000
0000
0100
0000
0000
1000
0000
0000
0000
1000
0000
0000
0000
0000
0000
,
0100
0000
0000
0010
0000
0000
0001
0000
0000
0000
0001
0000
1000
0000
0000
0000
,
1000
1000
0001
0001
,
0010
0010
0100
0110
,
1001
0000
0110
0000
,
0001
0010
0100
1000
,
0001
0001
0001
0001
,
1000
0100
0001
0100
,
1001
0000
0110
0000
,
1000
0100
0010
0001
,
1000
1000
1000
1000
,
0001
0010
1000
0010
,
1001
0000
0110
0000
,
0001
0010
0100
1000
,
0001
0001
0001
0001
,
1000
0100
0001
0100
,
1001
0000
0110
0000
,
1000
0100
0010
0001
,
1000
1000
1000
1000
,
0010
0100
0010
0100
0010
0000
0110
0000
,
1001
0000
0110
0000
,
0001
0010
0100
1000
,
0001
0001
0001
0001
,
1000
0100
0001
0100
,
1001
0000
0110
0000
,
1000
0100
0010
0001
,
1000
1000
1000
1000
,
0001
0010
1000
0010
,
1001
0000
0110
0000
,
0001
0010
0100
1000
,
0001
0001
0001
0001
,
1000
0100
0001
0100
,
1001
0000
0110
0000
,
1000
0100
0010
0001
,
1000
1000
1000
1000
,
0001
0010
1000
0010
,
2002
0000
0000
3003
,
0010
0100
0010
0100
0010
0000
0110
0000
,
1001
0000
0110
0000
,
0001
0010
0100
1000
,
0001
0001
0001
0001
,
1000
0100
0001
0100
,
1001
0000
0110
0000
,
1000
0100
0010
0001
,
1000
1000
1000
1000
,
0001
0010
1000
0010
,
1001
0000
0110
0000
,
0001
0010
0100
1000
,
0001
0001
0001
0001
,
1000
0100
0001
0100
,
1001
0000
0110
0000
,
1000
0100
0010
0001
,
1000
1000
1000
1000
,
1000
1000
0001
0001
,
0010
0010
0100
0110
;

//---------------dance-single - ----------------
#NOTEDATA:;
#CHARTNAME:;
#STEPSTYPE:dance-single;
#DESCRIPTION:;
#CHARTSTYLE:;
#DIFFICULTY:Easy;
#METER:9;
#RADARVALUES:0.402306,0.489754,0.200343,0.090721,0.085051,745.000000,692.000000,53.000000,24.000000,0.000000,0.000000,0.000000,0.000000,0.000000,0.402306,0.489754,0.200343,0.090721,0.085051,745.000000,692.000000,53.000000,24.000000,0.000000,0.000000,0.000000,0.000000,0.000000;
#CREDIT:;
#NOTES:
0000
0000
0000
0000
,
0000
0000
0000
0000
,
0000
0000
0000
0000
,
1001
0000
0001
0000
,
0110
0000
0010
0000
,
1000
1000
0001
0001
,
0010
0010
0100
0100
,
0020
0000
0000
0030
,
1000
0000
0010
0000
1000
0001
1000
0001
,
0200
0000
0000
0300
,
0001
0000
0100
0000
0001
1000
0001
1000
,
0020
0000
0000
0030
,
1000
0000
0010
0000
1000
0001
1000
0001
,
0200
0000
0000
0300
,
0001
0000
0100
0000
0001
1000
0001
1000
,
0100
0000
0000
0010
0000
0000
0001
0000
0000
0000
0001
0000
1000
0000
0000
0000
,
0010
0000
0000
0100
0000
0000
1000
0000
0000
0000
1000
0000
0001
0000
0000
0000
,
0100
0000
0000
0010
0000
0000
0001
0000
0000
0000
0001
0000
1000
0000
0000
0000
,
0010
0000
0000
0100
0000
0000
1000
0000
0000
0000
1000
0000
0001
0000
0000
0000
,
1000
0000
0000
0001
0000
0000
0100
0000
0000
0000
0100
0000
0010
0000
0000
0000
,
0001
0000
0000
1000
0000
0000
0010
0000
0000
0000
0010
0000
0100
0000
0000
0000
,
1000
0000
0000
0001
0000
0000
0100
0000
0000
0000
0100
0000
0010
0000
0000
0000
,
0001
0000
0000
1000
0000
0000
0010
0000
0000
0000
0010
0000
0100
0000
0000
0000
,
0100
0000
0000
0010
0000
0000
0001
0000
0000
0000
0001
0000
1000
0000
0000
0000
,
0010
0000
0000
0100
0000
0000
1000
0000
0000
0000
1000
0000
0001
0000
0000
0000
,
0100
0000
0000
0010
0000
0000
0001
0000
0000
0000
0001
0000
1000
0000
0000
0000
,
0010
0000
0000
0100
0000
0000
1000
0000
0000
0000
1000
0000
0001
0000
0000
0000
,
1000
0000
0000
0001
0000
0000
0100
0000
0000
0000
0100
0000
0100
0000
0100
0000
,
0001
0000
0000
1000
0000
0000
0010
0000
0000
0000
0010
0000
0010
0000
0010
0000
,
0200
0000
0000
0010
0010
0000
0000
0001
,
0300
1000
0000
0010
0010
0000
0000
0000
,
0020
0000
0000
0100
0100
0000
0000
1000
,
0030
0001
0000
0100
0100
0000
0000
0000
,
2001
0000
0000
0001
3020
0000
0030
1001
,
0020
0000
0000
0030
,
1001
0000
0110
0000
,
0001
0010
0100
1000
,
0001
0001
0001
0001
,
1000
0000
0100
0000
0001
0000
0100
0010
,
1001
0000
0110
0000
,
1000
0100
0010
0001
,
1000
1000
1000
1000
,
0001
0000
0010
0000
1000
0000
0010
0100
,
1001
0000
0110
0000
,
0001
0010
0100
1000
,
0001
0001
0001
0001
,
1000
0000
0100
0000
0001
0000
0100
0010
,
1001
0000
0110
0000
,
1000
0100
0010
0001
,
1000
1000
1000
1000
,
0001
0100
0010
0001
1000
0000
0110
0000
,
0020
0000
0000
0030
,
1000
0000
0010
0000
1000
0001
1000
0001
,
0200
0000
0000
0300
,
0001
0000
0100
0000
0001
1000
0001
1000
,
0020
0000
0000
0030
,
1000
0000
0010
0000
1000
0001
1000
0001
,
0200
0000
0000
0300
,
0001
0000
0100
0000
0001
1000
0001
1000
,
0100
0000
0000
0010
0000
0000
0001
0000
0000
0000
0001
0000
1000
0000
0000
0000
,
0010
0000
0000
0100
0000
0000
1000
0000
0000
0000
1000
0000
0001
0000
0000
0000
,
0100
0000
0000
0010
0000
0000
0001
0000
0000
0000
0001
0000
1000
0000
0000
0000
,
0010
0000
0000
0100
0000
0000
1000
0000
0000
0000
1000
0000
0001
0000
0000
0000
,
1000
0000
0000
0001
0000
0000
0100
0000
0000
0000
0100
0000
0010
0000
0000
0000
,
0001
0000
0000
1000
0000
0000
0010
0000
0000
0000
0010
0000
0100
0000
0000
0000
,
1000
0000
0000
0001
0000
0000
0100
0000
0000
0000
0100
0000
0010
0000
0000
0000
,
0001
0000
0000
1000
0000
0000
0010
0000
0000
0000
0010
0000
0100
0000
0000
0000
,
0100
0000
0000
0010
0000
0000
0001
0000
0000
0000
0001
0000
1000
0000
0000
0000
,
0010
0000
0000
0100
0000
0000
1000
0000
0000
0000
1000
0000
0001
0000
0000
0000
,
0100
0000
0000
0010
0000
0000
0001
0000
0000
0000
0001
0000
1000
0000
0000
0000
,
0010
0000
0000
0100
0000
0000
1000
0000
0000
0000
1000
0000
0001
0000
0000
0000
,
1000
0000
0000
0001
0000
0000
0100
0000
0000
0000
0100
0000
0100
0000
0100
0000
,
0001
0000
0000
1000
0000
0000
0010
0000
0000
0000
0010
0000
0010
0000
0010
0000
,
0200
0000
0000
0010
0010
0000
0000
0001
,
0300
1000
0000
0010
0010
0000
0000
0000
,
0020
0000
0000
0100
0100
0000
0000
1000
,
0030
0001
0000
0100
0100
0000
0000
0000
,
2001
0000
0000
0001
3020
0000
0030
1001
,
0020
0000
0000
0030
,
1001
0000
0110
0000
,
0001
0010
0100
1000
,
0001
0001
0001
0001
,
1000
0000
0100
0000
0001
0000
0100
0010
,
1001
0000
0110
0000
,
1000
0100
0010
0001
,
1000
1000
1000
1000
,
0001
0000
0010
0000
1000
0000
0010
0100
,
1001
0000
0110
0000
,
0001
0010
0100
1000
,
0001
0001
0001
0001
,
1000
0000
0100
0000
0001
0000
0100
0010
,
1001
0000
0110
0000
,
1000
0100
0010
0001
,
1000
1000
1000
1000
,
0001
0100
0010
0001
1000
0000
0110
0000
,
0020
0000
0000
0030
,
1000
0000
0010
0000
1000
0001
1000
0001
,
0200
0000
0000
0300
,
0001
0000
0100
0000
0001
1000
0001
1000
,
0020
0000
0000
0030
,
1000
0000
0010
0000
1000
0001
1000
0001
,
0200
0000
0000
0300
,
0001
0000
0100
0000
0001
1000
0001
1000
,
0100
0000
0000
0010
0000
0000
0001
0000
0000
0000
0001
0000
1000
0000
0000
0000
,
0010
0000
0000
0100
0000
0000
1000
0000
0000
0000
1000
0000
0001
0000
0000
0000
,
0100
0000
0000
0010
0000
0000
0001
0000
0000
0000
0001
0000
1000
0000
0000
0000
,
0010
0000
0000
0100
0000
0000
1000
0000
0000
0000
1000
0000
0001
0000
0000
0000
,
0100
0000
0000
0010
0000
0000
0001
0000
0000
0000
0001
0000
1000
0000
0000
0000
,
0010
0000
0000
0100
0000
0000
1000
0000
0000
0000
1000
0000
0001
0000
0000
0000
,
0100
0000
0000
0010
0000
0000
0001
0000
0000
0000
0001
0000
1000
0000
0000
0000
,
0010
0000
0000
0100
0000
0000
1000
0000
0000
0000
1000
0000
0001
0000
0000
0000
,
0100
0000
0000
0010
0000
0000
0001
0000
0000
0000
0001
0000
1000
0000
0000
0000
,
0010
0000
0000
0100
0000
0000
1000
0000
0000
0000
1000
0000
0001
0000
0000
0000
,
0100
0000
0000
0010
0000
0000
0001
0000
0000
0000
0001
0000
1000
0000
0000
0000
,
0010
0000
0000
0100
0000
0000
1000
0000
0000
0000
1000
0000
0001
0000
0000
0000
,
0100
0000
0000
0010
0000
0000
0001
0000
0000
0000
0001
0000
1000
0000
0000
0000
,
0010
0000
0000
0100
0000
0000
1000
0000
0000
0000
1000
0000
0001
0000
0000
0000
,
0100
0000
0000
0010
0000
0000
0001
0000
0000
0000
0001
0000
1000
0000
0000
0000
,
0010
0000
0000
0100
0000
0000
1000
0000
0000
0000
1000
0000
0001
0000
0000
0000
,
0100
0000
0000
0010
0000
0000
0001
0000
0000
0000
0001
0000
1000
0000
0000
0000
,
1000
1000
1000
0000
0001
0001
0001
0000
,
0010
0010
0010
0100
0100
0000
0110
0000
,
1001
0000
0110
0000
,
0001
0010
0100
1000
,
0001
0001
0001
0001
,
1000
0000
0100
0000
0001
0000
0100
0010
,
1001
0000
0110
0000
,
1000
0100
0010
0001
,
1000
1000
1000
1000
,
0001
0000
0010
0000
1000
0000
0010
0100
,
1001
0000
0110
0000
,
0001
0010
0100
1000
,
0001
0001
0001
0001
,
1000
0000
0100
0000
0001
0000
0100
0010
,
1001
0000
0110
0000
,
1000
0100
0010
0001
,
1000
1000
1000
1000
,
0001
0100
0010
0001
1000
0000
0110
0000
,
1001
0000
0110
0000
,
0001
0010
0100
1000
,
0001
0001
0001
0001
,
1000
0000
0100
0000
0001
0000
0100
0010
,
1001
0000
0110
0000
,
1000
0100
0010
0001
,
1000
1000
1000
1000
,
0001
0000
0010
0000
1000
0000
0010
0100
,
1001
0000
0110
0000
,
0001
0010
0100
1000
,
0001
0001
0001
0001
,
1000
0000
0100
0000
0001
0000
0100
0010
,
1001
0000
0110
0000
,
1000
0100
0010
0001
,
1000
1000
1000
1000
,
0001
0000
0010
0000
1000
0000
0010
0100
,
2002
0000
0000
3003
,
0001
0100
0010
0001
1000
0000
0110
0000
,
1001
0000
0110
0000
,
0001
0010
0100
1000
,
0001
0001
0001
0001
,
1000
0000
0100
0000
0001
0000
0100
0010
,
1001
0000
0110
0000
,
1000
0100
0010
0001
,
1000
1000
1000
1000
,
0001
0000
0010
0000
1000
0000
0010
0100
,
1001
0000
0110
0000
,
0001
0010
0100
1000
,
0001
0001
0001
0001
,
1000
0000
0100
0000
0001
0000
0100
0010
,
1001
0000
0110
0000
,
1000
0100
0010
0001
,
1000
1000
1000
1000
,
1000
1000
1000
0000
0001
0001
0001
0000
,
0010
0010
0010
0100
0100
0000
0110
0000
;

//---------------dance-single - ----------------
#NOTEDATA:;
#CHARTNAME:;
#STEPSTYPE:dance-single;
#DESCRIPTION:;
#CHARTSTYLE:;
#DIFFICULTY:Medium;
#METER:11;
#RADARVALUES:0.461167,0.555055,0.234364,0.090721,0.085051,854.000000,792.000000,62.000000,24.000000,0.000000,0.000000,0.000000,0.000000,0.000000,0.461167,0.555055,0.234364,0.090721,0.085051,854.000000,792.000000,62.000000,24.000000,0.000000,0.000000,0.000000,0.000000,0.000000;
#CREDIT:;
#NOTES:
0000
0000
0000
0000
,
0000
0000
0000
0000
,
0000
0000
0000
0000
,
1001
0001
0001
0000
,
0110
0010
0010
0000
,
1000
0000
1000
0000
0001
0001
0001
0000
,
0010
0000
0010
0000
0100
0100
0100
0000
,
0020
0000
0000
0030
,
1000
0100
0010
0000
1000
0001
1000
0001
,
0200
0000
0000
0300
,
0001
0010
0100
0000
0001
1000
0001
1000
,
0020
0000
0000
0030
,
1000
0100
0010
0000
1000
0001
1000
0001
,
0200
0000
0000
0300
,
0001
0010
0100
0000
0001
1000
0001
1000
,
0100
0000
0000
0010
0000
0000
0001
0000
0000
0000
0001
0000
1000
0000
0001
0000
,
0010
0000
0000
0100
0000
0000
1000
0000
0000
0000
1000
0000
0001
0000
1000
0000
,
0100
0000
0000
0010
0000
0000
0001
0000
0000
0000
0001
0000
1000
0000
0001
0000
,
0010
0000
0000
0100
0000
0000
1000
0000
0000
0000
1000
0000
0001
0000
1000
0000
,
1000
0000
0000
0001
0000
0000
0100
0000
0000
0000
0100
0000
0010
0000
0100
0000
,
0001
0000
0000
1000
0000
0000
0010
0000
0000
0000
0010
0000
0100
0000
0010
0000
,
1000
0000
0000
0001
0000
0000
0100
0000
0000
0000
0100
0000
0010
0000
0100
0000
,
0001
0000
0000
1000
0000
0000
0010
0000
0000
0000
0010
0000
0100
0000
0010
0000
,
0100
0000
0000
0010
0000
0000
0001
0000
0000
0000
0001
0000
1000
0000
0001
0000
,
0010
0000
0000
0100
0000
0000
1000
0000
0000
0000
1000
0000
0001
0000
1000
0000
,
0100
0000
0000
0010
0000
0000
0001
0000
0000
0000
0001
0000
1000
0000
0001
0000
,
0010
0000
0000
0100
0000
0000
1000
0000
0000
0000
1000
0000
0001
0000
1000
0000
,
1000
0000
0000
0001
0000
0000
0100
0000
0010
0000
0100
0000
0100
0000
0100
0000
,
0001
0000
0000
1000
0000
0000
0010
0000
0100
0000
0010
0000
0010
0000
0010
0000
,
0200
0000
0000
0010
0010
0000
0000
0001
,
0300
1010
0000
0010
0010
0000
0000
0000
,
0020
0000
0000
0100
0100
0000
0000
1000
,
0030
0101
0000
0100
0100
0000
0000
0000
,
2001
0000
0000
0001
3020
0000
0030
1001
,
0020
0000
0000
0030
,
1001
0001
0110
0000
,
0001
0010
0100
1000
,
0001
1000
0001
0000
0001
0000
0001
0000
,
1000
0000
0100
0000
0001
0000
0100
0010
,
1001
1000
0110
0000
,
1000
0100
0010
0001
,
1000
0001
1000
0000
1000
0000
1000
0000
,
0001
0000
0010
0000
1000
0000
0010
0100
,
1001
0001
0110
0000
,
0001
0010
0100
1000
,
0001
1000
0001
0000
0001
0000
0001
0000
,
1000
0000
0100
0000
0001
0000
0100
0010
,
1001
1000
0110
0000
,
1000
0100
0010
0001
,
1000
0001
1000
0000
1000
0000
1000
0000
,
0001
0100
0010
0001
1000
0000
0110
0000
,
0020
0000
0000
0030
,
1000
0100
0010
0000
1000
0001
1000
0001
,
0200
0000
0000
0300
,
0001
0010
0100
0000
0001
1000
0001
1000
,
0020
0000
0000
0030
,
1000
0100
0010
0000
1000
0001
1000
0001
,
0200
0000
0000
0300
,
0001
0010
0100
0000
0001
1000
0001
1000
,
0100
0000
0000
0010
0000
0000
0001
0000
0000
0000
0001
0000
1000
0000
0001
0000
,
0010
0000
0000
0100
0000
0000
1000
0000
0000
0000
1000
0000
0001
0000
1000
0000
,
0100
0000
0000
0010
0000
0000
0001
0000
0000
0000
0001
0000
1000
0000
0001
0000
,
0010
0000
0000
0100
0000
0000
1000
0000
0000
0000
1000
0000
0001
0000
1000
0000
,
1000
0000
0000
0001
0000
0000
0100
0000
0000
0000
0100
0000
0010
0000
0100
0000
,
0001
0000
0000
1000
0000
0000
0010
0000
0000
0000
0010
0000
0100
0000
0010
0000
,
1000
0000
0000
0001
0000
0000
0100
0000
0000
0000
0100
0000
0010
0000
0100
0000
,
0001
0000
0000
1000
0000
0000
0010
0000
0000
0000
0010
0000
0100
0000
0010
0000
,
0100
0000
0000
0010
0000
0000
0001
0000
0000
0000
0001
0000
1000
0000
0001
0000
,
0010
0000
0000
0100
0000
0000
1000
0000
0000
0000
1000
0000
0001
0000
1000
0000
,
0100
0000
0000
0010
0000
0000
0001
0000
0000
0000
0001
0000
1000
0000
0001
0000
,
0010
0000
0000
0100
0000
0000
1000
0000
0000
0000
1000
0000
0001
0000
1000
0000
,
1000
0000
0000
0001
0000
0000
0100
0000
0010
0000
0100
0000
0100
0000
0100
0000
,
0001
0000
0000
1000
0000
0000
0010
0000
0100
0000
0010
0000
0010
0000
0010
0000
,
0200
0000
0000
0010
0010
0000
0000
0001
,
0300
1010
0000
0010
0010
0000
0000
0000
,
0020
0000
0000
0100
0100
0000
0000
1000
,
0030
0101
0000
0100
0100
0000
0000
0000
,
2001
0000
0000
0001
3020
0000
0030
1001
,
0020
0000
0000
0030
,
1001
0001
0110
0000
,
0001
0010
0100
1000
,
0001
1000
0001
0000
0001
0000
0001
0000
,
1000
0000
0100
0000
0001
0000
0100
0010
,
1001
1000
0110
0000
,
1000
0100
0010
0001
,
1000
0001
1000
0000
1000
0000
1000
0000
,
0001
0000
0010
0000
1000
0000
0010
0100
,
1001
0001
0110
0000
,
0001
0010
0100
1000
,
0001
1000
0001
0000
0001
0000
0001
0000
,
1000
0000
0100
0000
0001
0000
0100
0010
,
1001
1000
0110
0000
,
1000
0100
0010
0001
,
1000
0001
1000
0000
1000
0000
1000
0000
,
0001
0100
0010
0001
1000
0000
0110
0000
,
0020
0000
0000
0030
,
1000
0100
0010
0000
1000
0001
1000
0001
,
0200
0000
0000
0300
,
0001
0010
0100
0000
0001
1000
0001
1000
,
0020
0000
0000
0030
,
1000
0100
0010
0000
1000
0001
1000
0001
,
0200
0000
0000
0300
,
0001
0010
0100
0000
0001
1000
0001
1000
,
0100
0000
0000
0010
0000
0000
0001
0000
0000
0000
0001
0000
1000
0000
0001
0000
,
0010
0000
0000
0100
0000
0000
1000
0000
0000
0000
1000
0000
0001
0000
1000
0000
,
0100
0000
0000
0010
0000
0000
0001
0000
0000
0000
0001
0000
1000
0000
0001
0000
,
0010
0000
0000
0100
0000
0000
1000
0000
0000
0000
1000
0000
0001
0000
1000
0000
,
0100
0000
0000
0010
0000
0000
0001
0000
0000
0000
0001
0000
1000
0000
0001
0000
,
0010
0000
0000
0100
0000
0000
1000
0000
0000
0000
1000
0000
0001
0000
1000
0000
,
0100
0000
0000
0010
0000
0000
0001
0000
0000
0000
0001
0000
1000
0000
0001
0000
,
0010
0000
0000
0100
0000
0000
1000
0000
0000
0000
1000
0000
0001
0000
1000
0000
,
0100
0000
0000
0010
0000
0000
0001
0000
0000
0000
0001
0000
1000
0000
0001
0000
,
0010
0000
0000
0100
0000
0000
1000
0000
0000
0000
1000
0000
0001
0000
1000
0000
,
0100
0000
0000
0010
0000
0000
0001
0000
0000
0000
0001
0000
1000
0000
0001
0000
,
0010
0000
0000
0100
0000
0000
1000
0000
0000
0000
1000
0000
0001
0000
1000
0000
,
0100
0000
0000
0010
0000
0000
0001
0000
0000
0000
0001
0000
1000
0000
0001
0000
,
0010
0000
0000
0100
0000
0000
1000
0000
0000
0000
1000
0000
0001
0000
1000
0000
,
0100
0000
0000
0010
0000
0000
0001
0000
0000
0000
0001
0000
1000
0000
0001
0000
,
0010
0000
0000
0100
0000
0000
1000
0000
0000
0000
1000
0000
0001
0000
1000
0000
,
0100
0000
0000
0010
0000
0000
0001
0000
0000
0000
0001
0000
1000
0000
0000
0000
,
1001
1000
1000
0000
0001
0001
0001
0000
,
0110
0010
0010
0100
0100
0000
0110
0000
,
1001
0001
0110
0000
,
0001
0010
0100
1000
,
0001
1000
0001
0000
0001
0000
0001
0000
,
1000
0000
0100
0000
0001
0000
0100
0010
,
1001
1000
0110
0000
,
1000
0100
0010
0001
,
1000
0001
1000
0000
1000
0000
1000
0000
,
0001
0000
0010
0000
1000
0000
0010
0100
,
1001
0001
0110
0000
,
0001
0010
0100
1000
,
0001
1000
0001
0000
0001
0000
0001
0000
,
1000
0000
0100
0000
0001
0000
0100
0010
,
1001
1000
0110
0000
,
1000
0100
0010
0001
,
1000
0001
1000
0000
1000
0000
1000
0000
,
0001
0100
0010
0001
1000
0000
0110
0000
,
1001
0001
0110
0000
,
0001
0010
0100
1000
,
0001
1000
0001
0000
0001
0000
0001
0000
,
1000
0000
0100
0000
0001
0000
0100
0010
,
1001
1000
0110
0000
,
1000
0100
0010
0001
,
1000
0001
1000
0000
1000
0000
1000
0000
,
0001
0000
0010
0000
1000
0000
0010
0100
,
1001
0001
0110
0000
,
0001
0010
0100
1000
,
0001
1000
0001
0000
0001
0000
0001
0000
,
1000
0000
0100
0000
0001
0000
0100
0010
,
1001
1000
0110
0000
,
1000
0100
0010
0001
,
1000
0001
1000
0000
1000
0000
1000
0000
,
1001
0000
0010
0000
1000
0000
0010
0100
,
2002
0000
0000
3003
,
0001
0100
0010
0001
1000
0000
0110
0000
,
1001
0001
0110
0000
,
0001
0010
0100
1000
,
0001
1000
0001
0000
0001
0000
0001
0000
,
1000
0000
0100
0000
0001
0000
0100
0010
,
1001
1000
0110
0000
,
1000
0100
0010
0001
,
1000
0001
1000
0000
1000
0000
1000
0000
,
0001
0000
0010
0000
1000
0000
0010
0100
,
1001
0001
0110
0000
,
0001
0010
0100
1000
,
0001
1000
0001
0000
0001
0000
0001
0000
,
1000
0000
0100
0000
0001
0000
0100
0010
,
1001
1000
0110
0000
,
1000
0100
0010
0001
,
1000
0001
1000
0000
1000
0000
1000
0000
,
1001
1000
1000
0000
0001
0001
0001
0000
,
0110
0010
0010
0100
0100
0000
0110
0000
;

//---------------dance-single - ----------------
#NOTEDATA:;
#CHARTNAME:;
#STEPSTYPE:dance-single;
#DESCRIPTION:;
#CHARTSTYLE:;
#DIFFICULTY:Hard;
#METER:11;
#RADARVALUES:0.518948,0.620355,0.325085,0.090721,0.085051,961.000000,875.000000,86.000000,24.000000,0.000000,0.000000,0.000000,0.000000,0.000000,0.518948,0.620355,0.325085,0.090721,0.085051,961.000000,875.000000,86.000000,24.000000,0.000000,0.000000,0.000000,0.000000,0.000000;
#CREDIT:;
#NOTES:
0000
0000
0000
0000
,
0000
0000
0000
0000
,
0000
0000
0000
0000
,
1001
0001
0001
0001
,
0110
0010
0010
0010
,
1000
1000
1000
0000
0001
0001
0001
0000
,
0010
0010
0010
0000
0100
0100
0100
0000
,
0020
0000
0000
0030
,
1000
0100
0010
0001
1000
0001
1000
0001
,
0210
0000
0000
0300
,
0001
0010
0100
1000
0001
1000
0001
1000
,
0120
0000
0000
0030
,
1000
0100
0010
0001
1000
0001
1000
0001
,
0210
0000
0000
0300
,
0001
0010
0100
1000
0001
1000
0001
1000
,
0100
0000
0000
0010
0000
0000
0001
0000
0010
0000
0001
0000
1000
0000
0001
0000
,
0010
0000
0000
0100
0000
0000
1000
0000
0100
0000
1000
0000
0001
0000
1000
0000
,
0100
0000
0000
0010
0000
0000
0001
0000
0010
0000
0001
0000
1000
0000
0001
0000
,
0010
0000
0000
0100
0000
0000
1000
0000
0100
0000
1000
0000
0001
0000
1000
0000
,
1000
0000
0000
0001
0000
0000
0100
0000
1000
0000
0100
0000
0010
0000
0100
0000
,
0001
0000
0000
1000
0000
0000
0010
0000
0001
0000
0010
0000
0100
0000
0010
0000
,
1000
0000
0000
0001
0000
0000
0100
0000
1000
0000
0100
0000
0010
0000
0100
0000
,
0001
0000
0000
1000
0000
0000
0010
0000
0001
0000
0010
0000
0100
0000
0010
0000
,
0100
0000
0000
0010
0000
0000
0001
0000
0010
0000
0001
0000
1000
0000
0001
0000
,
0010
0000
0000
0100
0000
0000
1000
0000
0100
0000
1000
0000
0001
0000
1000
0000
,
0100
0000
0000
0010
0000
0000
0001
0000
0010
0000
0001
0000
1000
0000
0001
0000
,
0010
0000
0000
0100
0000
0000
1000
0000
0100
0000
1000
0000
0001
0000
1000
0000
,
1001
0000
0000
0001
0000
0000
0100
0000
0010
0000
0100
0000
0100
0000
0100
0000
,
1001
0000
0000
1000
0000
0000
0010
0000
0100
0000
0010
0000
0010
0000
0010
0000
,
0200
0000
0000
0010
0010
0000
0000
0001
,
0300
1010
0000
0010
0010
0000
0010
0000
,
0020
0000
0000
0100
0100
0000
0000
1000
,
0030
0101
0000
0100
0100
0000
0100
0000
,
2001
0000
0000
0001
3020
0000
0030
1001
,
0020
0000
0000
0130
,
1001
0001
0110
1000
,
0001
0010
0100
1000
,
0001
1000
0001
0000
0001
0000
0001
0000
,
1000
0000
0100
0000
0001
0000
0100
0010
,
1001
1000
0110
0001
,
1000
0100
0010
0001
,
1000
0001
1000
0000
1000
0000
1000
0000
,
0001
0000
0010
0000
1000
0000
0010
0100
,
1001
0001
0110
1000
,
0001
0010
0100
1000
,
0001
1000
0001
0000
0001
0000
0001
0000
,
1000
0000
0100
0000
0001
0000
0100
0010
,
1001
1000
0110
0001
,
1000
0100
0010
0001
,
1000
0001
1000
0000
1000
0000
1000
0000
,
1001
0100
0010
0001
1000
0000
0110
0000
,
0120
0000
0000
0030
,
1000
0100
0010
0001
1000
0001
1000
0001
,
0210
0000
0000
0300
,
0001
0010
0100
1000
0001
1000
0001
1000
,
0120
0000
0000
0030
,
1000
0100
0010
0001
1000
0001
1000
0001
,
0210
0000
0000
0300
,
0001
0010
0100
1000
0001
1000
0001
1000
,
0100
0000
0000
0010
0000
0000
0001
0000
0010
0000
0001
0000
1000
0000
0001
0000
,
0010
0000
0000
0100
0000
0000
1000
0000
0100
0000
1000
0000
0001
0000
1000
0000
,
0100
0000
0000
0010
0000
0000
0001
0000
0010
0000
0001
0000
1000
0000
0001
0000
,
0010
0000
0000
0100
0000
0000
1000
0000
0100
0000
1000
0000
0001
0000
1000
0000
,
1000
0000
0000
0001
0000
0000
0100
0000
1000
0000
0100
0000
0010
0000
0100
0000
,
0001
0000
0000
1000
0000
0000
0010
0000
0001
0000
0010
0000
0100
0000
0010
0000
,
1000
0000
0000
0001
0000
0000
0100
0000
1000
0000
0100
0000
0010
0000
0100
0000
,
0001
0000
0000
1000
0000
0000
0010
0000
0001
0000
0010
0000
0100
0000
0010
0000
,
0100
0000
0000
0010
0000
0000
0001
0000
0010
0000
0001
0000
1000
0000
0001
0000
,
0010
0000
0000
0100
0000
0000
1000
0000
0100
0000
1000
0000
0001
0000
1000
0000
,
0100
0000
0000
0010
0000
0000
0001
0000
0010
0000
0001
0000
1000
0000
0001
0000
,
0010
0000
0000
0100
0000
0000
1000
0000
0100
0000
1000
0000
0001
0000
1000
0000
,
1001
0000
0000
0001
0000
0000
0100
0000
0010
0000
0100
0000
0100
0000
0100
0000
,
1001
0000
0000
1000
0000
0000
0010
0000
0100
0000
0010
0000
0010
0000
0010
0000
,
0200
0000
0000
0010
0010
0000
0000
0001
,
0300
1010
0000
0010
0010
0000
0010
0000
,
0020
0000
0000
0100
0100
0000
0000
1000
,
0030
0101
0000
0100
0100
0000
0100
0000
,
2001
0000
0000
0001
3020
0000
0030
1001
,
0020
0000
0000
0130
,
1001
0001
0110
1000
,
0001
0010
0100
1000
,
0001
1000
0001
0000
0001
0000
0001
0000
,
1000
0000
0100
0000
0001
0000
0100
0010
,
1001
1000
0110
0001
,
1000
0100
0010
0001
,
1000
0001
1000
0000
1000
0000
1000
0000
,
0001
0000
0010
0000
1000
0000
0010
0100
,
1001
0001
0110
1000
,
0001
0010
0100
1000
,
0001
1000
0001
0000
0001
0000
0001
0000
,
1000
0000
0100
0000
0001
0000
0100
0010
,
1001
1000
0110
0001
,
1000
0100
0010
0001
,
1000
0001
1000
0000
1000
0000
1000
0000
,
1001
0100
0010
0001
1000
0000
0110
0000
,
0120
0000
0000
0030
,
1000
0100
0010
0001
1000
0001
1000
0001
,
0210
0000
0000
0300
,
0001
0010
0100
1000
0001
1000
0001
1000
,
0120
0000
0000
0030
,
1000
0100
0010
0001
1000
0001
1000
0001
,
0210
0000
0000
0300
,
0001
0010
0100
1000
0001
1000
0001
1000
,
0100
0000
0000
0010
0000
0000
0001
0000
0010
0000
0001
0000
1000
0000
0001
0000
,
0010
0000
0000
0100
0000
0000
1000
0000
0100
0000
1000
0000
0001
0000
1000
0000
,
0100
0000
0000
0010
0000
0000
0001
0000
0010
0000
0001
0000
1000
0000
0001
0000
,
0010
0000
0000
0100
0000
0000
1000
0000
0100
0000
1000
0000
0001
0000
1000
0000
,
0100
0000
0000
0010
0000
0000
0001
0000
0010
0000
0001
0000
1000
0000
0001
0000
,
0010
0000
0000
0100
0000
0000
1000
0000
0100
0000
1000
0000
0001
0000
1000
0000
,
0100
0000
0000
0010
0000
0000
0001
0000
0010
0000
0001
0000
1000
0000
0001
0000
,
0010
0000
0000
0100
0000
0000
1000
0000
0100
0000
1000
0000
0001
0000
1000
0000
,
0100
0000
0000
0010
0000
0000
0001
0000
0010
0000
0001
0000
1000
0000
0001
0000
,
0010
0000
0000
0100
0000
0000
1000
0000
0100
0000
1000
0000
0001
0000
1000
0000
,
0100
0000
0000
0010
0000
0000
0001
0000
0010
0000
0001
0000
1000
0000
0001
0000
,
0010
0000
0000
0100
0000
0000
1000
0000
0100
0000
1000
0000
0001
0000
1000
0000
,
0100
0000
0000
0010
0000
0000
0001
0000
0010
0000
0001
0000
1000
0000
0001
0000
,
0010
0000
0000
0100
0000
0000
1000
0000
0100
0000
1000
0000
0001
0000
1000
0000
,
0100
0000
0000
0010
0000
0000
0001
0000
0010
0000
0001
0000
1000
0000
0001
0000
,
0010
0000
0000
0100
0000
0000
1000
0000
0100
0000
1000
0000
0001
0000
1000
0000
,
0100
0000
0000
0010
0000
0000
0001
0000
0010
0000
0001
0000
1000
0000
0000
0000
,
1001
1000
1000
0000
1001
0001
0001
0000
,
0110
0010
0110
0100
0100
0000
0110
0000
,
1001
0001
0110
1000
,
0001
0010
0100
1000
,
0001
1000
0001
0000
0001
0000
0001
0000
,
1000
0000
0100
0000
0001
0000
0100
0010
,
1001
1000
0110
0001
,
1000
0100
0010
0001
,
1000
0001
1000
0000
1000
0000
1000
0000
,
0001
0000
0010
0000
1000
0000
0010
0100
,
1001
0001
0110
1000
,
0001
0010
0100
1000
,
0001
1000
0001
0000
0001
0000
0001
0000
,
1000
0000
0100
0000
0001
0000
0100
0010
,
1001
1000
0110
0001
,
1000
0100
0010
0001
,
1000
0001
1000
0000
1000
0000
1000
0000
,
1001
0100
0010
0001
1000
0000
0110
0000
,
1001
0001
0110
1000
,
0001
0010
0100
1000
,
0001
1000
0001
0000
0001
0000
0001
0000
,
1000
0000
0100
0000
0001
0000
0100
0010
,
1001
1000
0110
0001
,
1000
0100
0010
0001
,
1000
0001
1000
0000
1000
0000
1000
0000
,
0001
0000
0010
0000
1000
0000
0010
0100
,
1001
0001
0110
1000
,
0001
0010
0100
1000
,
0001
1000
0001
0000
0001
0000
0001
0000
,
1000
0000
0100
0000
0001
0000
0100
0010
,
1001
1000
0110
0001
,
1000
0100
0010
0001
,
1000
0001
1000
0000
1000
0000
1000
0000
,
1001
0000
0010
0000
1001
0000
0010
0100
,
2002
0000
0000
3003
,
1001
0100
0010
0001
1000
0000
0110
0000
,
1001
0001
0110
1000
,
0001
0010
0100
1000
,
0001
1000
0001
0000
0001
0000
0001
0000
,
1000
0000
0100
0000
0001
0000
0100
0010
,
1001
1000
0110
0001
,
1000
0100
0010
0001
,
1000
0001
1000
0000
1000
0000
1000
0000
,
0001
0000
0010
0000
1000
0000
0010
0100
,
1001
0001
0110
1000
,
0001
0010
0100
1000
,
0001
1000
0001
0000
0001
0000
0001
0000
,
1000
0000
0100
0000
0001
0000
0100
0010
,
1001
1000
0110
0001
,
1000
0100
0010
0001
,
1000
0001
1000
0000
1000
0000
1000
0000
,
1001
1000
1000
0000
1001
0001
0001
0000
,
0110
0010
0110
0100
0100
0000
0110
0000
;

//---------------dance-single - ----------------
#NOTEDATA:;
#CHARTNAME:;
#STEPSTYPE:dance-single;
#DESCRIPTION:;
#CHARTSTYLE:;
#DIFFICULTY:Challenge;
#METER:12;
#RADARVALUES:0.551349,0.718306,0.370446,0.090721,0.085051,1021.000000,923.000000,98.000000,24.000000,0.000000,0.000000,0.000000,0.000000,0.000000,0.551349,0.718306,0.370446,0.090721,0.085051,1021.000000,923.000000,98.000000,24.000000,0.000000,0.000000,0.000000,0.000000,0.000000;
#CREDIT:;
#NOTES:
// measure 0
0000
0000
0000
0000
,  // measure 1
0000
0000
0000
0000
,  // measure 2
0000
0000
0000
0000
,  // measure 3
1001
0000
0001
0000
0001
1000
0001
0000
,  // measure 4
0110
0000
0010
0000
0010
0100
0010
0000
,  // measure 5
1000
1000
1000
0000
0001
0001
0001
0000
,  // measure 6
0010
0010
0010
0000
0100
0100
0100
0000
,  // measure 7
0020
0000
0000
0030
,  // measure 8
1000
0100
0010
0001
1000
0001
1000
0001
,  // measure 9
0210
0000
0010
0300
,  // measure 10
0001
0010
0100
1000
0001
1000
0001
1000
,  // measure 11
0120
0000
0100
0030
,  // measure 12
1000
0100
0010
0001
1000
0001
1000
0001
,  // measure 13
0210
0000
0010
0300
,  // measure 14
0001
0010
0100
1000
0001
1000
0001
1000
,  // measure 15
0100
0000
0000
0010
0000
0000
0001
0000
0010
0000
0001
0000
1000
0000
0001
0000
,  // measure 16
0010
0000
0000
0100
0000
0000
1000
0000
0100
0000
1000
0000
0001
0000
1000
0000
,  // measure 17
0100
0000
0000
0010
0000
0000
0001
0000
0010
0000
0001
0000
1000
0000
0001
0000
,  // measure 18
0010
0000
0000
0100
0000
0000
1000
0000
0100
0000
1000
0000
0001
0000
1000
0000
,  // measure 19
1000
0000
0000
0001
0000
0000
0100
0000
1000
0000
0100
0000
0010
0000
0100
0000
,  // measure 20
0001
0000
0000
1000
0000
0000
0010
0000
0001
0000
0010
0000
0100
0000
0010
0000
,  // measure 21
1000
0000
0000
0001
0000
0000
0100
0000
1000
0000
0100
0000
0010
0000
0100
0000
,  // measure 22
0001
0000
0000
1000
0000
0000
0010
0000
0001
0000
0010
0000
0100
0000
0010
0000
,  // measure 23
0100
0000
0000
0010
0000
0000
0001
0000
0010
0000
0001
0000
1000
0000
0001
0000
,  // measure 24
0010
0000
0000
0100
0000
0000
1000
0000
0100
0000
1000
0000
0001
0000
1000
0000
,  // measure 25
0100
0000
0000
0010
0000
0000
0001
0000
0010
0000
0001
0000
1000
0000
0001
0000
,  // measure 26
0010
0000
0000
0100
0000
0000
1000
0000
0100
0000
1000
0000
0001
0000
1000
0000
,  // measure 27
1001
0000
0000
0001
0000
0000
0100
0000
0010
0000
0100
0000
0100
0000
0100
0000
,  // measure 28
1001
0000
0000
1000
0000
0000
0010
0000
0100
0000
0010
0000
0010
0000
0010
0000
,  // measure 29
0210
0000
0000
0010
0010
0000
0000
0001
,  // measure 30
0300
1010
0000
0010
0010
0000
0010
0000
,  // measure 31
0120
0000
0000
0100
0100
0000
0000
1000
,  // measure 32
0030
0101
0000
0100
0100
0000
0100
0000
,  // measure 33
2001
0000
0000
0001
3020
0000
0030
1001
,  // measure 34
0120
0000
0000
0130
,  // measure 35
1001
0001
0110
1000
,  // measure 36
0001
0010
0100
1000
,  // measure 37
0001
1000
0001
0000
0001
1000
0001
0000
,  // measure 38
1000
0000
0100
0010
0001
0000
0100
0010
,  // measure 39
1001
1000
0110
0001
,  // measure 40
1000
0100
0010
0001
,  // measure 41
1000
0001
1000
0000
1000
0001
1000
0000
,  // measure 42
0001
0000
0010
0100
1000
0000
0010
0100
,  // measure 43
1001
0001
0110
1000
,  // measure 44
0001
0010
0100
1000
,  // measure 45
0001
1000
0001
0000
0001
1000
0001
0000
,  // measure 46
1000
0000
0100
0010
0001
0000
0100
0010
,  // measure 47
1001
1000
0110
0001
,  // measure 48
1000
0100
0010
0001
,  // measure 49
1000
0001
1000
0000
1000
0001
1000
0000
,  // measure 50
1001
0100
0010
0001
1000
0000
0110
0000
,  // measure 51
0120
0000
0100
0030
,  // measure 52
1000
0100
0010
0001
1000
0001
1000
0001
,  // measure 53
0210
0000
0010
0300
,  // measure 54
0001
0010
0100
1000
0001
1000
0001
1000
,  // measure 55
0120
0000
0100
0030
,  // measure 56
1000
0100
0010
0001
1000
0001
1000
0001
,  // measure 57
0210
0000
0010
0300
,  // measure 58
0001
0010
0100
1000
0001
1000
0001
1000
,  // measure 59
0100
0000
0000
0010
0000
0000
0001
0000
0010
0000
0001
0000
1000
0000
0001
0000
,  // measure 60
0010
0000
0000
0100
0000
0000
1000
0000
0100
0000
1000
0000
0001
0000
1000
0000
,  // measure 61
0100
0000
0000
0010
0000
0000
0001
0000
0010
0000
0001
0000
1000
0000
0001
0000
,  // measure 62
0010
0000
0000
0100
0000
0000
1000
0000
0100
0000
1000
0000
0001
0000
1000
0000
,  // measure 63
1000
0000
0000
0001
0000
0000
0100
0000
1000
0000
0100
0000
0010
0000
0100
0000
,  // measure 64
0001
0000
0000
1000
0000
0000
0010
0000
0001
0000
0010
0000
0100
0000
0010
0000
,  // measure 65
1000
0000
0000
0001
0000
0000
0100
0000
1000
0000
0100
0000
0010
0000
0100
0000
,  // measure 66
0001
0000
0000
1000
0000
0000
0010
0000
0001
0000
0010
0000
0100
0000
0010
0000
,  // measure 67
0100
0000
0000
0010
0000
0000
0001
0000
0010
0000
0001
0000
1000
0000
0001
0000
,  // measure 68
0010
0000
0000
0100
0000
0000
1000
0000
0100
0000
1000
0000
0001
0000
1000
0000
,  // measure 69
0100
0000
0000
0010
0000
0000
0001
0000
0010
0000
0001
0000
1000
0000
0001
0000
,  // measure 70
0010
0000
0000
0100
0000
0000
1000
0000
0100
0000
1000
0000
0001
0000
1000
0000
,  // measure 71
1001
0000
0000
0001
0000
0000
0100
0000
0010
0000
0100
0000
0100
0000
0100
0000
,  // measure 72
1001
0000
0000
1000
0000
0000
0010
0000
0100
0000
0010
0000
0010
0000
0010
0000
,  // measure 73
0210
0000
0000
0010
0010
0000
0000
0001
,  // measure 74
0300
1010
0000
0010
0010
0000
0010
0000
,  // measure 75
0120
0000
0000
0100
0100
0000
0000
1000
,  // measure 76
0030
0101
0000
0100
0100
0000
0100
0000
,  // measure 77
2001
0000
0000
0001
3020
0000
0030
1001
,  // measure 78
0120
0000
0000
0130
,  // measure 79
1001
0001
0110
1000
,  // measure 80
0001
0010
0100
1000
,  // measure 81
0001
1000
0001
0000
0001
1000
0001
0000
,  // measure 82
1000
0000
0100
0010
0001
0000
0100
0010
,  // measure 83
1001
1000
0110
0001
,  // measure 84
1000
0100
0010
0001
,  // measure 85
1000
0001
1000
0000
1000
0001
1000
0000
,  // measure 86
0001
0000
0010
0100
1000
0000
0010
0100
,  // measure 87
1001
0001
0110
1000
,  // measure 88
0001
0010
0100
1000
,  // measure 89
0001
1000
0001
0000
0001
1000
0001
0000
,  // measure 90
1000
0000
0100
0010
0001
0000
0100
0010
,  // measure 91
1001
1000
0110
0001
,  // measure 92
1000
0100
0010
0001
,  // measure 93
1000
0001
1000
0000
1000
0001
1000
0000
,  // measure 94
1001
0100
0010
0001
1000
0000
0110
0000
,  // measure 95
0120
0000
0100
0030
,  // measure 96
1000
0100
0010
0001
1000
0001
1000
0001
,  // measure 97
0210
0000
0010
0300
,  // measure 98
0001
0010
0100
1000
0001
1000
0001
1000
,  // measure 99
0120
0000
0100
0030
,  // measure 100
1000
0100
0010
0001
1000
0001
1000
0001
,  // measure 101
0210
0000
0010
0300
,  // measure 102
0001
0010
0100
1000
0001
1000
0001
1000
,  // measure 103
0100
0000
0000
0010
0000
0000
0001
0000
0010
0000
0001
0000
1000
0000
0001
0000
,  // measure 104
0010
0000
0000
0100
0000
0000
1000
0000
0100
0000
1000
0000
0001
0000
1000
0000
,  // measure 105
0100
0000
0000
0010
0000
0000
0001
0000
0010
0000
0001
0000
1000
0000
0001
0000
,  // measure 106
0010
0000
0000
0100
0000
0000
1000
0000
0100
0000
1000
0000
0001
0000
1000
0000
,  // measure 107
0100
0000
0000
0010
0000
0000
0001
0000
0010
0000
0001
0000
1000
0000
0001
0000
,  // measure 108
0010
0000
0000
0100
0000
0000
1000
0000
0100
0000
1000
0000
0001
0000
1000
0000
,  // measure 109
0100
0000
0000
0010
0000
0000
0001
0000
0010
0000
0001
0000
1000
0000
0001
0000
,  // measure 110
0010
0000
0000
0100
0000
0000
1000
0000
0100
0000
1000
0000
0001
0000
1000
0000
,  // measure 111
0100
0000
0000
0010
0000
0000
0001
0000
0010
0000
0001
0000
1000
0000
0001
0000
,  // measure 112
0010
0000
0000
0100
0000
0000
1000
0000
0100
0000
1000
0000
0001
0000
1000
0000
,  // measure 113
0100
0000
0000
0010
0000
0000
0001
0000
0010
0000
0001
0000
1000
0000
0001
0000
,  // measure 114
0010
0000
0000
0100
0000
0000
1000
0000
0100
0000
1000
0000
0001
0000
1000
0000
,  // measure 115
0100
0000
0000
0010
0000
0000
0001
0000
0010
0000
0001
0000
1000
0000
0001
0000
,  // measure 116
0010
0000
0000
0100
0000
0000
1000
0000
0100
0000
1000
0000
0001
0000
1000
0000
,  // measure 117
0100
0000
0000
0010
0000
0000
0001
0000
0010
0000
0001
0000
1000
0000
0001
0000
,  // measure 118
0010
0000
0000
0100
0000
0000
1000
0000
0100
0000
1000
0000
0001
0000
1000
0000
,  // measure 119
0100
0000
0000
0010
0000
0000
0001
0000
0010
0000
0001
0000
1000
0000
0000
0000
,  // measure 120
1001
1000
1001
0000
1001
0001
1001
0000
,  // measure 121
0110
0010
0110
0100
0110
0000
0110
0000
,  // measure 122
1001
0001
0110
1000
,  // measure 123
0001
0010
0100
1000
,  // measure 124
0001
1000
0001
0000
0001
1000
0001
0000
,  // measure 125
1000
0000
0100
0010
0001
0000
0100
0010
,  // measure 126
1001
1000
0110
0001
,  // measure 127
1000
0100
0010
0001
,  // measure 128
1000
0001
1000
0000
1000
0001
1000
0000
,  // measure 129
0001
0000
0010
0100
1000
0000
0010
0100
,  // measure 130
1001
0001
0110
1000
,  // measure 131
0001
0010
0100
1000
,  // measure 132
0001
1000
0001
0000
0001
1000
0001
0000
,  // measure 133
1000
0000
0100
0010
0001
0000
0100
0010
,  // measure 134
1001
1000
0110
0001
,  // measure 135
1000
0100
0010
0001
,  // measure 136
1000
0001
1000
0000
1000
0001
1000
0000
,  // measure 137
1001
0100
0010
0001
1000
0000
0110
0000
,  // measure 138
1001
0001
0110
1000
,  // measure 139
0001
0010
0100
1000
,  // measure 140
0001
1000
0001
0000
0001
1000
0001
0000
,  // measure 141
1000
0000
0100
0010
0001
0000
0100
0010
,  // measure 142
1001
1000
0110
0001
,  // measure 143
1000
0100
0010
0001
,  // measure 144
1000
0001
1000
0000
1000
0001
1000
0000
,  // measure 145
0001
0000
0010
0100
1000
0000
0010
0100
,  // measure 146
1001
0001
0110
1000
,  // measure 147
0001
0010
0100
1000
,  // measure 148
0001
1000
0001
0000
0001
1000
0001
0000
,  // measure 149
1000
0000
0100
0010
0001
0000
0100
0010
,  // measure 150
1001
1000
0110
0001
,  // measure 151
1000
0100
0010
0001
,  // measure 152
1000
0001
1000
0000
1000
0001
1000
0000
,  // measure 153
1001
0000
0010
0000
1001
0000
0010
0100
,  // measure 154
2002
0000
0000
3003
,  // measure 155
1001
0100
0010
0001
1000
0000
0110
0000
,  // measure 156
1001
0001
0110
1000
,  // measure 157
0001
0010
0100
1000
,  // measure 158
0001
1000
0001
0000
0001
1000
0001
0000
,  // measure 159
1000
0000
0100
0010
0001
0000
0100
0010
,  // measure 160
1001
1000
0110
0001
,  // measure 161
1000
0100
0010
0001
,  // measure 162
1000
0001
1000
0000
1000
0001
1000
0000
,  // measure 163
0001
0000
0010
0100
1000
0000
0010
0100
,  // measure 164
1001
0001
0110
1000
,  // measure 165
0001
0010
0100
1000
,  // measure 166
0001
1000
0001
0000
0001
1000
0001
0000
,  // measure 167
1000
0000
0100
0010
0001
0000
0100
0010
,  // measure 168
1001
1000
0110
0001
,  // measure 169
1000
0100
0010
0001
,  // measure 170
1000
0001
1000
0000
1000
0001
1000
0000
,  // measure 171
1001
1000
1001
0000
1001
0001
1001
0000
,  // measure 172
0110
0010
0110
0100
0110
0000
0110
0000
;
