#TITLE:rottel-the-mercury;
#SUBTITLE:;
#ARTIST:sampling masters MEGA;
#TITLETRANSLIT:;
#SUBTITLETRANSLIT:;
#ARTISTTRANSLIT:;
#GENRE:;
#CREDIT:;
#BANNER:rottel-the-mercury.png;
#BACKGROUND:rottel-the-mercury-bg.png;
#LYRICSPATH:;
#CDTITLE:;
#MUSIC:rottel-the-Mercury.ogg;
#OFFSET:-1.555001;
#SAMPLESTART:5.193007;
#SAMPLELENGTH:10.000002;
#SELECTABLE:YES;
#BPMS:0.000000=200.000000
;
#STOPS:
;
#BGCHANGES:;
#KEYSOUNDS:;
#ATTACKS:;

//---------------dance-single - ----------------
#NOTES:
     dance-single:
     :
     Hard:
     13:
     0.704944,0.717945,1.231405,0.161790,0.022471,549.000000,412.000000,137.000000,18.000000,0.000000,0.000000,0.704944,0.717945,1.231405,0.161790,0.022471,549.000000,412.000000,137.000000,18.000000,0.000000,0.000000:
// measure 0
0000
0000
0000
0000
,  // measure 1
0000
0000
0000
0000
,  // measure 2
0000
0000
0000
0000
,  // measure 3
1001
0000
1000
0010
0000
0100
0001
0010
,  // measure 4
0001
0000
1000
0010
0000
0100
0010
1000
,  // measure 5
0010
0000
0100
0001
0000
0010
0100
1000
,  // measure 6
1001
0101
0110
1010
,  // measure 7
1000
0000
0001
0100
0010
0100
0001
1000
,  // measure 8
0001
0000
1000
0100
0000
0001
0100
1000
,  // measure 9
0010
0000
0001
0010
1000
0001
1000
0010
,  // measure 10
0000
1010
0000
1001
0000
0101
0000
0000
,  // measure 11
0110
0000
0000
1010
0000
0000
1001
0000
,  // measure 12
0001
0100
0000
1000
0100
0001
0010
0100
,  // measure 13
0000
1001
0000
0000
1010
0000
0000
0100
,  // measure 14
0010
1000
0000
0001
0100
0010
0100
0001
,  // measure 15
0010
0000
0000
1100
0000
0000
1001
0000
,  // measure 16
0001
0010
0000
0100
1000
0010
1000
0001
,  // measure 17
0100
0000
0110
0000
1010
0000
0000
0101
,  // measure 18
0000
0000
0110
0000
0000
0000
0010
0000
1010
0000
0000
0000
0001
0100
0001
0000
,  // measure 19
0101
0000
0110
0000
,  // measure 20
1010
0000
0101
1100
,  // measure 21
1001
0000
0110
0000
,  // measure 22
1001
0000
1100
0110
,  // measure 23
1001
0110
1001
0110
,  // measure 24
0011
1100
0011
1100
,  // measure 25
0001
0010
1000
0010
0001
0100
1000
0100
,  // measure 26
0001
0010
1000
0010
0001
0100
1000
0100
,  // measure 27
0001
1010
0000
0100
0010
0110
0000
1000
,  // measure 28
0010
0011
0000
1010
0000
0001
0100
0110
,  // measure 29
0000
1010
0000
1000
0001
0100
0000
0020
,  // measure 30
0000
0000
0000
0000
0200
0000
0000
0330
,  // measure 31
0001
0000
0100
0000
1000
0000
0100
0001
,  // measure 32
0000
1000
0010
0000
0001
0000
0010
0000
,  // measure 33
1001
0000
0100
0000
0001
0000
0100
1000
,  // measure 34
0000
0010
0001
0000
0010
0000
1000
0001
,  // measure 35
1000
0000
0010
0000
0001
0000
0010
1000
,  // measure 36
0000
0001
1000
0010
1000
0001
0100
0010
,  // measure 37
0220
0000
0000
0330
2002
0000
0000
3003
,  // measure 38
0202
0000
0000
0303
,  // measure 39
0010
0000
1000
0000
0100
1000
0000
0001
,  // measure 40
0000
0100
0000
0010
0000
0100
0110
0000
,  // measure 41
1001
0000
0110
0000
0001
0000
0000
0100
,  // measure 42
0000
0010
1000
0000
0001
0100
0001
1000
,  // measure 43
0000
1100
0000
0000
0110
0000
0000
0011
,  // measure 44
0000
0101
0000
0000
0110
0000
0010
1010
,  // measure 45
0000
1001
0000
0000
0101
0000
0000
0010
,  // measure 46
1000
0010
0000
0000
0100
0101
0000
0000
,  // measure 47
1001
0000
0101
0000
0100
0010
0000
0000
,  // measure 48
1010
0000
1000
1001
0000
0001
0101
0000
,  // measure 49
0110
0000
1010
0000
0001
1001
0000
0000
,  // measure 50
0110
0000
1000
1100
0000
0010
0011
0000
,  // measure 51
0110
0000
1001
0000
0100
0101
0000
0000
,  // measure 52
1100
0000
0001
0011
0000
1000
1100
0000
,  // measure 53
0100
0110
0000
0000
0001
1001
0000
0000
,  // measure 54
0220
0000
0000
0000
0330
0001
1001
0000
,  // measure 55
0001
0000
0000
0100
0000
0000
1000
0000
0100
0000
0000
0000
0001
0000
0000
0000
,  // measure 56
1000
0010
0001
0010
1000
0010
0001
0000
,  // measure 57
1010
0000
0000
1001
0000
0000
0100
0000
0100
0000
0000
0000
0011
0000
0000
0000
,  // measure 58
0100
0010
1000
0010
0100
0010
1000
0010
,  // measure 59
0100
0000
0000
0101
0000
0000
0001
0000
1001
0000
0000
0000
1010
0000
0000
0000
,  // measure 60
0100
0001
0010
0001
0100
0010
1000
0000
,  // measure 61
0110
0000
0000
0101
0000
0000
0001
0000
1000
0000
0000
0000
1010
0000
0000
0000
,  // measure 62
0100
0001
0000
0101
0000
0110
0000
0000
,  // measure 63
1000
0010
0001
0010
1000
0000
1001
0000
,  // measure 64
0001
0100
1000
0100
0001
0000
1001
0000
,  // measure 65
1000
0100
0001
0100
1000
0000
1001
0000
,  // measure 66
0101
0220
0000
0330
,  // measure 67
0001
1000
0010
1000
0002
0000
0203
0000
,  // measure 68
0310
0100
0001
0100
0020
0000
2030
0000
,  // measure 69
3001
0010
1000
0010
0001
0000
0101
0000
,  // measure 70
0110
0110
1001
1001
,  // measure 71
0101
0010
1001
1000
,  // measure 72
1100
0000
0100
0000
0110
0000
0010
0001
,  // measure 73
0100
0010
1010
1000
,  // measure 74
1001
0001
0110
0101
,  // measure 75
1001
0000
1010
0000
0100
0001
0100
0000
,  // measure 76
0010
1000
0010
0000
0100
0010
0100
0000
,  // measure 77
0010
1000
0100
0010
0001
1000
0001
1000
,  // measure 78
0010
1000
0010
1000
0001
1000
0001
0100
,  // measure 79
0001
0000
0101
0000
0100
0010
0000
0000
,  // measure 80
1010
0000
1000
1001
0000
0001
0101
0000
,  // measure 81
0110
0000
1010
0000
1000
1001
0000
0000
,  // measure 82
0101
0000
0010
0110
0000
0100
0101
0000
,  // measure 83
1001
0000
1010
0000
0100
0101
0000
0000
,  // measure 84
0011
0000
0010
0110
0000
0100
1100
0000
,  // measure 85
1000
0101
0000
0000
1000
0110
0000
0000
,  // measure 86
0001
1100
0000
0000
0010
0101
0000
0000
,  // measure 87
0100
1010
0000
0000
1001
0110
0000
0000
,  // measure 88
2002
0000
0000
0000
3003
0010
0110
0000
;

//---------------dance-single - ----------------
#NOTES:
     dance-single:
     :
     Beginner:
     4:
     0.147666,0.237293,0.000000,0.000000,0.000000,115.000000,115.000000,0.000000,0.000000,0.000000,0.000000,0.147666,0.237293,0.000000,0.000000,0.000000,115.000000,115.000000,0.000000,0.000000,0.000000,0.000000:
0000
0000
0000
0000
,
0000
0000
0000
0000
,
0000
0000
0000
0000
,
1000
0000
0000
0000
,
1000
0000
0000
0000
,
0001
0000
0000
0000
,
0001
0001
0001
0001
,
0001
0000
0000
0100
,
0000
0000
0100
0000
,
0010
0000
0010
0000
,
0010
0000
0000
0000
,
1000
0000
0000
0000
,
0001
0000
0000
0000
,
1000
0000
0000
0000
,
0001
0000
0000
0000
,
0100
0000
0000
0000
,
0010
0000
0000
0000
,
0100
0100
0100
0000
,
0001
0000
0001
0000
,
1000
0000
1000
0000
,
1000
0000
0010
0000
,
0010
0000
0100
0000
,
0100
0000
0001
0000
,
0001
0000
1000
0000
,
1000
0000
0010
0000
,
0010
0000
0000
0000
,
0100
0000
0001
0000
,
0001
0000
1000
0000
,
0001
0000
0000
0000
,
0100
0000
0000
0000
,
0010
0000
0000
0000
,
0100
0000
0000
0000
,
0001
0000
0000
0000
,
1000
0000
0000
0000
,
0000
0000
0001
0000
,
0100
0000
0010
0000
,
0000
0000
0100
0000
,
0000
0000
0010
0000
,
1000
0000
0000
0000
,
0010
0000
0000
0000
,
0100
0000
0000
0000
,
0001
0000
0000
0000
,
1000
0000
0000
0000
,
0001
0000
0000
0000
,
0100
0000
0000
0000
,
0010
0000
0000
0000
,
0100
0000
0000
0000
,
0001
0000
0001
0000
,
1000
0000
1000
0000
,
0010
0000
0000
0000
,
0010
0000
0000
0000
,
0100
0000
0000
0000
,
0010
0000
0000
0000
,
1000
0000
0001
0000
,
1000
0000
0000
0000
,
0001
0000
0000
0000
,
0100
0000
0000
0000
,
0010
0000
0000
0000
,
0100
0000
0000
0000
,
0001
0000
0000
0000
,
1000
0000
0000
0000
,
0010
0000
0000
0000
,
0100
0000
0000
0000
,
0010
0000
0000
0000
,
1000
0000
0000
0000
,
0001
0000
0000
0000
,
0010
0000
0001
0000
,
0100
0000
0000
0000
,
0010
0000
0000
0000
,
0100
0000
0000
0000
,
0001
0000
0000
0000
,
1000
0000
1000
0000
,
1000
0000
0000
0000
,
0010
0000
0010
0000
,
0010
0000
0000
0000
,
0100
0000
0100
0000
,
0100
0000
0000
0000
,
0001
0000
0001
0000
,
0001
0000
0000
0000
,
1000
0000
1000
0000
,
1000
0000
0000
0000
,
0010
0000
0010
0000
,
0010
0000
0000
0000
,
0100
0000
0000
0000
,
0001
0000
0000
0000
,
0001
0000
1000
0000
,
0001
0000
0000
0000
,
1000
0000
0001
0000
,
1000
0000
0000
0000
;

//---------------dance-single - ----------------
#NOTES:
     dance-single:
     :
     Easy:
     6:
     0.322297,0.355939,0.035953,0.026965,0.000000,251.000000,247.000000,4.000000,3.000000,0.000000,0.000000,0.322297,0.355939,0.035953,0.026965,0.000000,251.000000,247.000000,4.000000,3.000000,0.000000,0.000000:
0000
0000
0000
0000
,
0000
0000
0000
0000
,
0000
0000
0000
0000
,
1000
0000
0000
0000
,
1000
0000
0001
0000
,
1000
0000
0001
0000
,
0010
0010
0010
0010
,
0001
0000
0100
0000
,
0010
0000
0100
0000
,
0001
1000
0001
1000
,
0001
0000
1000
0000
,
0010
0000
0010
0000
,
0010
0000
0100
0001
,
0100
0000
0010
0000
,
1000
0010
1000
0000
,
0001
0000
0100
0000
,
0010
0100
0010
0000
,
1000
1000
1000
0000
,
0001
0100
0010
0000
,
0100
0000
0110
0000
,
1010
0000
1000
1000
,
1001
0000
0001
0000
,
0001
0000
0100
0010
,
0100
0010
1000
0010
,
1000
0001
1000
0001
,
0100
0001
0100
0010
,
0100
0010
0100
0010
,
1000
0001
1000
0000
,
0001
0100
0001
0000
,
1000
0100
0001
0000
,
0010
0000
0000
0000
,
1000
0100
0001
0100
,
0000
1000
0010
0001
,
0010
1000
0001
0100
,
0000
1000
0100
0001
,
0010
1000
0010
0001
,
0000
0100
0010
1000
,
0020
0000
0230
0000
,
0302
0000
0000
0000
,
1003
0000
1000
0000
,
0010
0000
0010
0000
,
0100
0000
0100
0000
,
0001
0000
0001
0000
,
1000
0000
1000
0000
,
0010
0000
0010
0000
,
0010
0000
0100
0000
,
0100
0100
0001
0000
,
1000
0001
1000
0000
,
0001
0001
0100
0100
,
0010
0010
1000
0000
,
0001
0001
0100
0100
,
0010
0000
1000
0000
,
0010
0000
0100
0000
,
0001
0001
1000
1000
,
0010
0000
0000
0000
,
0100
0000
0001
0000
,
0100
0100
0010
0010
,
1000
0000
1000
0000
,
0010
0100
0010
0100
,
0010
0000
1000
0000
,
0001
1000
0001
1000
,
0001
0000
0100
0000
,
0010
0100
0000
0000
,
0010
0100
0010
0100
,
0010
1000
0010
1000
,
0010
0001
0010
1000
,
0010
0001
0010
1000
,
0100
0001
0100
1000
,
0100
0001
0100
1000
,
0010
0001
0010
1000
,
0001
1000
0001
1000
,
0001
0001
0100
0100
,
0010
0000
0010
0010
,
0100
0000
0100
0000
,
0100
0000
0010
0010
,
1000
1000
0001
0001
,
0100
0100
1000
1000
,
0100
0100
0001
0001
,
0010
0010
1000
1000
,
0010
0010
0000
0000
,
0001
0001
0000
0100
,
0010
0100
0010
0000
,
1000
0010
1000
0010
,
1000
0000
0001
0000
,
0100
0001
0100
0001
,
0100
0000
0100
0000
,
0010
0000
0010
0000
,
1000
0000
0001
0000
,
1001
0000
0000
0000
;

//---------------dance-single - ----------------
#NOTES:
     dance-single:
     :
     Medium:
     10:
     0.469963,0.517055,0.377511,0.017977,0.004494,366.000000,324.000000,42.000000,2.000000,0.000000,0.000000,0.469963,0.517055,0.377511,0.017977,0.004494,366.000000,324.000000,42.000000,2.000000,0.000000,0.000000:
0000
0000
0000
0000
,
0000
0000
0000
0000
,
0000
0000
0000
0000
,
1000
0000
0010
1000
0000
0010
1000
0010
,
1000
0000
0000
0000
,
0001
0000
1000
0001
0000
1000
0001
1000
,
0001
1000
0010
0100
,
0010
0000
1000
0100
1000
0000
0001
0000
,
0010
0000
0001
0010
0000
0001
0000
0000
,
0100
0000
0010
1000
0010
0000
0000
0000
,
0000
1000
0000
0100
0000
1000
0000
0000
,
0001
0000
0000
1000
0000
0001
0000
0000
,
0000
1000
0000
0000
0001
1000
0001
0000
,
1000
0000
0000
0010
0000
0000
0000
1000
,
0000
0000
0000
0100
0000
0000
0000
0000
,
0010
0000
0000
0001
0000
0000
0010
0000
,
0000
0100
0000
0000
1000
0000
0000
0000
,
0001
0000
1000
0000
0001
0000
0000
1000
,
0000
0100
0000
0010
0001
0000
0000
0000
,
1010
0000
1100
0000
,
1001
0000
0011
0110
,
1100
0000
1001
0000
,
0101
0000
0110
1010
,
1100
0100
0010
0001
,
1000
0100
0010
0001
,
1000
0100
1000
0000
0001
0010
0001
0000
,
0100
0010
0100
0000
0010
1000
0010
0000
,
1000
0100
0010
0001
,
0100
0010
1000
1100
,
0100
0010
0001
0010
,
0022
0000
0000
0033
,
0110
0000
1010
0000
1100
0000
1000
0100
,
0000
0010
0001
0000
0100
0000
0010
0000
,
0100
0000
0010
0000
1000
0000
0100
1000
,
0000
0001
0010
0000
0001
0000
0010
0000
,
0100
0000
0010
0000
0001
0000
1000
0001
,
0000
1000
0100
0000
1000
0000
0010
0000
,
0100
0000
1010
0000
,
1100
0000
0000
0000
,
0010
0001
0000
0010
0001
0000
0000
0000
,
0100
0010
0000
0100
0010
0000
0000
0000
,
1000
0100
1000
0000
,
0100
0010
0001
1000
,
0001
0000
1000
0000
,
0100
1000
0100
0000
,
0010
0100
1000
0000
,
0100
0001
0100
1000
,
1001
0000
0001
0000
0010
0001
0000
0000
,
0010
0000
0100
1000
0000
0100
1000
0000
,
0100
0000
0010
0000
0001
0010
0000
0000
,
0001
0000
0010
0001
0000
0010
0001
0000
,
0100
0000
0010
0000
0100
0010
0000
0000
,
0100
0000
0010
0100
0000
0010
0100
0000
,
0100
0100
0000
0000
0001
0001
0000
0000
,
1000
1000
0000
0000
,
0010
1000
0010
1000
,
0100
1000
0100
1000
0100
1000
0100
0000
,
0010
0001
0010
0001
,
0010
0001
0000
0010
0000
0001
0000
0000
,
0100
0000
0000
0010
0000
0000
0100
0000
0010
0000
0000
0000
1001
0000
0000
0000
,
1000
0100
1000
0100
,
0010
0001
0011
0001
,
0010
0100
1000
0100
,
0001
0010
0001
0000
0010
0000
0100
0000
,
1000
0100
1000
0000
0010
0000
0100
0000
,
0001
0010
0001
0000
1000
0000
0100
0000
,
1100
1100
0010
0100
,
0001
0010
0001
0000
1000
0000
0100
0000
,
1000
0100
1000
0000
0010
0000
0100
0000
,
0010
0100
0010
0000
0100
0000
0001
0000
,
0010
0100
1000
0001
,
1001
1000
0100
1000
,
0010
0100
0001
0010
,
0001
0100
0010
1000
,
0010
0100
0001
0010
,
1100
1000
0100
0010
,
0001
0100
0010
0100
,
0001
1000
0010
1000
,
0100
0010
0001
0000
,
0100
0001
0100
0000
0010
1000
0000
0000
,
1100
1100
0000
1001
,
0010
0000
0100
0000
0010
0001
0000
0000
,
1001
0000
0000
1100
0000
0000
1001
0000
,
0010
0000
0100
0000
0010
0001
0000
0000
,
1001
0000
0000
1100
0000
0000
0110
0000
,
1010
0000
1100
0000
,
0101
0000
1010
0000
,
1100
0000
0110
0000
,
0011
0000
1001
0000
;
