#TITLE:Refrain;
#SUBTITLE:;
#ARTIST:dj TAKA feat Aimee;
#TITLETRANSLIT:C;
#SUBTITLETRANSLIT:;
#ARTISTTRANSLIT:;
#GENRE:;
#CREDIT:;
#BANNER:Refrain.png;
#BACKGROUND:Refrain-bg.png;
#LYRICSPATH:;
#CDTITLE:;
#MUSIC:Refrain.mp3;
#OFFSET:-10.919997;
#SAMPLESTART:62.179947;
#SAMPLELENGTH:15.000000;
#SELECTABLE:YES;
#DISPLAYBPM:158.000000;
#BPMS:0.000000=158.020004
;
#STOPS:
;
#BGCHANGES:;
#KEYSOUNDS:;
#ATTACKS:;

//---------------dance-single - ----------------
#NOTES:
     dance-single:
     :
     Easy:
     4:
     0.190431,0.221332,0.000000,0.000000,0.000000,159.000000,159.000000,0.000000,0.000000,0.000000,0.000000,0.190431,0.221332,0.000000,0.000000,0.000000,159.000000,159.000000,0.000000,0.000000,0.000000,0.000000:
0000
0000
0000
0000
,
0000
0000
0000
0000
,
1000
0001
1000
0000
,
0010
0100
0010
0000
,
0100
0001
0100
0000
,
0001
0000
1000
0000
,
0001
0000
0010
0000
,
0001
0000
0100
0000
,
0010
0010
0010
0000
,
0100
0100
0100
0000
,
0001
0000
1000
0000
,
0001
0000
0010
0000
,
0001
0000
0100
0000
,
0010
0000
0100
0000
,
0001
1000
0001
0000
,
1000
0010
1000
0000
,
0001
1000
0001
0000
,
1000
0100
1000
0000
,
0100
0010
0100
0000
,
0010
0001
0010
0000
,
0001
0000
1000
0000
,
0001
0000
0100
0000
,
0010
0000
1000
0001
,
1000
0000
0001
0000
,
0100
0000
0010
0000
,
0100
0000
0001
0000
,
0010
0000
0001
0000
,
1000
0000
0100
1000
,
0100
0000
0010
0001
,
0010
0000
0001
0000
,
1000
0000
0001
1000
,
0001
0000
1000
0100
,
1000
0000
0010
0100
,
0010
0000
0000
0000
,
0100
0001
0100
0000
,
0001
0010
0001
0000
,
1000
0000
1000
0000
,
0001
0000
0001
0000
,
0100
0000
0100
0000
,
0010
0000
0010
0000
,
1000
0000
1000
0000
,
0001
0100
0001
0000
,
1000
0000
1000
0000
,
0010
0100
0010
0000
,
0100
0001
0100
0000
,
0001
1000
0001
0000
,
1000
0000
0010
0000
,
1000
0000
0001
0000
,
0100
0010
0100
0000
,
0001
0000
0001
0000
,
1000
0000
1000
0000
,
0010
0000
0100
0000
,
0010
1000
0010
1000
,
0001
0000
0100
0001
,
0100
0000
0010
0000
,
1000
0000
0001
0000
,
1000
0000
0010
0000
,
0100
0000
0010
0000
,
1000
0001
1000
0000
,
0001
0100
0001
0000
,
0100
0010
0100
0000
,
0010
1000
0010
0000
,
1000
0000
1000
0000
,
0001
0000
0001
0000
,
0100
0000
0100
0000
,
0010
0000
0010
0000
,
1000
0000
0000
0000
;

//---------------dance-single - ----------------
#NOTES:
     dance-single:
     :
     Beginner:
     1:
     0.081442,0.110666,0.000000,0.000000,0.000000,68.000000,68.000000,0.000000,0.000000,0.000000,0.000000,0.081442,0.110666,0.000000,0.000000,0.000000,68.000000,68.000000,0.000000,0.000000,0.000000,0.000000:
0000
0000
0000
0000
,
0000
0000
0000
0000
,
1000
0000
0000
0000
,
1000
0000
0000
0000
,
0001
0000
0000
0000
,
0001
0000
0000
0000
,
0100
0000
0000
0000
,
0010
0000
0000
0000
,
0100
0000
0000
0000
,
0001
0000
0000
0000
,
1000
0000
0000
0000
,
0001
0000
0000
0000
,
1000
0000
0000
0000
,
0010
0000
0000
0000
,
0100
0000
0010
0000
,
0100
0000
0000
0000
,
0001
0000
0000
0000
,
1000
0000
0000
0000
,
0001
0000
0000
0000
,
0100
0000
0000
0000
,
0010
0000
0000
0000
,
0100
0000
0000
0000
,
0001
0000
0001
0000
,
1000
0000
0000
0000
,
1000
0000
0000
0000
,
0010
0000
0010
0000
,
0100
0000
0000
0000
,
0100
0000
0000
0000
,
0001
0000
0000
0000
,
1000
0000
0000
0000
,
1000
0000
0000
0000
,
0001
0000
0000
0000
,
0100
0000
0000
0000
,
0100
0000
0000
0000
,
0010
0000
0000
0000
,
0010
0000
0000
0000
,
1000
0000
0000
0000
,
1000
0000
0000
0000
,
0001
0000
0000
0000
,
0001
0000
0000
0000
,
0100
0000
0000
0000
,
0100
0000
0000
0000
,
0010
0000
0000
0000
,
1000
0000
0000
0000
,
1000
0000
0000
0000
,
0001
0000
0000
0000
,
0001
0000
0000
0000
,
0100
0000
0000
0000
,
0100
0000
0000
0000
,
0010
0000
0000
0000
,
1000
0000
0000
0000
,
0001
0000
0000
0000
,
1000
0000
0000
0000
,
0010
0000
0000
0000
,
1000
0000
0000
0000
,
0001
0000
0000
0000
,
0100
0000
0000
0000
,
0010
0000
0000
0000
,
0100
0000
0000
0000
,
0001
0000
0000
0000
,
1000
0000
0000
0000
,
0010
0000
0000
0000
,
1000
0000
0000
0000
,
0001
0000
0000
0000
,
0100
0000
0000
0000
,
0010
0000
0000
0000
,
0100
0000
0000
0000
;

//---------------dance-single - ----------------
#NOTES:
     dance-single:
     :
     Medium:
     9:
     0.334153,0.359664,0.008384,0.000000,0.000000,279.000000,278.000000,1.000000,0.000000,0.000000,0.000000,0.334153,0.359664,0.008384,0.000000,0.000000,279.000000,278.000000,1.000000,0.000000,0.000000,0.000000:
0000
0000
0000
0000
,
0000
0000
0000
0000
,
1000
0001
1000
0010
,
0100
0010
1000
0001
,
0100
0010
0100
0001
,
0010
0001
1000
0100
,
0010
0100
0010
0000
0001
0000
0100
0000
,
0010
0100
0010
0000
1000
0000
0100
0000
,
1000
0001
0010
1000
,
0010
0001
0100
1000
,
0100
0001
0010
0001
,
0100
0010
0100
0001
,
1000
0010
1000
0000
0010
0000
0100
0000
,
0010
0100
0010
0000
1000
0000
0100
0000
,
1000
0100
1000
0000
0100
0000
0010
0000
,
0001
0010
0001
0010
,
0100
1000
0100
0001
,
0100
1000
0010
0001
,
0010
1000
0001
0100
,
0010
0100
0001
1000
,
0001
0000
0100
0010
,
1000
0010
0100
0000
,
0001
0100
0010
0100
,
0001
0000
1000
0010
,
0100
0010
1000
0001
,
0100
0000
0010
1000
,
0010
0000
0100
0000
0001
0000
1000
0001
,
1000
0000
0010
0100
0010
0000
0100
0000
,
0001
0000
0010
0001
0010
0000
0001
0000
,
0100
0010
0100
0010
,
1000
0001
0100
0010
,
0100
0001
0010
0001
,
0100
0010
0100
0000
0010
1000
0010
0000
,
1000
0100
1000
0000
0000
0000
0000
0000
,
0001
0100
0010
0100
,
0001
1000
0100
1000
,
0010
0100
0010
0000
0100
0000
0001
0000
,
0010
0001
0100
1000
,
0100
0001
0010
1000
,
0010
0001
0100
0010
,
1000
0100
1000
0000
0001
0000
0010
0000
,
0001
0000
0100
0010
,
0100
0010
1000
0100
,
0001
0010
0001
0100
,
1000
0100
0001
0000
1000
0010
0001
0000
,
0100
0010
0100
0000
,
0001
0010
1000
0000
,
0001
0100
1000
0000
,
1000
0100
0010
0001
,
1000
0000
0000
0000
,
0001
0100
0001
0000
0100
0010
0100
0000
,
0010
1000
0010
0000
1000
0000
0100
0000
,
0010
0001
0100
0010
,
0100
0001
0010
1000
,
0010
0000
0001
0000
0100
0010
0100
0000
,
0010
1000
0010
0000
1000
0100
1000
0000
,
0001
0100
0010
0000
0100
0010
1000
0000
,
0001
0100
0010
0100
,
0001
1000
0001
0000
1000
0100
1000
0000
,
0010
0100
0010
0000
0100
0001
0100
0000
,
0001
1000
0100
1000
,
0010
0100
0010
0000
0100
0010
0100
0000
,
0010
1000
0010
0000
1000
0001
1000
0000
,
0001
0100
0001
0000
0100
0000
0010
0000
,
0100
0010
1000
0100
,
1000
0100
1000
0000
0001
0100
0001
0000
,
1001
0000
0000
0000
;

//---------------dance-single - ----------------
#NOTES:
     dance-single:
     :
     Hard:
     14:
     0.621597,0.645970,0.050303,0.285048,0.322775,519.000000,513.000000,6.000000,34.000000,0.000000,0.000000,0.621597,0.645970,0.050303,0.285048,0.322775,519.000000,513.000000,6.000000,34.000000,0.000000,0.000000:
// measure 0
0000
0000
0000
0000
,  // measure 1
0000
0000
0000
0000
,  // measure 2
1000
0000
0010
0000
1000
0000
0001
0000
0100
0010
0000
0010
1000
0000
0001
0000
,  // measure 3
0010
0001
0000
0001
0100
0000
0010
0000
1000
0100
0000
0100
0010
0001
0000
1000
,  // measure 4
0001
0000
1000
0010
1000
0000
0000
0000
0010
0100
0010
0000
0100
0000
0001
0010
,  // measure 5
0001
1000
0001
0100
0001
0000
0000
0000
1000
0000
0010
0000
0001
0000
0010
0000
,  // measure 6
1000
0000
0001
0100
0001
0000
1000
0010
1000
0000
0010
0100
0010
0000
0100
0001
,  // measure 7
0100
0000
0001
1000
0001
0000
0010
0000
0100
0000
1000
0000
0001
0000
0100
0000
,  // measure 8
0010
0100
0001
0010
1000
0001
1000
0010
,  // measure 9
0001
0100
1000
0010
1000
0100
0001
1000
,  // measure 10
0001
0100
0000
0100
0010
0000
1000
0000
0001
1000
0000
1000
0100
0000
0010
0000
,  // measure 11
0001
1000
0000
1000
0010
0000
0100
0000
0001
0100
0000
0100
0010
0000
1000
0001
,  // measure 12
0000
0001
0010
0001
0010
0000
0000
0000
0100
1000
0100
0000
1000
0000
0001
1000
,  // measure 13
0001
0100
0010
1000
0010
0100
0001
0010
,  // measure 14
0001
0000
0100
0010
0100
0000
0010
0100
0010
0000
1000
0010
1000
0000
0010
1000
,  // measure 15
0010
1000
0100
0010
0001
0100
1000
0100
,  // measure 16
0001
0000
0010
0000
1000
0000
0010
0000
0001
0000
0100
0000
0001
0000
1000
0010
,  // measure 17
1000
0000
0100
0000
0001
0000
0010
0000
0001
0100
1000
0000
0001
0000
1000
0000
,  // measure 18
0010
0000
0201
0000
0310
1000
0100
0010
,  // measure 19
0002
0000
0103
0010
1000
0020
0000
0230
,  // measure 20
0000
0000
0300
1000
0000
0001
0100
0010
,  // measure 21
0200
0000
0301
0000
1000
0010
0001
1000
,  // measure 22
0200
0000
0301
2000
0000
3020
0000
0230
,  // measure 23
0000
0301
0000
1000
0010
0100
0010
1000
,  // measure 24
0001
0100
0010
0200
0000
0302
0000
0013
,  // measure 25
0100
1000
0100
0000
1000
0100
1000
0000
0001
0010
0001
0000
1000
0000
0100
0000
,  // measure 26
0010
1001
1000
1001
,  // measure 27
0001
0200
0000
0310
1000
0100
1000
0001
,  // measure 28
0000
0100
0010
1000
0010
0100
0001
0020
,  // measure 29
0000
0031
0000
1000
0100
0001
0100
1000
,  // measure 30
0000
0100
0010
1000
0010
0100
0002
0000
,  // measure 31
2003
0000
3010
0200
0000
0320
0000
2030
,  // measure 32
0000
3000
0001
0100
0010
0100
0001
1000
,  // measure 33
0010
0000
0100
0000
0001
0000
0100
0000
0010
1000
0010
0000
1000
0000
0001
0000
,  // measure 34
0200
0010
0010
0010
,  // measure 35
0320
0000
1000
0000
1000
0000
1030
0001
,  // measure 36
0200
0000
0301
1000
0001
0010
1000
0010
,  // measure 37
0001
0000
1000
0100
0001
0100
1000
0010
,  // measure 38
0000
0100
0001
0010
0001
1000
0010
0000
,  // measure 39
0100
0010
1000
0010
0100
0001
0100
0000
,  // measure 40
0002
0000
1003
0010
1000
0001
0100
0020
,  // measure 41
0000
0030
2000
0000
3200
0000
0320
0000
,  // measure 42
0031
0100
1000
0200
0001
0310
0100
1000
,  // measure 43
0002
0000
0103
0010
2000
0000
3001
0000
,  // measure 44
0100
0000
0001
0000
0010
0000
0001
1000
0000
0000
0020
0000
0000
0000
0000
0000
,  // measure 45
0130
0001
1000
0002
0000
0013
0100
1000
,  // measure 46
0010
0000
0100
0000
0001
1000
0001
1000
0001
0000
0010
0000
0100
0001
0100
0000
,  // measure 47
0001
0000
1000
0000
0010
0100
0010
0000
1000
0000
0001
0000
0100
0000
0001
0000
,  // measure 48
1000
0010
1000
0010
1000
0000
0001
0000
0100
0000
0010
0000
0100
0000
0001
0000
,  // measure 49
1001
0000
0000
0000
1000
0100
0010
0000
0100
0000
0100
0000
0010
0001
1000
0000
,  // measure 50
0001
0000
0100
0000
1000
0000
0100
0000
0001
1000
0001
0000
1000
0001
1000
0000
,  // measure 51
0010
0100
0000
0100
0000
0000
0001
0000
1000
0010
0000
0010
0100
0000
0001
0000
,  // measure 52
0100
0000
0010
1000
0010
0000
1000
0000
0001
0010
0001
0000
1000
0000
0100
0000
,  // measure 53
1000
0010
0001
0100
0001
0010
1000
0001
,  // measure 54
1000
0000
0010
0100
0010
0000
0100
0001
0100
0000
0001
1000
0001
0000
1000
0000
,  // measure 55
0010
0000
0000
0010
0100
0000
0001
0000
0100
0000
0010
0000
1000
0001
1000
0000
,  // measure 56
0002
0000
0000
0103
0010
1000
0010
0100
,  // measure 57
0001
1000
0001
0000
0100
0000
0100
0000
0010
0000
1000
0000
0100
1000
0001
0000
,  // measure 58
1000
0000
0001
0100
0001
0000
1000
0010
1000
0000
0010
0100
0010
0000
0100
0000
,  // measure 59
0001
1000
0000
0010
1000
0000
0001
0000
0100
0000
0010
0000
1000
0000
0010
0000
,  // measure 60
0100
0000
0001
1000
0001
0000
1000
0000
0010
0000
0001
0000
0010
0000
1000
0000
,  // measure 61
0001
0100
0001
0000
1000
0000
0010
0000
0100
0000
0010
0000
1000
0000
0001
0000
,  // measure 62
1000
0000
0010
0100
0010
0000
1000
0000
0001
0000
0100
0001
0100
0000
0010
1000
,  // measure 63
0010
0000
1000
0000
0001
1000
0001
0000
1000
0000
0010
0000
0001
0000
0100
0000
,  // measure 64
0001
0010
1000
0100
0001
0100
1000
0001
,  // measure 65
1000
0000
0010
0000
0100
0000
0010
0000
1100
0000
0001
0000
0100
0010
0100
0000
,  // measure 66
2002
0000
0000
0000
,  // measure 67
3003
0000
0000
0000
;

//---------------dance-single - ----------------
#NOTES:
     dance-single:
     :
     Challenge:
     17:
     0.844366,0.954912,0.100605,0.150908,0.964134,705.000000,693.000000,12.000000,18.000000,0.000000,0.000000,0.844366,0.954912,0.100605,0.150908,0.964134,705.000000,693.000000,12.000000,18.000000,0.000000,0.000000:
// measure 0
0000
0000
0000
0000
,  // measure 1
0000
0000
0000
0000
,  // measure 2
1000
0010
0000
1000
0000
0000
1000
0001
0100
0010
0000
0010
1000
0000
0001
0000
,  // measure 3
0010
0001
0000
0001
0100
0000
0010
0000
1000
0100
0010
0100
0010
0001
1000
0010
,  // measure 4
1000
0100
0010
0001
0100
0000
0000
0010
1000
0001
1000
0000
0100
0000
0010
0001
,  // measure 5
0100
0001
0010
0001
0100
0001
0010
0000
0100
1000
0010
1000
0001
0010
0001
1000
,  // measure 6
0001
0000
0100
0010
1000
0000
1000
0001
0100
0000
0100
0010
1000
0000
0100
0001
,  // measure 7
0100
1000
0010
0100
0001
0010
0001
0010
0100
1000
0100
1000
0001
0100
0001
0100
,  // measure 8
0010
0000
0100
0001
0010
0001
0010
0000
0100
1000
0100
0010
0001
0010
0100
0000
,  // measure 9
1000
0010
0001
0000
0010
1000
0100
0000
0001
0100
1000
0000
0001
0100
0010
0000
,  // measure 10
1000
0100
0000
0010
0100
0000
0010
0000
0001
1000
0000
0010
1000
0000
0010
0000
,  // measure 11
1000
0100
0000
0010
0001
0000
1000
0000
0010
0100
1000
0100
0010
0100
0001
0010
,  // measure 12
0001
0100
0010
1000
0100
0000
0010
0001
0100
0001
0010
0000
0100
0000
1000
0001
,  // measure 13
1000
0100
0010
0001
1000
0100
0010
0001
1000
0100
0010
0001
0100
0010
1000
0010
,  // measure 14
0100
0000
0001
0010
0100
0000
1000
0100
0010
0000
0001
0010
1000
0000
0010
0001
,  // measure 15
0100
0000
0000
1000
0100
0001
0100
0000
1000
0010
1000
0000
0001
0010
0100
0010
,  // measure 16
0001
0000
1000
0001
0000
0000
0100
0000
0010
1000
0100
0000
0001
1000
0010
1000
,  // measure 17
0100
0010
0001
0000
0100
0010
1000
0000
0001
0010
1000
0000
0001
0100
1000
0000
,  // measure 18
0010
0100
0201
0000
0310
1000
0100
0010
,  // measure 19
0001
1000
0001
0000
0100
0010
1000
0000
0010
0000
0100
0000
0001
0000
0100
0000
,  // measure 20
1000
0000
0100
0000
0001
0000
1000
0000
0000
0000
0001
0000
0100
0000
0010
0100
,  // measure 21
0001
0010
0001
0000
1000
0010
0001
1000
,  // measure 22
0100
0010
0100
0000
0010
0000
0001
1000
0001
0000
0020
0000
0000
0000
0130
1000
,  // measure 23
0001
0000
1000
0000
0000
0000
1000
0010
0100
0000
0001
0000
0010
1000
0001
0000
,  // measure 24
0001
0100
0010
0000
1000
0000
0100
0000
0000
0100
0001
0000
0000
0001
1000
0000
,  // measure 25
0100
0010
0100
0000
0010
0001
1000
0000
0001
0010
0001
0000
1000
0000
0100
0000
,  // measure 26
0010
1001
0110
1001
,  // measure 27
0001
0000
0200
0000
0000
0000
0310
0000
1000
0000
0100
0000
1000
0001
1000
0000
,  // measure 28
0000
0000
0100
0010
0001
0000
1000
0000
0010
0100
0001
0000
1000
0000
0001
0000
,  // measure 29
0100
0000
0020
0000
0000
0000
1030
0000
0100
0000
0001
0100
0001
0000
0100
0000
,  // measure 30
0000
0000
0100
0010
0100
0000
0010
0000
0001
0000
0100
0000
0001
0000
0010
0000
,  // measure 31
1001
0000
1000
0000
0010
0100
0001
0000
0000
0001
0010
0000
0000
0010
1000
0000
,  // measure 32
0000
1000
0001
0000
0100
0000
0010
0000
1000
0000
0010
0000
0100
0000
0001
0000
,  // measure 33
0010
0100
0010
0000
0100
1000
0100
0000
1000
0010
1000
0000
0001
1000
0001
0000
,  // measure 34
0100
0010
0001
0021
0000
0130
1000
0100
,  // measure 35
0001
0100
1000
0010
1000
0000
1000
0001
,  // measure 36
0100
0000
0000
0000
0001
0000
1000
0000
0001
0000
0010
0000
1000
0000
0010
0001
,  // measure 37
0100
0000
0000
0000
1000
0000
0100
0001
0100
0000
1000
0000
0010
0000
0100
0000
,  // measure 38
0001
0000
0100
0000
0001
0000
0010
0000
0001
1000
0010
0000
2000
0000
0000
0000
,  // measure 39
3100
0000
0010
0000
1000
0000
0010
0100
0001
0000
0010
0000
0001
0000
0010
0000
,  // measure 40
0200
0000
0000
0000
1300
0000
0001
0000
0010
0000
0001
1000
0100
0000
0020
0000
,  // measure 41
0000
0031
2000
0000
3200
0000
0320
0000
,  // measure 42
0031
0000
0100
0000
1000
0100
0002
0000
1000
0000
0013
0000
0100
1000
0001
0000
,  // measure 43
0100
0000
0010
0000
1000
0000
0010
0100
0001
0000
0010
0000
0001
1000
0001
0000
,  // measure 44
0100
0000
0001
0000
0010
0000
0001
1000
0100
0000
0020
0000
0000
0000
0000
0000
,  // measure 45
0031
1000
0010
0002
0000
0013
1000
0001
,  // measure 46
0010
0000
0100
0000
1000
0001
0010
0001
0100
0010
0100
0000
0001
0010
0100
1000
,  // measure 47
0001
0000
1000
0000
0010
0100
0010
1000
0001
0100
0001
0010
0100
0000
1000
0000
,  // measure 48
0001
0010
1000
0010
0001
0100
1000
0100
0001
0010
0100
1000
0001
0010
0100
1000
,  // measure 49
0001
0000
0000
0000
1000
0001
0100
0000
0010
0000
0110
0000
0100
0001
1000
0000
,  // measure 50
0001
0000
0010
0100
1000
0000
0100
0010
0001
1000
0001
0100
0010
1000
0010
0100
,  // measure 51
0010
0100
0000
0101
0000
0000
0001
0000
1000
0010
0100
0010
0001
0010
0100
0010
,  // measure 52
0001
0010
0100
1000
0100
0000
0010
1000
0001
0010
0100
0000
1000
0001
0010
0001
,  // measure 53
1000
0010
0100
0010
1000
0100
0010
0001
0010
0100
1000
0010
0100
0001
1000
0010
,  // measure 54
0200
0000
0301
0010
0100
0000
1000
0010
0001
0000
1000
0100
0001
0000
1000
0010
,  // measure 55
0100
0010
0000
0110
0000
0101
0000
0000
0001
0010
0100
1000
0001
0010
0001
0100
,  // measure 56
0002
0000
0000
0000
0000
0000
0103
0000
0010
1000
0010
0100
0001
0010
0100
1000
,  // measure 57
0001
1000
0001
0000
0100
0000
0110
0000
0010
0000
1000
0000
0100
1000
0001
0000
,  // measure 58
1000
0000
0001
0100
0001
0000
1000
0010
1000
0010
0100
0001
0100
0001
0010
0100
,  // measure 59
0010
1000
0000
0010
1000
0000
0001
0000
0100
0010
0100
0010
1000
0010
1000
0010
,  // measure 60
0100
0001
0010
0001
1000
0000
0010
0000
0100
0001
0010
0001
1000
0000
1000
0010
,  // measure 61
0100
0001
0100
0010
1000
0100
0010
0001
0100
0010
1000
0001
0100
0010
1000
0001
,  // measure 62
0100
0000
0010
1000
0010
0000
1000
0001
1000
0000
0100
0001
0100
0000
0010
1000
,  // measure 63
0010
0000
1000
0000
0001
1000
0001
0000
1000
0000
0010
0000
0001
1000
0001
0000
,  // measure 64
0001
0010
1000
0010
0001
0100
1000
0100
0001
0010
1000
0001
0100
1000
0001
0100
,  // measure 65
0010
1000
0001
0100
0010
1000
0100
0001
1000
0010
0001
0100
0010
1000
0100
0010
,  // measure 66
2002
0000
0000
0000
,  // measure 67
3003
0000
0000
0000
;
