#TITLE:milky ice bear;
#SUBTITLE:;
#ARTIST:S-C-U;
#TITLETRANSLIT:;
#SUBTITLETRANSLIT:;
#ARTISTTRANSLIT:;
#GENRE:;
#CREDIT:;
#BANNER:milky ice bear.png;
#BACKGROUND:milky ice bear-bg.png;
#LYRICSPATH:;
#CDTITLE:;
#MUSIC:milky ice bear.mp3;
#OFFSET:-8.868000;
#SAMPLESTART:69.092010;
#SAMPLELENGTH:15.000000;
#SELECTABLE:YES;
#DISPLAYBPM:147.000000;
#BPMS:0.000000=147.000000
;
#STOPS:
;
#BGCHANGES:;
#KEYSOUNDS:;
#ATTACKS:;

//---------------dance-single - ----------------
#NOTES:
     dance-single:
     :
     Hard:
     12:
     0.549723,0.562191,0.087060,0.078354,0.404830,442.000000,432.000000,10.000000,9.000000,0.000000,0.000000,0.549723,0.562191,0.087060,0.078354,0.404830,442.000000,432.000000,10.000000,9.000000,0.000000,0.000000:
// measure 0
0000
0000
0000
0000
,  // measure 1
0000
0000
0000
0000
,  // measure 2
0000
0000
0000
0000
,  // measure 3
1000
0010
1000
0001
0000
0001
0100
1000
,  // measure 4
1000
0000
0100
0000
0001
0000
1000
0010
0000
1000
0100
0000
0001
0000
0100
0000
,  // measure 5
1000
0000
0010
0000
0001
0000
0010
0100
0000
0001
0100
0000
0001
0000
1000
0000
,  // measure 6
0000
0000
1000
0000
0010
0000
0100
0001
0000
0100
0001
0000
1000
0000
0010
0000
,  // measure 7
0100
0100
0010
1000
0000
1000
0001
0100
,  // measure 8
0001
0000
0010
0000
0100
0000
0010
0001
0000
1000
0001
0000
1000
0000
0010
0000
,  // measure 9
0100
0100
0001
0001
0000
1000
0100
0001
,  // measure 10
0000
0001
0100
1000
0100
0010
0001
0100
,  // measure 11
0010
0000
0000
0010
0000
0000
1000
0000
0001
0000
0000
0001
0000
0000
0100
0000
,  // measure 12
0010
0000
0000
0010
0000
0000
1000
0000
0001
0000
0000
0001
0000
0000
0100
0000
,  // measure 13
0010
0000
0000
0010
0000
0000
1000
0000
0100
0000
0000
0100
0000
0000
0001
0000
,  // measure 14
0100
0000
0000
0100
0000
0000
1000
0000
0010
0000
0000
0010
0000
0000
0001
0000
,  // measure 15
0010
0000
0000
0010
0000
0000
1000
0000
0001
0000
0000
0001
0000
0000
0100
0000
,  // measure 16
1000
0000
0000
0100
0000
0000
0001
0000
0010
0000
0000
0100
0000
0000
1000
0000
,  // measure 17
0100
0000
0000
0010
0000
0000
0001
0000
0100
0000
0000
0010
0000
0000
1000
0000
,  // measure 18
1001
0000
0000
0110
0000
0000
1001
0000
0000
1010
0000
0000
0220
0000
0330
0000
,  // measure 19
0001
0000
1000
0000
0001
1000
0000
0001
1000
0000
0001
1000
0000
0001
1000
0000
,  // measure 20
0010
0000
0010
0000
0100
0000
0001
0000
1000
0000
0000
1001
0000
0000
0001
0000
,  // measure 21
0100
0000
0000
0100
0000
0000
0010
0000
1000
0000
0100
0000
0010
0000
0001
0000
,  // measure 22
0010
0000
0100
0000
1000
0000
0001
0000
1000
0000
0000
0010
0000
0000
0010
0000
,  // measure 23
0100
0000
0001
0000
0010
0100
0000
0010
0100
0000
0010
0100
0000
0010
0100
0000
,  // measure 24
1000
0000
1000
0000
0001
0000
0001
0000
0100
0000
0000
0110
0000
0000
0010
0000
,  // measure 25
1000
0000
0000
1000
0000
0000
0100
0000
0001
0000
0000
0001
0000
0000
0100
0000
,  // measure 26
1000
0000
0001
0000
0010
0000
0001
1000
0000
0010
1000
0000
0001
0000
1000
0000
,  // measure 27
0100
0000
0010
0000
0001
0000
0010
0001
0000
0100
0001
0000
1000
0000
0010
0000
,  // measure 28
1000
0000
0001
0000
0100
0000
0010
0100
0000
0001
0100
0000
0010
0000
0000
0000
,  // measure 29
1000
0000
0001
0000
0100
0000
0010
0100
0000
0010
1000
0000
0010
0000
1000
0000
,  // measure 30
0001
0000
0001
0000
0100
0000
0001
1000
0000
0001
1000
0000
0010
0100
0010
0000
,  // measure 31
0000
0000
1000
0000
0100
0000
1000
0010
0000
1000
0010
0000
0100
0000
0001
0000
,  // measure 32
0010
0000
0100
0000
0001
0000
0100
0010
0000
0001
0100
0000
0010
0000
0000
0000
,  // measure 33
0000
0000
1000
0000
0100
0000
0010
0100
0000
1000
0100
0000
0010
0000
0001
0000
,  // measure 34
0000
0000
0001
0000
0010
0000
0100
0010
0000
0001
0010
0000
0100
0000
0010
0000
,  // measure 35
0001
0000
1000
0000
0010
0000
1000
0010
0000
1000
0100
0000
0010
0000
0001
0000
,  // measure 36
0000
0000
0000
0000
,  // measure 37
0100
0000
0100
0000
0010
0000
0010
0000
1000
0000
0000
0001
0000
0000
2000
0000
,  // measure 38
0000
0000
3010
0000
0200
0000
0000
0000
0310
0000
0000
0010
0000
0000
2001
0000
,  // measure 39
0000
0000
3001
0000
0100
0000
0010
0100
0000
0001
1000
0000
0010
0000
1000
0000
,  // measure 40
0100
0000
0010
0000
0001
0000
0100
0000
0000
0000
0010
0100
0010
0000
0000
0000
,  // measure 41
1000
0000
0001
0000
2000
0000
0000
0000
3010
0000
0000
0010
0000
0000
0100
0000
,  // measure 42
0000
0100
0001
0000
0010
0000
0001
1000
0000
0010
1000
0000
0100
0000
1000
0000
,  // measure 43
0001
0000
0010
0000
0001
0000
0010
0001
0000
1000
0001
1000
0001
0000
0100
0000
,  // measure 44
0000
0010
1000
0100
0010
0001
0100
0010
,  // measure 45
0100
0000
0100
0000
0001
0000
0001
0000
1000
0000
0000
1000
0000
0000
0010
0000
,  // measure 46
0000
0000
0100
0000
0001
0000
0000
0000
0001
0000
0000
1000
0000
0000
1010
0000
,  // measure 47
0000
0000
0010
0000
0100
0000
0001
0100
0000
0010
1000
0000
0100
0000
0001
0000
,  // measure 48
0100
0010
0001
0100
0000
0100
0010
0000
,  // measure 49
1000
0000
0001
0000
1001
0000
0000
0000
0001
0000
0000
0100
0000
0000
0010
0000
,  // measure 50
0000
0010
0100
0000
0001
0000
0010
0001
0000
0100
0001
0000
1000
0001
1000
0000
,  // measure 51
0100
0000
0010
0000
0001
0000
0100
0001
0000
1000
0010
1000
0010
0000
0100
0000
,  // measure 52
0000
0000
0001
0000
0010
0000
0001
1000
0000
0010
1000
0000
0010
0000
0100
0000
,  // measure 53
0001
0010
1000
0010
0000
0100
1000
0001
,  // measure 54
1000
0000
0100
0000
1000
0000
0001
1000
0000
0001
0010
0000
0100
0000
1000
0000
,  // measure 55
0100
0000
0010
0000
0100
0000
1000
0001
0000
0010
0001
0000
0100
0000
0020
0000
,  // measure 56
0000
0000
0130
0000
0010
0000
1000
0001
0000
1000
0001
0000
0100
0000
0010
0000
,  // measure 57
0100
0001
1000
0001
0000
1000
0010
1000
,  // measure 58
0000
0000
0001
0000
0100
0000
0010
0100
0000
0010
1000
0000
0001
0000
0100
0000
,  // measure 59
0010
1000
0010
0100
0001
1000
0001
0200
,  // measure 60
0000
0310
1000
0100
1000
0001
0010
0002
,  // measure 61
0000
0000
0003
0000
;

//---------------dance-single - ----------------
#NOTES:
     dance-single:
     :
     Beginner:
     1:
     0.073379,0.079660,0.000000,0.000000,0.000000,59.000000,59.000000,0.000000,0.000000,0.000000,0.000000,0.073379,0.079660,0.000000,0.000000,0.000000,59.000000,59.000000,0.000000,0.000000,0.000000,0.000000:
0000
0000
0000
0000
,
0000
0000
0000
0000
,
0000
0000
0000
0000
,
0001
0000
0000
0000
,
1000
0000
0000
0000
,
0001
0000
0000
0000
,
0100
0000
0000
0000
,
0010
0000
0000
0000
,
0010
0000
0000
0000
,
0100
0000
0000
0000
,
0100
0000
0000
0000
,
0001
0000
0000
0000
,
0001
0000
0000
0000
,
0010
0000
0000
0000
,
0010
0000
0000
0000
,
0100
0000
0000
0000
,
0100
0000
0000
0000
,
1000
0000
0000
0000
,
1000
0000
0000
0000
,
0001
0000
0000
0000
,
0001
0000
0000
0000
,
0100
0000
0000
0000
,
0100
0000
0000
0000
,
0010
0000
0000
0000
,
0010
0000
0000
0000
,
1000
0000
0000
0000
,
1000
0000
0000
0000
,
0100
0000
0000
0000
,
0010
0000
0000
0000
,
0001
0000
0000
0000
,
0100
0000
0000
0000
,
0010
0000
0000
0000
,
0100
0000
0000
0000
,
0010
0000
0000
0000
,
1000
0000
0000
0000
,
0001
0000
0000
0000
,
0100
0000
0000
0000
,
0001
0000
0000
0000
,
1000
0000
0000
0000
,
0010
0000
0000
0000
,
1000
0000
0000
0000
,
0100
0000
0000
0000
,
1000
0000
0000
0000
,
0001
0000
0000
0000
,
0010
0000
0000
0000
,
0001
0000
0000
0000
,
0001
0000
0000
0000
,
0100
0000
0000
0000
,
0100
0000
0000
0000
,
0010
0000
0000
0000
,
0010
0000
0000
0000
,
1000
0000
0000
0000
,
1000
0000
0000
0000
,
0001
0000
0000
0000
,
1000
0000
0000
0000
,
0001
0000
0000
0000
,
0100
0000
0000
0000
,
0010
0000
0000
0000
,
1000
0000
0000
0000
,
0010
0000
0000
0000
,
0100
0000
0000
0000
,
0001
0000
0000
0000
;

//---------------dance-single - ----------------
#NOTES:
     dance-single:
     :
     Easy:
     3:
     0.139296,0.159320,0.000000,0.034824,0.000000,112.000000,112.000000,0.000000,4.000000,0.000000,0.000000,0.139296,0.159320,0.000000,0.034824,0.000000,112.000000,112.000000,0.000000,4.000000,0.000000,0.000000:
0000
0000
0000
0000
,
0000
0000
0000
0000
,
0000
0000
0000
0000
,
1000
0000
0000
0000
,
0001
0000
0000
0100
,
0001
0000
0000
1000
,
0001
0000
0000
0100
,
0010
0000
0000
1000
,
0010
0000
0100
0000
,
0020
0000
0030
0000
,
1000
0000
0001
0000
,
1000
0000
1000
0000
,
0010
0000
0010
0000
,
0100
0000
0100
0000
,
0001
0000
0001
0000
,
0010
0000
0010
0000
,
0100
0000
0100
0000
,
1000
0000
1000
0000
,
0001
0000
0001
0000
,
0100
0000
0100
0000
,
0010
0000
0010
0000
,
1000
0000
1000
0000
,
0100
0000
1000
0000
,
0001
0000
0010
0000
,
0001
0000
0100
0000
,
0010
0000
0100
0000
,
0001
0001
0001
0000
,
0100
0000
0010
0000
,
0200
0300
0000
0000
,
0001
0000
1000
0000
,
0002
0000
0003
0000
,
1000
0000
0010
0000
,
2000
0000
3000
0000
,
0001
0000
0100
0000
,
0001
0000
1000
0000
,
0010
0000
1000
0000
,
0001
0000
0000
0000
,
0100
0000
0100
0000
,
0100
0000
0010
0000
,
0010
0000
0010
0000
,
1000
0000
1000
0000
,
0001
0000
0001
0000
,
0100
0000
0100
0000
,
0010
0000
0010
0000
,
1000
0000
1000
0000
,
0001
0000
0001
0000
,
0010
0000
0010
0000
,
0001
0000
0001
0000
,
0100
0000
0100
0000
,
1000
0000
1000
0000
,
0100
0000
0100
0000
,
0001
0000
0001
0000
,
0010
0000
0010
0000
,
1000
0000
1000
0000
,
0010
0000
0010
0000
,
0001
0000
0001
0000
,
1000
0000
1000
0000
,
0010
0000
0010
0000
,
0100
0000
0100
0000
,
0001
0000
0001
0000
,
1000
0000
0001
0000
,
1000
0000
0000
0000
;

//---------------dance-single - ----------------
#NOTES:
     dance-single:
     :
     Medium:
     8:
     0.296005,0.317988,0.026118,0.365653,0.000000,238.000000,235.000000,3.000000,42.000000,0.000000,0.000000,0.296005,0.317988,0.026118,0.365653,0.000000,238.000000,235.000000,3.000000,42.000000,0.000000,0.000000:
0000
0000
0000
0000
,
0000
0000
0000
0000
,
0000
0000
0000
0000
,
1000
0100
1000
0000
0001
0000
0010
0000
,
0001
0100
0010
0100
,
0020
1000
0130
0010
,
0001
0000
1000
0001
1000
0000
0010
0000
,
0200
0000
0001
1300
,
0001
1000
0010
1000
,
0200
0310
0001
1000
,
0100
0010
0001
1000
,
0001
1000
0001
1000
,
0100
0010
0100
0010
,
0011
0010
1100
1000
,
1001
0001
0010
0001
,
0100
0010
0100
0001
,
1000
0001
1000
0100
,
0010
0001
0010
0100
,
0100
0100
0100
0010
,
1000
0000
0100
0000
1000
0100
1000
0000
,
0010
0010
0100
0000
,
0001
0010
0001
0010
,
0100
1000
0100
1000
0100
0000
0001
0000
,
0010
0001
0010
0100
,
1000
0001
1000
0001
,
0010
0000
0100
0000
,
1000
0001
1000
0001
,
0020
0032
0203
0320
,
2030
3002
0203
0310
,
1000
0100
2000
3002
,
0023
0032
0203
0310
,
1000
0020
0230
0302
,
0023
0032
0203
0310
,
1000
0020
0230
0302
,
0023
0032
0203
0320
,
2030
3200
0320
0032
,
1003
0000
0000
0000
,
0002
2003
3020
0030
,
0100
0001
0010
0001
,
0100
0010
0100
0000
0010
1000
0010
0000
,
1000
0100
0010
0001
,
1000
0200
0320
0031
,
1000
0001
1000
0100
,
1000
0010
0100
0001
,
0010
0001
1000
0100
,
0020
0032
0203
0320
,
1030
0100
0010
0001
,
0010
0100
1000
0001
,
0010
0001
0100
0010
,
1000
0100
1000
0000
0001
0000
0010
0000
,
0001
0100
0010
0100
,
0010
1000
0010
0000
1000
0000
0100
0000
,
1000
0001
0010
0001
,
0100
0010
0100
0010
,
1000
0001
1000
0001
,
0200
0000
0000
0000
0310
1000
0010
0000
,
1000
0001
0100
0001
,
0010
0100
1000
0010
,
1000
0100
0010
0001
,
0100
0000
0010
0000
0100
0000
0001
1000
,
0001
0000
1000
0000
0010
0000
1000
0001
;
