#TITLE:Clarity ft. foxes (kors k remix);
#SUBTITLE:;
#ARTIST:ZEDD;
#TITLETRANSLIT:;
#SUBTITLETRANSLIT:;
#ARTISTTRANSLIT:;
#GENRE:;
#CREDIT:;
#BANNER:clarity ft. foxes (kors k remix)-jacket.png;
#BACKGROUND:clarity ft. foxes (kors k remix)-bg.png;
#LYRICSPATH:;
#CDTITLE:;
#MUSIC:clarity ft. foxes (kors k remix).ogg;
#OFFSET:-1.420000;
#SAMPLESTART:51.138000;
#SAMPLELENGTH:15.000000;
#SELECTABLE:YES;
#DISPLAYBPM:170.000000;
#BPMS:0.000000=169.759995
,56.000000=173.000000
,72.000000=170.000000
;
#STOPS:
;
#BGCHANGES:;
#KEYSOUNDS:;
#ATTACKS:;

//---------------dance-single - ----------------
#NOTES:
     dance-single:
     :
     Beginner:
     2:
     0.138767,0.204393,0.000000,0.000000,0.000000,108.000000,108.000000,0.000000,0.000000,0.000000,0.000000,0.138767,0.204393,0.000000,0.000000,0.000000,108.000000,108.000000,0.000000,0.000000,0.000000,0.000000:
0000
0000
0000
0000
,
0000
0000
0000
0000
,
0000
0000
0000
0000
,
1000
0000
0000
0000
,
1000
0000
0000
0000
,
0001
0000
0001
0000
,
0001
0000
0000
0000
,
0100
0000
0100
0000
,
0100
0000
0000
0000
,
0010
0000
0010
0000
,
0010
0000
0000
0000
,
1000
1000
1000
0000
,
0001
0000
0001
0000
,
0100
0000
0100
0000
,
0010
0000
0010
0000
,
1000
0000
1000
0000
,
0001
0000
0001
0000
,
0100
0000
0100
0000
,
0010
0000
0000
0000
0010
0000
0000
0100
,
0000
0000
0000
0000
0000
0000
0000
0010
,
0000
0000
0000
0000
,
0100
0000
0000
0000
,
0001
0000
0000
0000
,
1000
0000
0000
0000
,
0010
0000
0000
0000
,
0100
0000
0000
0000
,
0001
0000
0000
0000
,
0010
0000
0001
0000
,
0010
0000
0001
0000
,
0100
0000
0010
0000
,
0100
0000
0000
0000
,
0010
0000
0000
0000
,
1000
0000
0000
0000
,
0001
0000
0000
0000
,
1000
0000
0000
0000
,
0010
0000
0010
0000
,
0100
0000
0100
0000
,
0000
0001
0000
0000
,
1000
0000
0010
0000
,
0000
1000
0000
0100
,
0000
1000
0000
0001
,
0000
1000
0000
0001
,
0000
0000
1000
0000
,
0000
0000
0010
0000
,
0000
0000
0100
0000
,
0000
0000
0001
0000
,
0000
1000
0000
0000
,
0000
0001
0000
1000
,
0000
0001
0000
1000
,
0000
0000
0000
0001
,
0000
0100
0000
0010
,
0000
0000
0000
0100
,
0000
0001
0000
1000
,
0000
0010
0000
1000
,
0000
0000
0000
0100
,
0000
0010
0000
0001
,
0000
0000
0000
0010
,
0000
0100
0000
1000
,
0000
0000
0000
0001
,
0000
0000
0000
0000
,
0000
0000
0000
1000
,
0000
1000
0000
0001
,
0000
0001
0000
0100
,
0000
0100
0000
0000
,
0000
0010
0000
0010
,
0000
0100
0000
0100
,
0000
0001
0000
0001
,
0000
1000
0000
1000
,
0000
0010
0000
0010
,
0000
0000
0000
0100
,
0000
0000
0000
0100
,
0000
0001
0000
0000
,
0000
1000
0000
0000
,
0000
1000
0000
0010
,
0000
0000
0000
0010
,
0000
0000
0000
0100
;

//---------------dance-single - ----------------
#NOTES:
     dance-single:
     :
     Easy:
     4:
     0.259546,0.306589,0.000000,0.000000,0.000000,202.000000,202.000000,0.000000,0.000000,0.000000,0.000000,0.259546,0.306589,0.000000,0.000000,0.000000,202.000000,202.000000,0.000000,0.000000,0.000000,0.000000:
0000
0000
0000
0000
,
0000
0000
0000
0000
,
0000
0000
0000
0000
,
1000
1000
1000
0000
,
0000
0001
0000
0000
,
0001
0001
0001
0000
,
0100
0100
0100
0000
,
0010
0010
0010
0000
,
0100
0100
0100
0000
,
0010
1000
0010
0000
,
0100
0001
0100
0000
,
0001
0001
0001
0000
,
1000
0000
1000
0000
,
0010
0000
0100
0000
,
0010
0100
0010
0000
,
1000
0000
0100
0000
,
1000
0000
0001
1000
,
0001
0000
0000
0100
,
0000
0000
0010
0000
,
1000
0100
1000
0000
,
0001
0010
0001
0000
,
0100
0010
0100
0000
,
0010
1000
0010
0000
,
0100
0001
0010
0000
,
0001
1000
0001
0000
,
1000
0100
1000
0000
,
0010
0100
0010
0000
,
0100
0100
0100
0000
,
0001
0001
0001
0000
,
1000
1000
1000
0000
,
0010
0010
0010
0000
,
0100
0001
0100
0000
,
0001
0010
0001
0000
,
1000
0100
1000
0100
,
0000
0000
0000
0000
,
0010
0001
0010
0000
,
0100
1000
0100
0000
,
0001
0100
0000
0100
,
1000
0000
0100
0000
,
0001
0010
1000
0010
,
0001
0100
0000
0000
,
1000
0100
0001
0100
,
1000
0010
0001
0000
,
0010
0000
1000
0000
,
0100
0000
0001
0000
,
0100
0000
1000
0000
,
0001
0010
0001
0000
,
0100
0010
0100
0010
,
0100
0000
0000
0000
,
0001
0010
0001
0000
,
0010
0100
0000
0000
,
1000
0000
0000
0001
,
1000
0001
0000
0010
,
0001
0010
0000
0100
,
1000
0100
0000
0010
,
0001
0010
0000
0100
,
0100
1000
0000
0001
,
0001
1000
0000
0100
,
0000
0000
0000
0010
,
0000
0000
0000
0001
,
1000
0001
1000
0010
,
0100
0000
0000
0010
,
0100
0010
1000
0010
,
0100
0010
1000
0000
,
0001
0100
0010
0000
,
0100
0001
0010
0000
,
0100
1000
0010
0000
,
0100
0010
0100
0000
,
0001
0010
0001
0000
,
1000
0100
1000
0000
,
0001
0010
0001
0000
,
0100
0010
0100
0000
,
0010
1000
0010
1000
,
0000
0000
0001
0100
,
0001
0100
0010
0100
,
0010
1000
0010
1000
;

//---------------dance-single - ----------------
#NOTES:
     dance-single:
     :
     Medium:
     10:
     0.439430,0.545047,0.269825,0.000000,0.000000,342.000000,312.000000,30.000000,0.000000,0.000000,0.000000,0.439430,0.545047,0.269825,0.000000,0.000000,342.000000,312.000000,30.000000,0.000000,0.000000,0.000000:
// measure 0
0000
0000
0000
0000
,  // measure 1
0000
0000
0000
0000
,  // measure 2
0000
0000
0000
0000
,  // measure 3
1000
1001
0001
0101
,  // measure 4
0100
0110
0010
1010
,  // measure 5
1000
0100
1000
0000
0001
0100
0001
0000
,  // measure 6
0100
0010
0100
0000
0010
1000
0010
0000
,  // measure 7
1000
0000
0100
0000
0010
0001
0010
0001
,  // measure 8
0010
0000
0100
0000
1000
0100
1000
0100
,  // measure 9
1000
0000
0001
0000
0100
0000
0000
0010
,  // measure 10
0100
0010
0100
0000
,  // measure 11
1010
1100
0101
1100
,  // measure 12
0101
0000
0011
0000
0010
0100
0100
0010
,  // measure 13
0000
1000
0100
0000
1000
0000
0010
0000
,  // measure 14
0100
0000
0010
0000
1000
0100
0010
0000
,  // measure 15
0001
0010
1100
1001
,  // measure 16
1010
1010
0110
0110
,  // measure 17
0001
0010
0100
1000
,  // measure 18
0100
0000
0010
0000
0001
0010
0001
1000
,  // measure 19
0000
1000
0000
0010
0000
0100
0010
0100
,  // measure 20
0000
0010
0000
1000
0000
0100
0010
0001
,  // measure 21
0000
0010
0000
0100
0000
1000
0100
0000
,  // measure 22
0000
0000
0000
0000
,  // measure 23
0000
1000
0000
0001
0000
1000
0001
1000
,  // measure 24
0000
0001
0000
0100
0000
0010
0100
0010
,  // measure 25
0000
0100
0000
0010
0000
0100
0010
0000
,  // measure 26
0000
0000
0000
0000
,  // measure 27
0000
1000
0000
0100
0000
1000
0100
1000
,  // measure 28
0000
0001
0000
0010
0000
0001
0010
0001
,  // measure 29
0000
0100
0000
0010
0000
0100
0000
0010
,  // measure 30
0000
0100
0000
0010
0000
0000
0000
0000
,  // measure 31
0000
1000
0000
0100
0000
0010
0001
0010
,  // measure 32
0000
0001
0000
0010
0000
0100
1000
0100
,  // measure 33
0000
0010
0000
0001
0000
0010
0100
0000
,  // measure 34
0000
0000
0000
0000
,  // measure 35
0000
1001
0000
1001
0000
0000
0000
0100
,  // measure 36
0000
0010
0000
0100
0000
0000
0000
0000
,  // measure 37
0000
0001
0000
1000
0000
0001
0000
0010
,  // measure 38
0000
0001
0000
0101
0000
0101
0000
0100
,  // measure 39
0000
0010
0000
1000
0000
0100
0000
1000
,  // measure 40
0100
1000
0000
0100
0000
0010
0000
0001
,  // measure 41
0000
0010
0000
0001
0000
1000
0100
1000
,  // measure 42
0000
0010
0000
0100
0000
0010
0000
0100
,  // measure 43
0000
0001
0000
0010
0001
0010
0000
0100
,  // measure 44
0000
1000
0000
0100
0000
1000
0000
0010
,  // measure 45
0100
0010
0000
0100
0000
0001
0000
0010
,  // measure 46
0000
0001
0000
1000
0000
1001
0000
0100
,  // measure 47
0000
0010
0000
0100
0000
1000
0000
1100
,  // measure 48
0000
0001
0000
0100
0000
1000
0000
0010
,  // measure 49
0000
0001
0000
0010
0000
1000
0000
0001
,  // measure 50
0000
1000
0000
0100
0000
0010
0000
0001
,  // measure 51
0010
0001
0000
1000
0000
0100
1000
0000
,  // measure 52
0100
0010
0001
0010
,  // measure 53
0100
0010
0001
0010
,  // measure 54
0100
1000
0100
0010
,  // measure 55
0001
0010
0100
1000
,  // measure 56
0100
0001
0100
1000
,  // measure 57
0100
0000
0010
0000
0001
0000
0010
0001
,  // measure 58
0010
0000
0100
0000
1000
0000
0100
1000
,  // measure 59
0100
0010
0001
0100
,  // measure 60
0010
0100
0010
0100
,  // measure 61
0010
0000
1000
0000
0100
0000
1000
0100
,  // measure 62
1000
0000
0100
0010
0100
0000
0010
0001
,  // measure 63
0010
0000
0001
0010
0001
0000
1000
0000
,  // measure 64
0100
1100
1010
0110
,  // measure 65
0001
0110
1100
0010
,  // measure 66
0100
0000
0001
0010
0100
0000
1000
0100
,  // measure 67
0010
0000
0001
0010
0100
0000
1000
0000
,  // measure 68
0100
0001
0100
1100
,  // measure 69
1001
0000
0001
0000
0010
0000
0001
0010
,  // measure 70
0001
0100
1000
0100
,  // measure 71
0001
0000
0010
1000
0010
0000
0001
0000
,  // measure 72
0100
1000
0100
0001
,  // measure 73
0010
1000
0010
0001
,  // measure 74
0100
1000
0100
0001
,  // measure 75
0010
0000
0100
1000
0100
0000
0011
0000
;

//---------------dance-single - ----------------
#NOTES:
     dance-single:
     :
     Hard:
     12:
     0.636017,0.621273,0.350773,0.017988,0.089942,495.000000,456.000000,39.000000,2.000000,0.000000,0.000000,0.636017,0.621273,0.350773,0.017988,0.089942,495.000000,456.000000,39.000000,2.000000,0.000000,0.000000:
// measure 0
0000
0000
0000
0000
,  // measure 1
0000
0000
0000
0000
,  // measure 2
0000
0000
0000
0000
,  // measure 3
0001
0100
0001
0100
0010
1000
0010
1000
,  // measure 4
0100
0010
0100
0010
0001
0100
0001
0100
,  // measure 5
1000
0100
1000
0100
0001
0010
0001
0010
,  // measure 6
1000
0010
1000
0010
0001
0010
0001
0100
,  // measure 7
0110
0000
1010
0000
1000
0100
0010
0001
,  // measure 8
0101
0000
0110
0000
0010
1000
0100
0001
,  // measure 9
0100
0000
1000
0001
1000
0000
0000
0010
,  // measure 10
1000
0000
0000
0000
0001
0000
0000
0000
0010
0000
0100
0010
0100
0000
0000
0000
,  // measure 11
1001
1100
0101
1100
,  // measure 12
1010
0000
0011
0000
1000
0100
0010
0001
,  // measure 13
0000
0010
1000
0000
0110
0000
0011
0000
,  // measure 14
0110
0000
1100
0000
0010
0001
0010
0100
,  // measure 15
1000
0001
1000
0000
0101
0000
1100
0000
,  // measure 16
0101
0000
0011
0000
1000
0010
0100
0001
,  // measure 17
0100
1010
1100
0101
,  // measure 18
1100
0000
0100
0001
0010
0100
0010
0001
,  // measure 19
1000
0000
0010
0000
0100
0001
0010
0000
,  // measure 20
0100
0000
1000
0000
0010
0001
0010
0000
,  // measure 21
1000
0000
0100
0000
0001
0100
1000
0000
,  // measure 22
1000
0010
1000
0001
0100
0000
0001
0000
,  // measure 23
0010
0000
0100
0000
1000
0001
0010
0000
,  // measure 24
0101
0000
1100
0000
0100
0001
0010
0000
,  // measure 25
0100
0000
1000
0010
0001
0010
1000
0000
,  // measure 26
0100
0000
0010
0001
1000
0001
0010
0000
,  // measure 27
0100
0000
0100
0000
0100
0010
0100
0000
,  // measure 28
0100
0000
0100
0000
0010
1000
0010
0000
,  // measure 29
0010
0000
0010
0000
0010
0001
0010
0000
,  // measure 30
0001
1000
0001
0000
0001
0000
0001
0000
,  // measure 31
1000
0001
1000
0000
1000
0100
1000
0000
,  // measure 32
1001
0000
1010
0000
0010
0100
0001
0000
,  // measure 33
0011
0000
0010
0000
0100
1000
0001
0000
,  // measure 34
0101
0000
0010
1000
0100
0010
0001
0000
,  // measure 35
1000
0000
0101
0000
1001
0000
0000
0010
,  // measure 36
1000
0010
0100
0001
0010
0100
1000
0000
,  // measure 37
0010
0000
1000
0100
0001
0100
0000
1000
,  // measure 38
0010
0001
0010
1000
0001
1000
0010
0100
,  // measure 39
0000
0000
0001
0000
0011
0000
0000
0100
,  // measure 40
1000
0010
1000
0100
0010
0001
0100
0010
,  // measure 41
1000
0000
1100
0000
0110
0000
0010
0001
,  // measure 42
0100
0000
0110
0000
1000
0010
0001
0010
,  // measure 43
1000
0000
0001
0100
1000
0000
0100
0000
,  // measure 44
0001
0010
1000
0000
0010
0001
0100
0000
,  // measure 45
0010
1000
0100
0000
0010
0001
0100
0000
,  // measure 46
0010
1000
0001
1000
0010
0100
0001
0000
,  // measure 47
1001
0000
1010
0000
0010
0100
0001
0100
,  // measure 48
0010
0000
1000
0000
0100
0000
0001
0100
,  // measure 49
1000
0100
0001
0000
0100
0000
1010
0000
,  // measure 50
0010
0000
0100
0001
0010
0100
0010
0000
,  // measure 51
0001
0000
0100
0000
0010
0000
0100
0000
0001
0000
1000
0001
1000
0000
0000
0010
,  // measure 52
0000
0100
0000
0001
0000
0000
0100
0000
0010
0000
1000
0010
0000
0100
0000
0001
,  // measure 53
0000
0010
0000
0100
0000
0000
1000
0000
0100
0000
1000
0000
0001
0000
1000
0010
,  // measure 54
1000
0001
0010
0001
1000
0100
1000
0000
,  // measure 55
0001
0100
0001
1000
0100
0010
0100
1000
,  // measure 56
0001
0000
0010
0000
0001
0000
1000
0000
0001
0100
0000
0010
0000
1000
0000
0010
,  // measure 57
0000
1000
0000
0000
0100
0000
0010
0000
0001
0100
0000
0010
0000
1000
0001
0000
,  // measure 58
1000
0000
0000
0000
0001
0100
0001
0000
0010
0000
1000
0000
0010
0000
0001
0000
,  // measure 59
0100
0010
1000
0100
0010
0001
0100
0010
,  // measure 60
1000
0100
1000
0100
0010
0001
0010
0001
,  // measure 61
0100
0010
0100
0010
0000
1000
0010
0001
,  // measure 62
0010
1000
0000
0100
0001
0100
1000
0010
,  // measure 63
0100
0001
0010
0100
1000
0001
0000
1001
,  // measure 64
0000
1000
0010
0100
0010
1000
0001
0010
,  // measure 65
0001
0100
0010
1000
0100
0010
0000
0001
,  // measure 66
0010
0001
0010
0100
1000
0100
0000
1000
,  // measure 67
0100
0001
0000
0001
0100
1000
0000
0100
,  // measure 68
0010
0001
0010
0100
1000
0100
0001
0100
,  // measure 69
0000
0010
0001
0100
0000
0100
0010
0100
,  // measure 70
0001
1000
0000
0100
0001
0100
1000
0010
,  // measure 71
0000
0100
0001
1000
0001
0100
0000
0010
,  // measure 72
1000
0100
0000
1000
0010
0100
0010
1000
,  // measure 73
0001
1000
0000
0001
0010
0001
0000
0100
,  // measure 74
0010
0100
0000
0001
0010
0001
0000
1000
,  // measure 75
0100
1000
0000
0001
1000
0001
0000
0220
,  // measure 76
0000
0000
0000
0330
;

//---------------dance-single - Copied from----------------
#NOTES:
     dance-single:
     Copied from:
     Challenge:
     15:
     0.787633,1.035455,0.422727,0.017988,0.472194,613.000000,566.000000,47.000000,2.000000,0.000000,0.000000,0.787633,1.035455,0.422727,0.017988,0.472194,613.000000,566.000000,47.000000,2.000000,0.000000,0.000000:
// measure 0
0000
0000
0000
0000
,  // measure 1
0000
0000
0000
0000
,  // measure 2
0000
0000
0000
0000
,  // measure 3
0001
0100
0001
0100
0001
0100
0001
0000
0010
1000
0010
1000
0010
1000
0010
0000
,  // measure 4
0100
0010
0100
0010
0100
0010
0100
0000
0001
0100
0001
0100
0001
0100
0001
0000
,  // measure 5
1000
0100
1000
0100
1000
0100
1000
0000
0001
0010
0001
0010
0001
0010
0001
0000
,  // measure 6
0100
1000
0100
1000
0100
1000
0100
0000
0001
1000
0001
1000
0001
1000
0001
0000
,  // measure 7
0100
0010
0100
0010
0100
0010
0100
0000
0001
0100
0001
0100
0001
0100
0001
0000
,  // measure 8
1001
0000
0110
0000
0100
0001
0010
1000
,  // measure 9
0010
0000
0001
1000
0010
0000
0000
0010
,  // measure 10
0100
0000
0000
0000
0001
0000
0000
0000
0010
0100
1000
0100
0010
0000
0000
0000
,  // measure 11
1001
1010
0011
1010
,  // measure 12
1100
0000
0011
0000
1100
0100
0010
0011
,  // measure 13
0000
0010
1000
0010
0110
0000
1100
0000
,  // measure 14
1001
0000
0101
0000
0010
0001
1000
0100
,  // measure 15
0010
0001
1000
0000
1001
0000
0011
0000
,  // measure 16
0110
0000
1010
0000
0011
0000
0001
1000
,  // measure 17
0010
0100
0001
0000
0011
0000
1001
0000
,  // measure 18
0110
0000
0000
0000
1010
0000
0000
0000
0001
0000
0010
0000
0100
0000
0010
0001
,  // measure 19
0010
0000
0001
0100
0010
1000
0010
0100
,  // measure 20
0001
0000
1000
0000
0010
0001
0010
0000
,  // measure 21
1000
0000
0100
0010
0001
0010
0100
0000
,  // measure 22
1000
0100
0010
0001
0100
0001
0010
0000
,  // measure 23
0100
0000
1100
0000
1000
0001
0010
0001
,  // measure 24
0100
0000
0110
0000
1000
0001
0010
0001
,  // measure 25
0100
0000
1000
0100
0001
0100
1000
0100
,  // measure 26
0010
0100
1000
0100
0001
0100
0010
0000
,  // measure 27
1001
0000
0001
0000
0001
0010
1000
0000
,  // measure 28
0010
0000
0011
0000
0100
1000
0100
0000
,  // measure 29
0101
0000
0010
0000
1000
0001
0010
0000
,  // measure 30
0001
0100
0001
0010
0100
0000
0010
0000
,  // measure 31
0001
1000
0001
0010
0100
1000
0100
0000
,  // measure 32
1010
0000
0011
0000
0010
1000
0001
0100
,  // measure 33
0001
1000
0100
0000
0100
0010
0001
0100
,  // measure 34
0001
0010
1000
0010
0001
0010
0100
0000
,  // measure 35
1000
0000
1100
0000
1001
0000
0000
0100
,  // measure 36
0010
1000
0100
0010
1000
0010
0001
0010
,  // measure 37
0100
0000
1000
0010
0100
0001
0000
1000
,  // measure 38
0100
0001
0100
1000
0010
1000
0100
0010
,  // measure 39
0100
0000
1100
0000
0011
0000
0000
0001
,  // measure 40
0100
0010
0100
0001
0010
0100
0010
0001
,  // measure 41
1000
0000
1010
0000
0110
0000
0100
0001
,  // measure 42
0010
0000
0110
0000
0100
0010
0001
0010
,  // measure 43
1000
0000
0010
0001
0100
1000
0100
0000
,  // measure 44
0001
0010
0100
0000
1000
0001
0100
0000
,  // measure 45
0010
0000
1000
0001
1000
0000
0000
0000
0010
0000
0100
0000
0001
0000
0000
0000
,  // measure 46
0001
0100
0010
1000
0010
0100
0001
0010
,  // measure 47
1010
0000
0011
0000
0100
0001
0010
0001
,  // measure 48
0100
0010
1000
0010
0100
0000
0001
0010
,  // measure 49
0001
1000
0001
0000
0100
0000
0000
0000
0010
0000
0100
0000
1001
0000
0000
0000
,  // measure 50
0100
0000
0010
1000
0001
1000
0010
0000
,  // measure 51
1000
0001
1000
0001
1000
0000
0001
0000
0100
0000
0010
1000
0001
0000
0000
0100
,  // measure 52
0000
0010
0000
0101
0000
0000
0100
0000
0010
0000
0100
0001
0000
0010
0000
0100
,  // measure 53
0000
1000
0000
1010
0000
0000
1000
0000
0010
0000
1000
0001
0100
0001
0000
0010
,  // measure 54
0001
0100
0001
0010
0000
0100
0000
1000
0010
0000
0100
0001
0000
0010
0000
0001
,  // measure 55
0010
0100
0010
0000
0001
0000
1000
0000
0100
0000
0010
0000
0100
0000
0001
0000
,  // measure 56
0100
0000
1000
0000
0010
0000
0100
0000
0001
0010
0000
0100
0000
0001
0000
0100
,  // measure 57
0000
0010
0000
0000
0001
0000
0100
0000
0010
1000
0000
0100
0000
1000
0001
0010
,  // measure 58
0001
0000
0000
0000
0001
0100
0001
0000
0010
0000
0100
0000
1000
0001
1000
0001
,  // measure 59
0100
0010
1000
0100
0010
0001
0100
0100
,  // measure 60
0010
0000
1000
0000
0001
0000
0100
0000
0010
1000
0010
0000
0100
0000
0001
0000
,  // measure 61
1000
0000
0010
0000
0100
0000
0010
0000
0000
0000
1000
0000
0010
0000
0100
0001
,  // measure 62
0100
0000
0010
0000
1000
0000
0100
0000
0001
0000
0100
0000
1000
0000
0010
0100
,  // measure 63
0010
0100
0001
0000
0010
0000
0100
0000
1000
0000
0001
0000
1000
0000
1001
0000
,  // measure 64
0001
0000
1000
0000
0010
0000
0100
0010
0000
0010
1000
0000
0001
0000
0010
0000
,  // measure 65
0001
0000
0100
0000
0010
1000
0000
1000
0000
0100
0010
0000
0001
0000
0010
0001
,  // measure 66
0010
0001
1000
0000
0010
0000
1000
0100
1000
0010
1000
0000
0001
0000
0010
0100
,  // measure 67
0010
0100
1000
0000
0001
0000
1000
0000
0010
0000
0100
0000
0001
0000
0010
0000
,  // measure 68
1000
0000
0010
0000
0100
1000
0000
1000
0000
0001
1000
0000
0100
0000
1000
0000
,  // measure 69
0010
0000
0001
0000
0010
0000
1000
0100
0000
0100
1000
0000
0010
0000
0100
0001
,  // measure 70
0010
0001
1000
0000
0010
0000
0100
0001
0100
0001
0100
0000
0010
0000
1000
0100
,  // measure 71
1000
0001
0010
0000
0001
0000
0010
0000
0100
0000
1000
0000
0001
0000
0011
0000
,  // measure 72
1000
0000
0100
0000
1000
0001
0000
0001
0000
0010
0100
0000
0010
0000
0001
0000
,  // measure 73
1000
0000
0010
0000
1000
0001
0000
1000
0000
0001
0100
0000
0010
0000
0100
0000
,  // measure 74
0010
0000
0100
0001
0100
0000
0001
0010
0001
0000
1000
0001
1000
0010
1000
0000
,  // measure 75
0000
1001
0000
0001
0100
0110
0000
2002
,  // measure 76
0000
0000
0000
3003
;
