#TITLE:Z;
#SUBTITLE:;
#ARTIST:DM Ashura;
#TITLETRANSLIT:;
#SUBTITLETRANSLIT:;
#ARTISTTRANSLIT:;
#GENRE:;
#CREDIT:;
#BANNER:Z.png;
#BACKGROUND:Z-bg.png;
#LYRICSPATH:;
#CDTITLE:;
#MUSIC:Z.ogg;
#OFFSET:-5.022000;
#SAMPLESTART:6.603938;
#SAMPLELENGTH:15.000000;
#SELECTABLE:YES;
#BPMS:0.000000=300.000000
,136.000000=600.000000
,168.000000=150.000000
,200.000000=300.000000
;
#STOPS:
;
#BGCHANGES:;
#KEYSOUNDS:;
#ATTACKS:;

//---------------dance-single - ----------------
#NOTES:
     dance-single:
     :
     Beginner:
     5:
     0.192719,0.433461,0.000000,0.000000,0.000000,122.000000,122.000000,0.000000,0.000000,0.000000,0.000000,0.192719,0.433461,0.000000,0.000000,0.000000,122.000000,122.000000,0.000000,0.000000,0.000000,0.000000:
0000
0000
0000
0000
,
0000
0000
0000
0000
,
1000
0000
0000
0000
,
0000
0000
0000
0000
,
1000
0000
0000
0000
,
1000
0000
0000
0000
,
1000
0000
0000
0000
,
1000
0000
0000
0000
,
1000
0000
0000
0000
,
0001
0000
0000
0000
,
0001
0000
0000
0000
,
0100
0000
0000
0000
,
0100
0000
0000
0000
,
0010
0000
0000
0000
,
0010
0000
0000
0000
,
1000
0000
0000
0000
,
1000
0000
0000
0000
,
0001
0000
0000
0000
,
0001
0000
0000
0000
,
0100
0000
0000
0000
,
0100
0000
0000
0000
,
0010
0000
0000
0000
,
0010
0000
0000
0000
,
1000
0000
0000
0000
,
1000
0000
0000
0000
,
0001
0000
0000
0000
,
0001
0000
0000
0000
,
0100
0000
0000
0000
,
0100
0000
0000
0000
,
0010
0000
0000
0000
,
0010
0000
0000
0000
,
1000
0000
0000
0000
,
1000
0000
0000
0000
,
0001
0000
1000
0000
,
0001
0000
0000
0000
,
0000
0000
0000
0000
,
0000
0000
0000
0000
,
0000
0000
0000
0000
,
0000
0000
0000
0000
,
0000
0000
0000
0000
,
0000
0000
0000
0000
,
0000
0000
0000
0000
,
1000
0000
0001
1000
,
0001
0000
0100
0010
,
1000
1000
0001
0100
,
0001
0000
1000
0010
,
0100
0000
0010
1000
,
0100
0010
0001
0000
,
0001
0000
1000
0001
,
1000
0010
1000
0010
,
1000
0000
0000
0000
,
0001
0000
1000
0000
,
0001
0000
0000
0000
,
0100
0000
0010
0000
,
0100
0000
0000
0000
,
0010
0000
1000
0000
,
0010
0000
0000
0000
,
1000
0000
0001
0000
,
1000
0000
0000
0000
,
0001
0000
0000
0000
,
1000
0000
0000
0000
,
0100
0000
0000
0000
,
1000
0000
0000
0000
,
0010
0000
0000
0000
,
0100
0000
0000
0000
,
0001
0000
0000
0000
,
1000
0000
0000
0000
,
0001
0000
0000
0000
,
1000
0000
0001
0000
,
1000
0000
0000
0000
,
0010
0000
0100
0000
,
0010
0000
0000
0000
,
1000
0000
0100
0000
,
1000
0000
0000
0000
,
0001
0000
0010
0000
,
0001
0000
0000
0000
,
0100
0000
0010
0000
,
0100
0000
0000
0000
,
0001
0000
1000
0000
,
0001
0000
0000
0000
,
1000
0000
0100
0000
,
1000
0000
0000
0000
,
0010
0000
0000
0000
,
0100
0000
0000
0000
,
0001
0000
0000
0000
,
1000
0000
0000
0000
,
0010
0000
0000
0000
,
1000
0000
0000
0000
,
0100
0000
0000
0000
,
0010
0000
0000
0000
,
0001
0000
0000
0000
,
1000
0000
0000
0000
,
0001
0000
1000
0000
,
0001
0000
0000
0000
,
0100
0000
0010
0000
,
0100
0000
0000
0000
,
0010
0000
1000
0000
,
0010
0000
0000
0000
,
1000
0000
0000
0000
;

//---------------dance-single - ----------------
#NOTES:
     dance-single:
     :
     Easy:
     10:
     0.420191,0.602090,0.055288,0.033173,0.005529,266.000000,261.000000,5.000000,3.000000,0.000000,0.000000,0.420191,0.602090,0.055288,0.033173,0.005529,266.000000,261.000000,5.000000,3.000000,0.000000,0.000000:
// measure 0
0000
0000
0000
0000
,  // measure 1
0000
0000
0000
0000
,  // measure 2
0001
1000
0001
0000
,  // measure 3
1000
0010
1000
0000
,  // measure 4
0010
0100
0010
0000
,  // measure 5
0100
0001
0010
0000
,  // measure 6
0100
1000
0010
0000
,  // measure 7
0100
0010
1000
0000
,  // measure 8
0001
1000
0001
0000
,  // measure 9
0100
0001
0010
0001
,  // measure 10
0100
0000
0010
1000
,  // measure 11
0100
1000
0010
0000
,  // measure 12
0100
0000
0001
0000
,  // measure 13
0010
0001
0010
0001
,  // measure 14
0010
0000
0100
0000
,  // measure 15
1000
0100
1000
0100
,  // measure 16
1000
0000
0001
0000
,  // measure 17
1000
0001
1000
0001
,  // measure 18
2000
0000
0000
0000
,  // measure 19
3010
0000
0110
0000
,  // measure 20
0100
0000
0001
0000
,  // measure 21
0010
0001
0010
0001
,  // measure 22
0010
0000
0100
0000
,  // measure 23
1000
0100
1000
0100
,  // measure 24
1000
0000
0001
0000
,  // measure 25
1000
0001
1000
0001
,  // measure 26
1000
0000
0010
0000
,  // measure 27
0100
0010
0100
0010
,  // measure 28
0100
0000
0001
0000
,  // measure 29
0010
0001
0010
0001
,  // measure 30
0010
0000
0100
0000
,  // measure 31
1000
0001
1000
0001
,  // measure 32
1000
0000
0001
0000
,  // measure 33
0100
0010
0100
0010
,  // measure 34
0200
0000
0000
0000
,  // measure 35
0000
0000
0000
0000
,  // measure 36
0000
0000
0000
0000
,  // measure 37
0000
0000
0000
0000
,  // measure 38
0000
0000
0000
0000
,  // measure 39
0000
0000
0000
0000
,  // measure 40
0000
0000
0000
0000
,  // measure 41
0000
0000
0000
0000
,  // measure 42
0301
0000
0000
0000
0000
0000
0000
0000
1000
0000
0000
0001
0000
0000
1000
0000
,  // measure 43
0010
1000
0100
1000
,  // measure 44
0001
0000
0001
0010
0001
0000
1000
0100
,  // measure 45
0000
0000
1000
0010
,  // measure 46
0100
0000
0001
0000
,  // measure 47
0010
0001
0010
0000
,  // measure 48
0001
0000
0100
0001
,  // measure 49
0100
0010
1000
0001
,  // measure 50
1001
0000
1000
0010
,  // measure 51
1000
0010
1000
0000
,  // measure 52
0001
0100
0001
0100
,  // measure 53
0001
0100
0010
0100
,  // measure 54
0010
0100
0010
1000
,  // measure 55
0010
0000
1000
0000
,  // measure 56
0100
1000
0100
1000
,  // measure 57
0100
1000
0100
0000
,  // measure 58
0001
0000
0010
0000
,  // measure 59
0001
0000
0010
0001
,  // measure 60
0010
0000
0001
0000
,  // measure 61
1000
0000
0001
0000
,  // measure 62
1000
0000
0100
1000
,  // measure 63
0100
0000
1000
0010
,  // measure 64
1000
0000
0000
0010
,  // measure 65
0100
0010
0000
0000
,  // measure 66
0100
0000
0001
0000
,  // measure 67
1000
0001
1000
0001
,  // measure 68
1000
0000
0001
0000
,  // measure 69
0010
1000
0010
0001
,  // measure 70
0010
0000
1000
0000
,  // measure 71
0100
0001
0100
1000
,  // measure 72
0100
0000
0001
0000
,  // measure 73
0010
1000
0010
0001
,  // measure 74
0010
0000
1000
0000
,  // measure 75
0100
0010
0001
1000
,  // measure 76
0010
0000
0001
0000
,  // measure 77
0010
1000
0010
0001
,  // measure 78
0010
0000
1000
0000
,  // measure 79
0100
0001
0100
1000
,  // measure 80
0001
0000
0010
0000
,  // measure 81
1000
0010
0001
0100
,  // measure 82
1000
0000
0100
0000
,  // measure 83
0001
0010
1000
0010
,  // measure 84
0001
0000
1000
0000
,  // measure 85
0001
1000
0001
1000
,  // measure 86
0001
0000
0100
0000
,  // measure 87
0010
0100
0010
0100
,  // measure 88
0010
0000
1100
0000
,  // measure 89
0010
0000
0001
0000
,  // measure 90
0011
0000
0010
0000
,  // measure 91
1000
0100
0001
0100
,  // measure 92
1000
0000
1001
0000
,  // measure 93
0010
0000
0010
0001
,  // measure 94
0010
0000
0001
0000
,  // measure 95
0010
1000
0010
0001
,  // measure 96
1000
0000
0001
0000
,  // measure 97
1000
0000
0010
0000
,  // measure 98
0200
0000
0000
0000
,  // measure 99
0300
0000
0000
0000
;

//---------------dance-single - ----------------
#NOTES:
     dance-single:
     :
     Medium:
     14:
     0.739284,0.939902,0.210096,0.055288,0.049759,468.000000,449.000000,19.000000,5.000000,0.000000,0.000000,0.739284,0.939902,0.210096,0.055288,0.049759,468.000000,449.000000,19.000000,5.000000,0.000000,0.000000:
// measure 0
0000
0000
0000
0000
,  // measure 1
0000
0000
0000
0000
,  // measure 2
1000
0000
0001
0000
0010
0000
0001
1000
,  // measure 3
0000
1000
0010
0000
1000
0000
0010
0000
,  // measure 4
0100
0001
0000
0001
1000
0000
0001
0000
,  // measure 5
0100
0001
1000
0001
,  // measure 6
1000
0010
0000
0010
0100
0000
0001
0100
,  // measure 7
0000
0100
0010
0000
1000
0000
0100
0000
,  // measure 8
1000
0001
0000
0001
1000
0000
0010
0000
,  // measure 9
1000
0001
0010
0000
0001
0000
0100
0000
,  // measure 10
0010
1000
0000
1000
0001
0000
0100
0001
,  // measure 11
0000
0001
1000
0000
0010
0000
0100
0000
,  // measure 12
0001
1000
0000
1000
0001
0000
1000
0001
,  // measure 13
0000
0001
1000
0000
0010
0000
0110
0000
,  // measure 14
0100
0001
0000
1000
0001
0000
1000
0010
,  // measure 15
0000
0100
0010
0000
0100
0000
0001
0000
,  // measure 16
1000
0100
0010
0001
,  // measure 17
0100
0010
0100
0010
0100
0010
0100
0010
,  // measure 18
1000
0010
0001
0010
,  // measure 19
1000
0100
1000
0000
0001
0000
1000
0001
,  // measure 20
1000
0001
0010
0100
,  // measure 21
1000
0001
1000
0000
0010
0000
0100
0000
,  // measure 22
0001
0010
1000
0010
,  // measure 23
0001
0000
0100
0000
0001
0010
0001
0000
,  // measure 24
1000
0010
0000
0010
0100
0000
0001
1000
,  // measure 25
0001
0100
1000
0100
,  // measure 26
0001
1000
0000
1000
0010
0000
1000
0010
,  // measure 27
0000
0010
0100
0000
0001
1000
0001
0000
,  // measure 28
0100
0010
0000
0010
1000
0000
0001
0100
,  // measure 29
0000
0100
0001
0000
0010
0000
0011
0000
,  // measure 30
0001
1000
0000
0100
1000
0000
0010
0100
,  // measure 31
0000
0001
0100
0000
0010
0000
1000
0000
,  // measure 32
0010
0100
0010
0100
0010
0000
0100
0000
,  // measure 33
0001
1000
0001
1000
0001
1000
0010
0000
,  // measure 34
2002
0000
0000
0000
,  // measure 35
0000
0000
0000
0000
,  // measure 36
0000
0000
0000
0000
,  // measure 37
0000
0000
0000
0000
,  // measure 38
0000
0000
0000
0000
,  // measure 39
0000
0000
0000
0000
,  // measure 40
0000
0000
0000
0000
,  // measure 41
0000
0000
0000
0000
,  // measure 42
3003
0000
0000
0000
0000
0000
0000
0000
0100
0000
0000
0010
0000
0000
1000
0000
,  // measure 43
0010
0000
0000
0100
0000
0000
0001
0000
0010
0000
0000
0001
0000
0000
1000
0000
,  // measure 44
0100
0000
0000
0000
0000
0000
1000
0001
1000
0000
0000
0000
0001
0000
0010
0000
,  // measure 45
0000
1000
0010
0001
0100
0010
1000
0000
,  // measure 46
1000
0000
0000
0001
0000
0000
0100
0010
,  // measure 47
1000
0000
0000
0001
0000
0000
1000
0000
0000
0000
0000
0000
0010
0000
0000
0000
,  // measure 48
0100
0000
0000
0000
0001
0000
0010
0001
0010
0000
0000
0100
0000
0000
1000
0000
,  // measure 49
0001
0000
0000
0000
1001
0000
0000
0000
1000
0010
1000
0000
0010
1000
0010
0000
,  // measure 50
0100
0001
1000
0001
,  // measure 51
0010
0001
0100
0010
,  // measure 52
1000
0010
1000
0100
,  // measure 53
0010
0000
1000
0000
0010
0000
0001
1000
,  // measure 54
0001
0000
0010
0000
0001
0000
1000
0100
,  // measure 55
1000
0000
0001
0000
0100
0000
0001
1000
,  // measure 56
0001
0000
1000
0000
0010
0100
0010
0000
,  // measure 57
1000
0001
0010
0100
,  // measure 58
1000
0001
1000
0000
0001
0100
0001
0000
,  // measure 59
0100
0000
0010
0000
1000
0001
1000
0000
,  // measure 60
0001
0000
0100
0001
1000
0000
0010
0000
,  // measure 61
0100
0000
0001
0100
1000
0000
0100
0000
,  // measure 62
0011
0000
0001
0000
0010
0000
0100
1000
,  // measure 63
0100
1000
0100
0000
1000
0000
0001
0010
,  // measure 64
0001
0010
0001
0000
0100
0000
0010
1000
,  // measure 65
0010
1000
0001
1000
0001
0100
0001
0100
,  // measure 66
0001
0010
0000
0010
1000
0000
0010
1000
,  // measure 67
0000
1000
0001
0000
0101
0000
0110
0000
,  // measure 68
0010
1000
0000
1000
0100
0000
0100
0010
,  // measure 69
0000
0010
0001
0000
1000
0000
1001
0000
,  // measure 70
0010
0100
0000
0100
1000
0000
1000
0001
,  // measure 71
0000
0001
0010
0000
0100
0000
1100
0000
,  // measure 72
1000
0001
0000
0001
1000
0000
0001
0010
,  // measure 73
0000
0010
0001
0000
1000
0000
1010
0000
,  // measure 74
0010
0100
0000
0001
0100
0000
0010
0100
,  // measure 75
0000
0001
0100
0000
0010
0000
1010
0000
,  // measure 76
1000
0001
0000
1000
0010
0000
1000
0001
,  // measure 77
0000
1000
0010
0000
1000
0000
1010
0000
,  // measure 78
0010
0100
0000
0100
0010
0000
0010
0100
,  // measure 79
0000
0100
0010
0000
1001
0000
0110
0000
,  // measure 80
0001
1000
0001
0000
0100
0000
0001
1000
,  // measure 81
0001
0100
0010
1000
,  // measure 82
2001
0000
0001
0000
,  // measure 83
3001
0100
0001
0000
1000
0000
0010
0000
,  // measure 84
1000
0100
1000
0000
1100
0000
0100
0010
,  // measure 85
0100
0000
0010
0000
0011
0000
0001
1000
,  // measure 86
0001
0101
0100
0010
,  // measure 87
1000
0000
0100
0000
0010
0000
0001
1000
,  // measure 88
0001
0010
0100
1000
,  // measure 89
0001
0010
0001
0000
0010
0001
0010
0000
,  // measure 90
0001
0010
0100
1000
,  // measure 91
0100
1000
0001
1000
0100
0000
1000
0001
,  // measure 92
1000
0000
0001
0000
0100
0010
0100
0000
,  // measure 93
0010
0100
0001
1000
,  // measure 94
0010
1000
0001
0000
0100
0000
0001
0000
,  // measure 95
0100
0010
1000
0010
,  // measure 96
0100
0010
0100
0000
0001
0000
1000
0000
,  // measure 97
0001
1000
0001
1000
0001
1000
0001
1000
,  // measure 98
2002
0000
0000
0000
,  // measure 99
0000
0000
0000
0000
,  // measure 100
3003
0000
0000
0000
;

//---------------dance-single - ----------------
#NOTES:
     dance-single:
     :
     Hard:
     16:
     0.932003,1.824515,0.331730,0.055288,0.165865,590.000000,560.000000,30.000000,5.000000,0.000000,0.000000,0.932003,1.824515,0.331730,0.055288,0.165865,590.000000,560.000000,30.000000,5.000000,0.000000,0.000000:
// measure 0
0000
0000
0000
0000
,  // measure 1
0000
0000
0000
0000
,  // measure 2
1000
0100
0000
0100
0001
0000
0100
1000
,  // measure 3
0010
1000
0100
0010
0001
0000
1001
0000
,  // measure 4
0001
0010
0000
0010
0100
0000
0100
1000
,  // measure 5
0000
1000
0001
0000
0100
0001
0010
0000
,  // measure 6
0100
1000
0000
1000
0001
0000
0001
0010
,  // measure 7
0000
0010
1000
0000
1010
0000
0101
0000
,  // measure 8
0100
0001
0100
0010
0100
0000
0010
1000
,  // measure 9
0010
0100
0010
0000
0101
0000
0011
0000
,  // measure 10
0010
1000
0000
1000
0010
0000
0010
0001
,  // measure 11
0000
0001
0100
0000
0100
0010
1000
0000
,  // measure 12
0001
0100
0000
0100
0010
0000
0010
1000
,  // measure 13
0001
1000
0010
0000
0110
0000
0101
0000
,  // measure 14
0010
1000
0000
1000
0010
0000
0100
0001
,  // measure 15
0000
1000
0001
0000
1000
0100
1000
0000
,  // measure 16
0001
0010
0001
0010
0001
1000
0001
1000
,  // measure 17
0001
0100
0001
0100
0010
1000
0010
1000
,  // measure 18
0001
0010
0001
0000
0100
0000
0010
0000
,  // measure 19
1000
0100
0010
0001
1000
0000
0001
0100
,  // measure 20
0001
0010
0100
0001
,  // measure 21
0100
1000
0010
0100
0010
0000
1000
0001
,  // measure 22
1000
0001
0010
0001
,  // measure 23
0100
0010
1000
0010
0100
0001
0010
0001
,  // measure 24
1000
0000
0100
0010
0100
0000
0010
0000
,  // measure 25
0001
0000
1000
0000
0010
0100
0001
0100
,  // measure 26
0010
1000
0100
1000
,  // measure 27
0001
0000
0010
0000
0001
1000
0010
1000
,  // measure 28
0100
0010
0001
1000
,  // measure 29
0001
0000
1000
0010
0001
0010
1000
0010
,  // measure 30
0100
0001
0100
0001
0100
0010
0100
0010
,  // measure 31
1000
0100
1000
0100
0001
0100
0001
0100
,  // measure 32
1000
0010
1000
0010
0001
0010
0001
0010
,  // measure 33
1000
0100
1000
0100
0010
0001
0010
0001
,  // measure 34
0202
0000
0000
0000
,  // measure 35
0000
0000
0000
0000
,  // measure 36
0000
0000
0000
0000
,  // measure 37
0000
0000
0000
0000
,  // measure 38
0000
0000
0000
0000
,  // measure 39
0000
0000
0000
0000
,  // measure 40
0000
0000
0000
0000
,  // measure 41
0000
0000
0000
0000
,  // measure 42
0303
0000
0000
0000
0000
0000
0000
0000
1001
0000
0000
0011
0000
0000
0001
0000
,  // measure 43
1000
0010
0000
0010
0100
0000
0010
0000
0100
0001
0000
0001
0010
0000
1000
0000
,  // measure 44
1020
0000
0000
0000
0030
0000
0001
0100
0002
0000
0000
0000
1003
0000
0010
0000
,  // measure 45
0000
0000
0100
0001
0010
0100
1000
0001
0010
0000
0000
0000
0110
0000
0000
0000
,  // measure 46
0100
1000
0001
0000
1000
0001
0100
0000
0010
0100
0001
0000
0100
0010
1000
0000
,  // measure 47
0010
0000
0000
0101
0000
0000
1001
0000
0000
0000
0000
0000
1001
0000
0000
0000
,  // measure 48
1000
0010
1000
0010
0100
0001
0100
0001
0010
0100
0010
0100
1000
0001
1000
0001
,  // measure 49
0100
0001
0100
0001
0010
0001
0010
0001
0100
0001
0100
0001
1000
0010
1000
0010
,  // measure 50
0100
0000
0001
0000
0010
0000
0001
1000
,  // measure 51
0100
1000
0010
0000
0100
0000
0001
0000
,  // measure 52
0010
0100
1000
0100
0010
0100
1000
0100
,  // measure 53
0010
0001
0010
0100
0010
0001
0010
0100
,  // measure 54
0010
0001
0000
0001
0000
0001
0100
0000
,  // measure 55
0010
1000
0000
1000
0100
0000
0010
0001
,  // measure 56
0100
0001
0010
0100
1000
0001
1000
0010
,  // measure 57
0100
0000
0001
0000
0010
0000
0001
1000
,  // measure 58
0001
0000
0010
0100
1000
0010
1000
0001
,  // measure 59
1000
0000
0001
0000
1000
0010
1000
0010
,  // measure 60
0100
0001
0100
0001
0010
0100
0010
0100
,  // measure 61
1000
0001
1000
0001
,  // measure 62
0100
0010
1000
0010
0100
0001
0010
0100
,  // measure 63
1000
0001
0010
0000
0001
0000
0100
0010
,  // measure 64
1000
0010
0001
0000
0010
0000
1000
0100
,  // measure 65
0010
0001
0010
0100
1000
0001
1000
0010
,  // measure 66
0100
0001
0000
0001
0100
0000
0001
0010
,  // measure 67
0000
0010
1000
0000
1010
0000
0011
0000
,  // measure 68
0001
0100
0000
0100
1000
0000
0100
0001
,  // measure 69
0000
0001
0010
0000
0110
0000
1100
0000
,  // measure 70
1000
0010
0000
0010
0001
0000
0010
1000
,  // measure 71
0000
1000
0100
0000
0110
0000
0011
0000
,  // measure 72
0001
1000
0000
1000
0100
0000
0010
0001
,  // measure 73
0000
0001
0100
0000
0110
0000
1010
0000
,  // measure 74
1000
0001
1000
0001
1000
0000
0010
0100
,  // measure 75
0000
0100
0001
0000
0011
0000
0110
0000
,  // measure 76
1000
0001
0100
0001
0100
0000
0010
1000
,  // measure 77
0000
1000
0100
0000
0110
0000
0011
0000
,  // measure 78
0001
1000
0010
1000
0100
0000
1000
0010
,  // measure 79
0000
0010
0001
0000
0011
0000
1010
0000
,  // measure 80
1000
0100
0010
0001
1000
0010
0100
0001
,  // measure 81
1000
0010
0100
0001
1000
0100
0010
1000
,  // measure 82
0010
0001
0100
0010
,  // measure 83
1000
0001
0100
0001
0010
0000
0100
1000
,  // measure 84
0010
0000
1000
0000
0001
0010
0001
1000
,  // measure 85
0001
0000
0100
0000
0010
0000
1000
0001
,  // measure 86
0100
0101
0001
0010
,  // measure 87
0100
1000
0010
0100
,  // measure 88
0010
1000
0001
1000
0010
0100
0001
0100
,  // measure 89
0010
1000
0001
1000
0010
0100
0001
0010
,  // measure 90
0100
1000
0010
1000
,  // measure 91
0001
0000
0100
0000
0010
0000
0100
0001
,  // measure 92
0010
1000
0010
0001
,  // measure 93
0100
0000
0010
1000
0001
0100
0010
1000
,  // measure 94
0001
0010
0001
0010
0001
1000
0001
1000
,  // measure 95
0001
0100
0001
0100
0010
1000
0010
1000
,  // measure 96
0100
0010
0001
1000
0010
1000
0001
0100
,  // measure 97
0010
1000
0001
0100
0010
1000
0001
0100
,  // measure 98
0020
0000
0000
0000
,  // measure 99
0000
0000
0000
0000
,  // measure 100
0030
0000
0000
0000
;

//---------------dance-single - ----------------
#NOTES:
     dance-single:
     :
     Challenge:
     18:
     1.061536,1.824515,0.387018,0.066346,0.276442,672.000000,637.000000,35.000000,6.000000,16.000000,0.000000,1.061536,1.824515,0.387018,0.066346,0.276442,672.000000,637.000000,35.000000,6.000000,16.000000,0.000000:
// measure 0
0000
0000
0000
0000
,  // measure 1
0000
0000
0000
0000
,  // measure 2
0001
0010
0000
0010
1000
0000
0010
0001
,  // measure 3
0100
0010
0100
0001
1000
0000
1100
0000
,  // measure 4
0100
0001
0000
0001
0100
0000
1000
0010
,  // measure 5
0100
0001
0010
0000
0001
0100
0010
1000
,  // measure 6
0010
0100
0000
0100
0001
0000
1000
0100
,  // measure 7
0001
0100
1000
0000
0010
0100
0000
0100
,  // measure 8
0001
0010
1000
0010
0001
0000
0100
0010
,  // measure 9
1000
0010
0100
0000
0001
0010
0100
1000
,  // measure 10
0001
0100
0000
0100
0010
0000
0100
0001
,  // measure 11
0010
0100
1000
0001
1000
0010
1000
0000
,  // measure 12
0001
0010
0000
0010
1000
0000
0010
0001
,  // measure 13
0100
0010
1000
0010
0100
0001
0010
0000
,  // measure 14
1000
0010
0000
0010
0001
0100
0010
1000
,  // measure 15
0010
0100
0001
0000
1000
0010
1000
0010
,  // measure 16
0100
0001
0010
0100
1000
0010
0001
0010
,  // measure 17
1000
0001
0100
0010
1000
0010
0100
0001
,  // measure 18
0010
0101
0010
1100
,  // measure 19
0001
0000
0010
0000
0100
0000
0010
0000
0001
0000
0000
0000
1000
0000
0001
1000
,  // measure 20
0001
0011
0010
0100
,  // measure 21
1000
0000
0001
0000
0010
0000
0001
0000
0100
0000
0010
0000
1000
0100
1000
0000
,  // measure 22
0001
0000
0010
0001
0100
0001
0010
0001
,  // measure 23
0100
0000
0010
0000
1000
0000
0010
0000
0100
0000
0001
0000
0100
0001
0100
0000
,  // measure 24
0001
0010
0100
1000
0001
0100
0001
0010
,  // measure 25
0001
0000
1000
0000
0100
0000
1000
0000
0010
0000
0100
0000
0001
0000
0010
0001
,  // measure 26
0010
0001
0000
0001
1000
0000
0010
1000
,  // measure 27
0000
1000
0001
0100
0010
1000
0100
0000
,  // measure 28
0010
0001
0010
0100
1000
0001
1000
0010
,  // measure 29
1000
0000
0001
0100
1000
0100
0001
0010
,  // measure 30
0100
0001
0100
0000
1000
0000
0010
0000
0100
0000
0010
0000
1000
0000
0001
0000
,  // measure 31
0010
0001
0100
0010
1000
0001
1000
0100
,  // measure 32
0010
0001
1000
0010
0100
0010
1000
0001
,  // measure 33
0010
0000
0100
0000
0010
0000
0001
0000
1000
0001
1000
0000
0010
0000
1000
0000
,  // measure 34
2M2M
0000
0000
0000
,  // measure 35
0M0M
0000
0000
0000
,  // measure 36
0M0M
0000
0000
0000
,  // measure 37
0M0M
0000
0000
0000
,  // measure 38
0M0M
0000
0000
0000
,  // measure 39
0M0M
0000
0000
0000
,  // measure 40
0M0M
0000
0000
0000
,  // measure 41
0M0M
0000
0000
0000
0000
0000
0000
3030
,  // measure 42
0101
0000
0000
0000
1000
0010
1000
0000
0001
0000
0000
0101
0000
0000
0100
0010
,  // measure 43
1000
0001
1000
0001
0100
0000
0010
0000
1000
0001
0000
0001
0100
0000
0010
0000
,  // measure 44
0210
0000
0000
0000
0300
0000
0001
1000
0002
0000
0000
0000
0103
0000
0210
0000
,  // measure 45
0000
0000
0301
0010
0100
1000
0010
0100
0001
0010
0100
0000
1100
0000
0000
0000
,  // measure 46
1000
0001
0100
0000
0010
1000
0010
0000
1000
0100
0010
0000
0001
0100
0010
0100
,  // measure 47
0001
0000
0000
1001
0000
0000
1010
0000
0000
0000
0001
0000
0110
0000
0000
0000
,  // measure 48
1000
0100
0010
0001
0100
0010
1000
0001
0010
0001
0100
0010
1000
0010
0100
0001
,  // measure 49
0010
0001
1000
0100
1000
0010
0100
0010
1000
0001
0100
0001
0010
0001
0100
0010
,  // measure 50
1000
0000
1001
0000
0001
0000
0100
0010
,  // measure 51
1000
0100
0010
0001
0100
0000
0110
0000
,  // measure 52
0010
1000
0001
1000
0100
0010
0001
0100
,  // measure 53
0010
0100
0001
0100
0010
0100
0001
0100
,  // measure 54
0010
1000
0100
1000
0010
1000
0100
1000
,  // measure 55
0001
0010
0001
0000
0100
0001
0010
0000
,  // measure 56
0100
1000
0001
1000
0010
0100
0010
1000
,  // measure 57
0001
0000
0100
0000
0101
0000
0001
1000
,  // measure 58
0001
0010
0100
0000
1000
0100
0001
0000
,  // measure 59
0001
0100
1000
0000
0001
0010
1000
0000
,  // measure 60
1000
0010
0001
0100
0001
0010
0100
1000
,  // measure 61
0010
0000
0100
0001
1000
0001
0100
0010
,  // measure 62
1000
0000
0100
0000
0010
0000
0100
0000
1000
0000
0100
0000
0010
0000
0001
0010
,  // measure 63
0001
0000
1000
0000
0010
0000
0100
0000
0010
0000
0001
0000
0010
0000
0100
0001
,  // measure 64
0100
0000
0010
0000
1000
0000
0100
0000
0010
0000
0001
0000
1000
0001
1000
0000
,  // measure 65
0010
0100
0001
0100
0010
1000
0010
0100
,  // measure 66
0001
0010
0000
0010
0011
0000
1000
1100
,  // measure 67
0000
0010
0100
0000
0101
0000
0011
0000
,  // measure 68
0010
1000
0000
1000
0010
0000
0001
0100
,  // measure 69
0000
0100
0010
0000
0110
0000
1001
0000
,  // measure 70
0001
0010
0100
1000
0001
0000
1000
0010
,  // measure 71
0100
0010
0001
0010
1000
0010
0100
0000
,  // measure 72
0100
0001
0010
0100
1000
0000
0010
1000
,  // measure 73
0001
1000
0010
0100
0001
0010
0001
0000
,  // measure 74
1000
0100
1000
0100
1000
0000
0010
0100
,  // measure 75
0001
0100
0010
0000
1010
0000
1001
0000
,  // measure 76
0001
0100
1000
0100
0001
0000
1000
0010
,  // measure 77
0001
0010
1000
0000
0110
0000
1001
0000
,  // measure 78
0100
0010
1000
0100
0010
0000
0100
0010
,  // measure 79
0100
0010
0001
0000
1001
0000
1010
0000
,  // measure 80
0001
0100
0010
1000
0001
0100
0010
1000
,  // measure 81
0001
0000
0010
0000
0100
0000
1000
0000
0001
0000
0010
0000
0100
1000
0100
0000
,  // measure 82
1000
1010
0010
0110
,  // measure 83
0100
0000
0001
0000
0010
0000
0001
0000
1000
0000
0000
0000
1000
0000
0001
0100
,  // measure 84
0001
0010
0001
0000
0100
0010
1000
0100
,  // measure 85
1000
0000
0000
0000
1001
0000
0000
0000
0101
0000
0000
0000
0100
0010
0100
0000
,  // measure 86
0001
1001
1000
0100
,  // measure 87
0010
0000
0000
0000
0001
0000
0000
0000
0100
0000
0000
0000
0010
1000
0010
0000
,  // measure 88
1000
0100
1000
0001
0010
0001
0100
0010
,  // measure 89
1000
0100
1000
0001
0010
0001
0100
0000
,  // measure 90
0010
1000
0010
1000
0001
0000
0100
0000
,  // measure 91
0101
0000
0000
0000
0001
0000
0000
0000
1000
0000
0100
0000
1000
0100
1000
0000
,  // measure 92
0100
0000
0010
0000
0001
0100
0010
0100
,  // measure 93
0001
0000
1001
0000
1000
0010
0001
0010
,  // measure 94
1000
0000
0001
0000
0100
0010
1000
0001
,  // measure 95
0100
0001
0010
0001
1000
0100
1000
0010
,  // measure 96
0100
0001
0010
0100
1000
0010
0100
0001
,  // measure 97
0010
0000
0001
0000
0100
0000
0010
0000
1000
0000
0001
0000
0100
0010
0100
0010
,  // measure 98
0200
0000
0000
0000
,  // measure 99
0000
0000
0000
0000
,  // measure 100
0300
0000
0000
0000
;
