#TITLE:Wolves;
#SUBTITLE:;
#ARTIST:Selena Gomez;
#TITLETRANSLIT:;
#SUBTITLETRANSLIT:;
#ARTISTTRANSLIT:;
#GENRE:;
#CREDIT:;
#BANNER:Wolves.png;
#BACKGROUND:Wolves-bg.png;
#LYRICSPATH:;
#CDTITLE:;
#MUSIC:Wolves.ogg;
#OFFSET:-9.099003;
#SAMPLESTART:29.729198;
#SAMPLELENGTH:14.999995;
#SELECTABLE:YES;
#BPMS:0.000000=125.011993
;
#STOPS:
;
#BGCHANGES:;
#KEYSOUNDS:;
#ATTACKS:;

//---------------dance-single - ----------------
#NOTES:
     dance-single:
     :
     Beginner:
     1:
     0.078255,0.116807,0.000000,0.000000,0.000000,68.000000,68.000000,0.000000,0.000000,0.000000,0.000000,0.078255,0.116807,0.000000,0.000000,0.000000,68.000000,68.000000,0.000000,0.000000,0.000000,0.000000:
0000
0000
0000
0000
,
0000
0000
0000
0000
,
0000
0000
0000
0000
,
1000
0000
0010
0000
,
1000
0000
0001
0000
,
1000
0000
0000
0000
,
1000
0000
0000
0000
,
0010
0000
0000
0000
,
0010
0000
0000
0000
,
0100
0000
0000
0000
,
0100
0000
0000
0000
,
0001
0000
0001
0000
,
1000
0000
1000
0000
,
0010
0000
0000
0000
,
0100
0000
0000
0000
,
0100
0000
0000
0000
,
0001
0000
0000
0000
,
0001
0000
0000
0000
,
1000
0000
0000
0000
,
1000
0000
1000
0000
,
1000
0000
0000
0000
,
0010
0000
0000
0000
,
0010
0000
0000
0000
,
0100
0000
0000
0000
,
0100
0000
0000
0000
,
0001
0000
0000
0000
,
0001
0000
0000
0000
,
1000
0000
0000
0000
,
1000
0000
0010
0000
,
1000
0000
0001
0000
,
1000
0000
0000
0000
,
0001
0000
0000
0000
,
1000
0000
0000
0010
,
0000
0000
0100
0000
,
0000
0000
0001
0000
,
0000
0000
1000
0000
,
0010
0000
0100
0000
,
0000
0000
0010
0000
,
1000
0000
0010
0000
,
0000
0000
0100
0000
,
0100
0000
0100
0000
,
0000
0000
0001
0000
,
0001
0000
0000
0000
,
1000
0000
1000
0000
,
1000
0000
0000
0000
,
0010
0000
0000
0000
,
0010
0000
0000
0000
,
1000
0000
0000
0000
,
1000
0000
0000
0000
,
0100
0000
0000
0000
,
0100
0000
0000
0000
,
0010
0000
0000
0000
,
0010
0000
0000
0000
,
0001
0000
0000
0000
,
0001
0000
0000
0000
,
0100
0000
0000
0000
,
0100
0000
0000
0000
,
0010
0000
0000
0000
,
1000
0000
0000
0000
;

//---------------dance-single - ----------------
#NOTES:
     dance-single:
     :
     Easy:
     3:
     0.140399,0.187697,0.000000,0.249726,0.000000,122.000000,122.000000,0.000000,31.000000,0.000000,0.000000,0.140399,0.187697,0.000000,0.249726,0.000000,122.000000,122.000000,0.000000,31.000000,0.000000,0.000000:
0000
0000
0000
0000
,
0000
0000
0000
0000
,
0000
0000
0000
0000
,
1000
1000
0001
0000
,
0001
0001
0100
0000
,
0020
0000
1030
0000
,
2000
0000
3100
0000
,
0020
0000
0032
0000
,
2003
0000
3200
0000
,
2300
0000
3010
0000
,
0010
0000
0000
0000
,
0100
0000
0100
0000
,
0001
1000
0001
0000
,
0100
0000
0100
0000
,
0020
0000
1030
0000
,
0002
0003
2000
3000
,
0020
0030
0200
0300
,
0001
1000
0001
0000
,
2000
3000
0010
0100
,
0020
0030
2000
3000
,
0002
0003
0200
0300
,
0010
1000
0010
0000
,
1000
0001
1000
0000
,
0002
2003
3002
0003
,
0200
0320
0130
0000
,
0001
1000
0001
1000
,
0001
0000
0000
0000
,
0100
0000
0010
0000
,
0100
0000
0001
0000
,
1000
0000
0001
0000
,
0010
0000
0000
0100
,
0000
0000
1000
0000
,
0001
0000
1000
0000
,
0010
0000
0100
0000
,
0001
0000
1000
0000
,
0001
0001
0001
0000
,
0100
0100
0100
0000
,
0020
0000
0030
0000
,
2000
0000
3000
0000
,
0001
0001
1000
1000
,
0010
0000
0100
0000
,
0200
0000
0300
0000
,
0001
0000
0000
0000
,
1000
1000
0001
0000
,
0100
0100
0010
0000
,
0010
0000
1000
0000
,
0001
0000
1000
0000
,
0010
0010
0010
0000
,
0100
0100
0100
0000
,
0002
0003
0000
0000
,
2000
3000
0000
0000
,
0010
0010
0010
0000
,
0100
0100
0100
0000
,
0002
0003
0000
0000
,
2000
3000
0000
0000
,
0100
0100
0100
0000
,
0010
0010
0010
0000
,
0002
0003
0000
0000
,
2000
3000
0000
0000
;

//---------------dance-single - ----------------
#NOTES:
     dance-single:
     :
     Medium:
     8:
     0.263536,0.375395,0.096668,0.402784,0.000000,229.000000,217.000000,12.000000,50.000000,0.000000,0.000000,0.263536,0.375395,0.096668,0.402784,0.000000,229.000000,217.000000,12.000000,50.000000,0.000000,0.000000:
0000
0000
0000
0000
,
0000
0000
0000
0000
,
0000
0000
0000
0000
,
1000
0000
1000
0000
0020
0000
0000
0030
,
0100
0100
0002
0003
,
1000
0000
0010
1000
0010
0000
1000
0000
,
0100
0000
0010
0001
0010
0000
0001
0000
,
2000
3200
0320
0032
,
2003
3200
2300
3020
,
0230
0000
0300
0000
,
0000
0000
0000
0000
,
0001
0000
1001
0000
1000
0000
1000
0010
,
0100
0000
0100
0000
0001
0000
0010
0001
,
0010
0100
1000
0100
,
1000
0010
1000
0010
,
0100
0000
0001
0001
1000
0000
0010
0000
,
1000
0000
0100
0000
1000
0000
0001
1000
,
0001
1000
0010
0100
,
0010
1000
0001
0100
,
0110
0010
0110
0100
,
0101
0001
1001
1000
,
0010
0000
0100
0000
0001
0000
0010
0001
,
0010
0100
1000
0001
,
0010
1000
0010
0001
,
0100
1000
0100
0001
,
2000
0000
3020
0000
,
0230
0000
0000
0000
,
0301
0001
1000
0001
,
1000
0010
0100
0010
,
1000
0001
0100
0001
,
0010
0001
1000
0001
,
0000
0100
0010
2000
,
3010
0100
0001
0100
,
0010
1000
0010
0200
,
0301
1000
0001
0020
,
0130
1000
0200
0320
,
0032
2003
3200
2300
,
3020
0000
0130
0001
,
2000
0000
3010
0100
,
0001
0000
1000
0001
1000
0000
0010
0100
,
0010
1000
0100
0010
,
0002
0000
1003
0000
,
0000
0000
0000
0000
,
1000
1010
0110
0101
,
0011
0000
0110
0000
1100
0000
1000
0001
,
1000
0000
0010
0000
0100
0000
0001
0010
,
0002
0000
1003
0000
0100
0000
1000
0010
,
2000
3020
0230
0302
,
2003
0000
3002
0000
0103
0010
0100
0010
,
0100
0000
0001
0000
1000
0000
0001
1000
,
0002
0000
1003
0000
0010
0000
1000
0010
,
2000
3200
0320
0031
,
2000
0000
3002
0000
0203
0000
0310
1000
,
0020
0000
0130
0000
0001
0000
1000
0010
,
2000
0000
3200
0000
1300
0000
0010
0100
,
0010
0000
1000
0000
0001
0000
1000
0001
,
2000
3020
0230
0302
,
2003
0000
3010
0100
,
2002
3003
0000
0000
;

//---------------dance-single - ----------------
#NOTES:
     dance-single:
     :
     Hard:
     10:
     0.402784,0.400569,0.024167,0.330283,0.136947,350.000000,347.000000,3.000000,41.000000,0.000000,0.000000,0.402784,0.400569,0.024167,0.330283,0.136947,350.000000,347.000000,3.000000,41.000000,0.000000,0.000000:
// measure 0
0000
0000
0000
0000
,  // measure 1
0000
0000
0000
0000
,  // measure 2
0000
0000
0000
0000
,  // measure 3
0012
0000
1003
0010
2000
0000
3100
0001
,  // measure 4
0200
0000
1300
0010
0002
0000
0013
1000
,  // measure 5
0200
0000
0310
0001
0010
0000
0001
0000
,  // measure 6
1001
0000
1000
0010
1000
0001
0100
0001
,  // measure 7
0020
0000
0130
1000
0200
0000
1300
0001
,  // measure 8
2000
0000
3001
0010
0002
0000
0103
0010
,  // measure 9
0200
0000
0000
0000
,  // measure 10
0300
0000
0000
0000
0000
0000
0001
1000
,  // measure 11
0001
1000
0000
0000
0010
0000
0000
0100
0010
0000
0100
0000
0001
0000
0010
0000
,  // measure 12
0001
0010
0000
0000
0100
0000
0000
0100
1000
0000
0010
0000
1000
0000
0100
0000
,  // measure 13
0020
0000
0031
1000
0001
0100
0010
0100
,  // measure 14
0002
0000
1003
0010
1000
0000
0100
0010
,  // measure 15
0100
0000
0000
0100
1000
0000
0000
1000
0001
0000
0010
0000
0001
0000
0000
0001
,  // measure 16
0100
0000
0010
0000
1000
0000
0000
1000
0010
0000
0100
0000
0001
0000
0010
0000
,  // measure 17
0002
0000
0103
0000
0010
1000
0001
1000
,  // measure 18
0020
0000
0130
0000
0001
0010
0001
1000
,  // measure 19
0010
0000
0000
0010
0100
0000
0000
0100
0001
0000
1000
0000
0001
0000
0010
0000
,  // measure 20
0100
0000
0000
0100
1000
0000
0000
1000
0010
0000
0100
0000
0001
0000
0010
0000
,  // measure 21
2000
0000
3010
0001
0100
0010
1000
0010
,  // measure 22
0100
0000
0000
0100
0001
0000
1000
0000
0001
0000
0000
0000
1000
0000
0010
0000
,  // measure 23
1000
0001
0000
0000
0100
0000
0000
0100
0010
0000
1000
0000
0010
0000
1000
0000
,  // measure 24
0001
0100
0000
0000
0100
0000
0000
0001
1000
0000
0010
0000
1000
0000
0100
0000
,  // measure 25
1000
0001
1000
0001
1000
0010
0100
0010
,  // measure 26
0200
0000
0000
0000
0301
1000
0001
0000
,  // measure 27
2010
0000
3000
0010
0100
0010
0200
0000
,  // measure 28
0301
0000
1000
0000
0001
0010
0002
0000
,  // measure 29
1003
0000
0010
0100
0010
0100
0020
0000
,  // measure 30
0130
0000
0001
1000
0010
1000
0002
0000
,  // measure 31
0103
0000
0010
0000
1000
0001
2000
0000
,  // measure 32
3010
0000
0100
0001
0100
0001
0200
0000
,  // measure 33
0310
0000
1000
0001
1000
0001
2000
0000
,  // measure 34
3010
0000
0100
0001
0100
0001
0200
0000
,  // measure 35
0320
0000
1030
0100
0020
0000
0031
0100
,  // measure 36
0020
0000
1030
0001
0200
0000
0310
1000
,  // measure 37
0002
0000
0103
0010
0100
0000
0010
0000
,  // measure 38
1000
0100
2000
0000
3001
0100
0001
0010
,  // measure 39
0002
0000
0013
1000
0020
0000
0031
1000
,  // measure 40
0002
0000
1003
0010
2000
0000
3100
0001
,  // measure 41
0200
0000
0300
0000
,  // measure 42
0000
0000
0000
0000
0000
0000
1000
0010
,  // measure 43
1000
0010
0000
0000
0100
0000
0000
0100
0001
0000
0100
0000
0010
0000
1000
0000
,  // measure 44
0100
1000
0000
0000
0100
0000
0000
0010
0100
0000
0010
0000
0001
0000
1000
0000
,  // measure 45
0002
0000
0103
0000
0010
1000
0001
1000
,  // measure 46
0200
0000
0310
0000
0001
0000
1000
0001
,  // measure 47
0010
0000
0000
0010
0100
0000
0000
0100
1000
0000
0001
0000
0100
0000
0000
0100
,  // measure 48
0010
0000
1000
0000
0001
0000
0000
0001
0100
0000
0010
0000
1000
0000
0010
0000
,  // measure 49
0200
0000
0301
0000
1000
0010
1000
0010
,  // measure 50
1000
0000
0001
0000
0100
0010
0100
0001
,  // measure 51
1000
0000
0000
1000
0010
0000
0000
0010
0001
0000
0010
0000
1000
0000
0100
0000
,  // measure 52
0010
0000
0000
0010
0001
0000
0000
0001
0100
0000
0010
0000
1000
0000
0010
0000
,  // measure 53
0200
0000
0301
0000
1000
0001
1000
0001
,  // measure 54
1000
0000
0000
0010
1000
0000
0001
0000
0100
0000
0000
0000
0001
0000
0010
0000
,  // measure 55
0001
0010
0000
0000
0100
0000
0000
1000
0100
0000
1000
0000
0010
0000
0100
0000
,  // measure 56
0001
0100
0000
0000
0100
0000
0000
0010
1000
0000
0001
0000
1000
0000
0010
0000
,  // measure 57
0100
0001
0100
0001
1000
0001
1000
0001
,  // measure 58
0020
0000
0030
0000
;
