#TITLE:Trigger;
#SUBTITLE:;
#ARTIST:sonic-coll.;
#TITLETRANSLIT:;
#SUBTITLETRANSLIT:;
#ARTISTTRANSLIT:;
#GENRE:;
#CREDIT:;
#BANNER:Trigger.png;
#BACKGROUND:Trigger-bg.png;
#LYRICSPATH:;
#CDTITLE:;
#MUSIC:Trigger.ogg;
#OFFSET:-0.000000;
#SAMPLESTART:51.600052;
#SAMPLELENGTH:9.999998;
#SELECTABLE:YES;
#DISPLAYBPM:100.000000:200.000000;
#BPMS:0.000000=200.000000
,34.000000=400.000000
,38.000000=200.000000
,70.000000=100.000000
,72.000000=200.000000
,108.000000=100.000000
,124.000000=200.000000
,248.000000=400.000000
,252.000000=200.000000
,316.000000=99.851997
,319.750000=200.063995
;
#STOPS:154.000000=0.600000
;
#BGCHANGES:;
#KEYSOUNDS:;
#ATTACKS:;

//---------------dance-single - ----------------
#NOTES:
     dance-single:
     :
     Beginner:
     5:
     0.108107,0.198670,0.007139,0.000000,0.007139,106.000000,105.000000,1.000000,0.000000,0.000000,0.000000,0.108107,0.198670,0.007139,0.000000,0.007139,106.000000,105.000000,1.000000,0.000000,0.000000,0.000000:
0000
0000
0000
0000
,
0000
0000
0000
0000
,
0000
0000
0000
0000
,
0000
0000
0000
0000
,
0000
0000
0000
0000
,
0001
0000
0000
0000
,
0001
0000
0000
0000
,
1000
0000
0000
0000
,
1000
0000
1000
0000
,
0000
0000
1000
0000
,
0000
0000
0001
0000
,
0000
0000
1000
0000
,
0000
0000
0001
0000
,
0001
0000
0001
0000
,
0000
0000
1000
0000
,
0000
0000
0001
0000
,
0000
0000
0100
0000
,
0100
0000
0100
0000
,
0100
0000
0000
0000
,
0100
0000
0000
0000
,
0000
0000
0000
0000
,
0100
0000
0000
0000
,
0000
0000
0000
0000
,
0001
0000
0000
0000
,
0000
0000
0000
0000
,
0001
0000
0000
0000
,
0001
0000
0000
0000
,
1000
0000
0000
0000
,
0000
0000
0000
0000
,
1000
0000
0000
0000
,
0001
0000
0000
0000
,
1000
0000
0000
0000
,
0000
0000
0000
0000
,
0100
0000
0000
0000
,
0100
0000
0000
0000
,
1000
0000
1000
0000
,
0001
0000
0001
0000
,
1000
0000
0001
0000
,
1000
0000
0001
0000
,
0100
0000
0000
0000
,
0100
0000
0100
0000
,
0100
0000
0000
0000
,
0001
0000
0001
0000
,
0001
0000
0000
0000
,
1000
0000
1000
0000
,
1000
0000
0000
0000
,
0100
0000
0100
0000
,
0000
0000
0001
0000
,
0000
0000
0000
0000
,
0000
0000
0001
0000
,
0000
0000
0100
0000
,
0000
0000
0100
0000
,
0000
0000
0000
0000
,
0000
0000
0001
0000
,
0000
0000
1000
0000
,
0000
0000
0000
0000
,
0000
0000
0000
0000
,
0001
0000
0000
0000
,
0100
0000
0000
0000
,
0001
0000
0000
0000
,
0100
0000
0000
0000
,
0000
0000
0000
0000
,
1000
0000
0000
0000
,
1000
0000
0000
0000
,
0001
0000
0000
0000
,
0001
0000
0000
0000
,
0100
0000
0000
0000
,
0100
0000
0000
0000
,
0001
0000
0000
0000
,
1000
0000
0000
0000
,
0001
0000
0000
0000
,
1000
0000
0000
0000
,
0001
0000
0000
0000
,
0100
0000
0000
0000
,
0010
0000
0000
0000
,
0100
0000
0000
0000
,
0000
0000
0000
0000
,
0000
0100
0000
0000
,
0000
0100
0000
0000
,
0000
0100
0000
0000
,
0000
0001
0000
0000
,
0000
0001
0000
0000
,
0000
1000
0000
0000
,
0000
1000
0000
0000
,
0000
0100
0000
0100
,
0000
0000
0000
0100
,
0000
0000
0000
1000
,
0000
0000
0000
0001
,
0000
0000
0000
1000
,
0000
1000
0000
1000
,
0000
0000
0000
0001
,
0000
0000
0000
1000
,
0000
0000
0000
0001
,
0000
0001
0000
0001
,
0000
0000
0000
0000
,
0000
0000
0000
0001
,
0000
0000
0000
0001
,
0000
0000
0000
0001
,
0000
0000
0000
0000
,
0000
0000
0000
1000
,
0000
0000
0000
1000
,
0000
0000
0000
1000
,
0000
0000
0000
0000
,
0000
0000
0000
0100
,
0000
0000
0000
0100
,
0000
0000
0000
0100
,
0000
0000
0000
0000
,
0000
0000
0000
0000
,
0000
0000
0000
0010
,
0000
0000
0000
1000
,
0000
0000
0000
0000
0000
0000
0000
0000
0000
0000
0000
0001
0000
0000
0000
0000
,
0000
0000
0000
0000
0000
1001
0000
0000
0000
0000
0000
0000
0000
0000
0000
0000
;

//---------------dance-single - ----------------
#NOTES:
     dance-single:
     :
     Easy:
     9:
     0.270269,0.397339,0.064253,0.064253,0.010709,265.000000,256.000000,9.000000,9.000000,0.000000,0.000000,0.270269,0.397339,0.064253,0.064253,0.010709,265.000000,256.000000,9.000000,9.000000,0.000000,0.000000:
0000
0000
0000
0000
,
0000
0000
0000
0000
,
0000
0000
0000
0000
,
0000
0000
0000
0000
,
0000
0000
0000
0000
,
0001
0000
1000
0000
,
0001
0010
0110
0000
,
1000
0000
0001
0000
,
0100
0010
2002
0000
,
0000
3003
1000
0010
,
0100
1000
0010
0100
,
0001
0000
0001
0010
,
0100
0001
0100
0010
,
1000
0000
1000
0001
,
0100
1000
0010
0001
,
0100
0100
0010
0010
,
0001
0001
1000
0100
,
0001
0100
2000
3001
,
0200
0000
0310
0000
,
1000
0000
1000
0000
,
0001
0000
0001
0000
,
1000
0000
0100
0000
,
0010
0000
0100
0000
,
0001
0000
0001
0000
,
1000
0000
1000
0000
,
0001
0000
0100
0000
,
0010
0000
1000
0000
,
0100
0000
0100
0000
,
0010
0000
0010
0000
,
0100
0000
0010
0000
,
0001
0000
1000
0000
,
0001
0000
0000
1000
,
0000
0000
2002
0000
,
3003
0010
0000
0100
,
0000
0010
0000
0000
,
0100
0000
0010
0000
,
1000
0000
0001
1001
,
0100
0000
0010
0000
,
0010
1000
0001
0100
,
0001
0001
1000
0000
,
1000
0001
0100
0100
,
0010
0010
0100
0000
,
0100
0001
1000
1000
,
0001
0100
0010
1000
,
0100
0010
1000
0001
,
0010
1000
0100
0001
,
1000
0100
1001
0000
,
0100
0001
0000
0000
,
1000
0000
0000
0001
,
1000
0000
0000
0010
,
0000
0000
0100
0000
,
0010
0000
0000
0000
,
0100
0010
0000
0001
,
0000
1000
0000
0001
,
0000
0000
0010
0000
,
0000
0100
0001
0000
,
0000
1000
0100
0000
,
0000
0010
0000
0000
,
0100
0000
0100
0000
,
0000
0000
0010
0100
,
0000
0001
0000
1000
,
0000
0001
0000
0000
,
0010
0000
0100
1000
,
0000
0000
0010
0000
,
0000
0001
0100
0000
,
0000
0010
0000
0001
,
1000
0000
0001
1000
,
0000
0000
0010
0100
,
0000
1000
0000
0100
,
0000
0001
0000
0000
,
0100
0000
0010
0100
,
0000
0000
1000
0000
,
0000
0001
0100
0000
,
0000
0100
0000
0000
,
0010
0000
0001
0100
,
0000
0000
0100
0000
,
0100
0100
0100
0000
,
0000
0100
0000
0010
,
0000
0100
1000
0100
,
0000
0001
0000
1000
,
0000
0001
0010
0001
,
0000
1000
0000
0001
,
0000
1000
0010
0100
,
0000
0001
0000
0100
,
0000
0001
1000
2002
,
0000
0000
3003
0001
,
0010
0100
0000
0010
,
0100
1000
0001
1000
,
0010
0100
0000
0010
,
0100
0001
0010
0001
,
1000
0001
0000
0010
,
1000
0100
0001
0010
,
0010
0100
0010
0001
,
1000
0001
0000
0100
,
0000
0010
0000
0100
,
0001
0000
1000
0000
,
0010
0000
1000
0000
,
0100
0000
1000
0100
,
0000
0100
0000
1000
,
0010
0000
0001
0000
,
1000
0000
0001
0000
,
0100
0000
0001
0010
,
0000
1000
0000
0010
,
0100
0000
0010
0000
,
0100
0000
1000
0000
,
0100
0000
0001
0100
,
0000
0000
0110
0000
,
0000
1001
0000
0000
,
0100
0000
0100
0000
,
0100
0000
0100
0200
,
0000
0000
0000
0000
0000
0000
0000
0000
0300
0000
0000
0010
0000
0000
0000
0000
,
0000
0100
0000
0000
0000
1001
0000
0000
0000
0000
0000
0000
0000
0000
0000
0000
;

//---------------dance-single - ----------------
#NOTES:
     dance-single:
     :
     Medium:
     12:
     0.314123,0.513217,0.364098,0.035696,0.046405,308.000000,257.000000,51.000000,5.000000,0.000000,0.000000,0.314123,0.513217,0.364098,0.035696,0.046405,308.000000,257.000000,51.000000,5.000000,0.000000,0.000000:
0000
0000
0000
0000
,
0000
0000
0000
0000
,
0000
0000
0000
0000
,
0000
0000
0000
0000
,
0000
0000
0000
0000
,
0010
0000
1002
0000
0000
0100
0003
0000
,
0001
1000
0000
1000
0010
0000
0100
0000
,
0010
0000
1002
0000
0000
0100
0003
0000
,
1000
0000
0001
0000
0100
0000
0020
0000
0000
0000
0000
0000
,
0000
0000
0000
0000
1030
0100
1000
0100
,
0000
1100
0000
0000
0001
0100
0001
0100
,
0000
0101
0000
0000
0010
0100
0010
0100
,
0000
1001
0000
0000
1000
0001
1000
0001
,
0000
0110
0000
0000
1000
0010
0100
0001
,
0000
0110
0000
0000
1000
0100
0010
0001
,
0000
1010
0000
0000
0010
0100
0001
1000
,
0000
0110
0000
2000
0000
0001
3000
0100
,
0010
0000
0000
0001
0000
0000
1000
0000
0000
0000
0000
0000
0001
0000
0100
0000
1000
0000
0100
0000
0001
0000
0100
0000
,
0010
0000
0100
0000
1000
0000
0100
0000
0010
0000
0001
0000
,
0010
0001
1000
0001
,
0000
1001
0000
1100
,
0000
0010
0001
0100
,
0000
0011
0000
1010
,
0000
0100
0001
0100
,
0000
0101
0000
1010
,
0000
0001
0010
0100
,
0000
0110
0000
0001
,
1000
0001
0010
0100
,
0000
0110
0000
1000
,
0001
0100
0010
1000
,
0000
0101
0000
1000
,
0010
0010
0000
1001
,
0000
0100
0100
0000
,
0000
0110
0000
0010
,
1000
0001
1000
0001
,
0100
0000
0000
0000
0000
0000
0010
0000
0010
0000
0000
0000
0000
0110
0000
0000
,
1001
0000
0000
0000
0000
0000
0000
0000
0000
1001
0000
0000
0010
0000
0001
0000
1000
0000
0100
0000
0000
0000
0000
0000
,
1000
0010
0100
0001
0010
0100
1000
0100
,
0010
0100
0010
0001
0010
0100
1000
0010
,
1000
0000
1000
0000
0101
0000
1000
0100
,
0001
0000
1100
0000
1000
0100
0001
0000
,
0001
0000
0001
0000
1010
0000
0001
0100
,
1000
0000
0011
0000
0001
0100
1000
0000
,
0010
0000
0100
0000
0101
0000
1000
0010
,
0100
0000
1100
0000
0100
0010
1000
0000
,
0001
1000
0001
0100
,
1001
1001
1001
0001
,
0100
1000
0000
0000
,
0010
0001
1000
0100
,
0001
0000
0000
1000
,
0010
0100
0010
0000
,
0100
0010
0000
0000
,
0001
1000
0000
1001
,
0000
0110
0000
1001
,
0000
0000
0010
0100
,
0010
0100
0001
0010
,
1000
0010
0100
0000
,
0000
0011
0000
0000
,
0110
0000
1000
0001
,
0000
0000
0001
1000
,
0000
0011
0000
0101
,
0000
1010
0000
0000
,
0010
0100
0010
0100
,
0000
0000
0010
0100
,
0001
0100
0010
0000
,
0000
1100
0000
0100
,
0010
0000
0010
1000
,
0000
0000
0010
0001
,
0000
1100
0000
1010
,
0000
0101
0000
0000
,
0010
0100
0010
0100
,
0000
0000
1000
0001
,
1000
0100
1000
0000
,
0000
0110
0000
0000
,
1010
0000
0100
0010
,
0000
0000
1001
0000
,
1001
1001
1001
0000
,
0000
0000
0010
0000
0102
0000
0000
1000
,
0003
0000
0010
0000
0000
0100
0000
0000
,
0001
1000
0100
0000
0000
0000
0000
0001
;

//---------------dance-single - ----------------
#NOTES:
     dance-single:
     :
     Hard:
     13:
     0.521159,0.576042,0.549716,0.028557,0.096379,511.000000,434.000000,77.000000,4.000000,0.000000,0.000000,0.521159,0.576042,0.549716,0.028557,0.096379,511.000000,434.000000,77.000000,4.000000,0.000000,0.000000:
// measure 0
0000
0000
0000
0000
,  // measure 1
0000
0000
0000
0000
,  // measure 2
0000
0000
0000
0000
,  // measure 3
0000
0000
0000
0000
,  // measure 4
0000
0000
0000
0000
,  // measure 5
0110
0000
1001
0000
0100
0010
0100
0000
,  // measure 6
0001
0101
0000
1000
1100
0000
1010
0000
,  // measure 7
0011
0000
1100
0000
0010
0100
0010
0000
,  // measure 8
0001
0010
0001
0010
0001
0010
0200
0000
0000
0000
0000
0000
,  // measure 9
0000
0000
0000
0000
1300
0100
1000
0100
,  // measure 10
0000
1010
0000
0110
0000
0010
0001
0010
,  // measure 11
1000
0100
0000
1000
0010
1000
0001
0010
,  // measure 12
0001
1000
0000
0100
0001
0100
1000
0100
,  // measure 13
0010
0100
0000
1000
0001
0010
1000
0010
,  // measure 14
0001
1000
0000
1000
0001
0100
1000
0100
,  // measure 15
0001
1000
0000
0001
0010
0100
1000
0010
,  // measure 16
0000
0110
0000
0100
0001
0010
0001
0100
,  // measure 17
0010
1000
0020
0000
,  // measure 18
0130
0000
0001
0000
0010
0000
1000
0000
0010
0000
0001
0000
,  // measure 19
0100
1000
0100
0001
0000
1000
0000
0100
,  // measure 20
0010
0100
0001
0100
0010
0001
0010
0000
,  // measure 21
0001
0100
1000
0100
0000
0101
0000
0100
,  // measure 22
0001
1000
0010
1000
0001
0100
0001
0000
,  // measure 23
0100
0010
1000
0010
0000
0110
0000
0100
,  // measure 24
0001
0010
0001
1000
0100
1000
0010
0000
,  // measure 25
0100
0010
0000
0110
0000
1000
1001
0000
,  // measure 26
0000
0101
0000
0001
0010
0100
1000
0001
,  // measure 27
1001
0000
0000
0000
0000
0000
0001
0000
0001
0000
0000
0000
0000
0100
0000
0000
,  // measure 28
0010
0000
0000
0000
0000
0000
0000
0000
0000
1001
0000
0000
0001
0000
0100
0000
0010
0000
0100
0000
0000
0000
0000
0000
,  // measure 29
1001
0000
0000
0000
0000
0000
0000
0000
0010
0000
0100
0000
0000
0001
1000
0000
,  // measure 30
0001
0000
0000
0000
0000
0100
0010
0000
1000
0000
0000
0000
1001
0000
0000
0000
,  // measure 31
0010
0100
0001
0100
0010
0000
1000
0010
,  // measure 32
0100
0010
1000
0000
0001
0100
0010
0100
,  // measure 33
0001
0010
0100
1000
0001
0000
0100
0010
,  // measure 34
1000
0010
0100
0000
0001
1000
0010
1000
,  // measure 35
0001
0010
1000
0010
0001
0000
1000
0100
,  // measure 36
0001
0100
1000
0000
0100
0010
0100
1000
,  // measure 37
0001
1001
0000
0110
0000
1001
0000
0010
,  // measure 38
1010
0000
0110
0000
1001
0000
0010
1010
,  // measure 39
0000
0000
1000
0001
0100
0001
1000
0000
,  // measure 40
0000
0110
0000
0100
0101
0000
0001
1001
,  // measure 41
0000
0000
0100
0100
0000
1010
0000
1001
,  // measure 42
0000
0101
0000
0000
0100
0010
1000
0010
,  // measure 43
0100
0000
0001
0100
0010
0100
0001
0000
,  // measure 44
0000
1001
0000
0000
1010
0000
0100
0101
,  // measure 45
0000
0000
0010
0010
0000
1001
0000
1010
,  // measure 46
0000
0110
0000
0000
0001
0100
1000
0100
,  // measure 47
0000
0000
0001
0100
0010
0100
0001
0000
,  // measure 48
0000
1010
0000
0100
1001
0000
0010
0101
,  // measure 49
0000
0000
1000
1000
0000
0101
0000
0110
,  // measure 50
0000
1010
0000
0000
0100
0010
1000
0010
,  // measure 51
0100
0000
0001
0100
0010
0100
0001
0000
,  // measure 52
0000
1010
0000
0000
0101
0000
1000
1000
,  // measure 53
0000
0000
0001
0101
0000
0110
0000
1010
,  // measure 54
0000
1001
0000
0000
0001
0100
0010
0000
,  // measure 55
0100
0001
1000
0000
0001
0100
0000
0001
,  // measure 56
0100
0000
0010
1000
0100
0000
0110
0000
,  // measure 57
0000
0011
0000
0000
0100
0001
0000
1001
,  // measure 58
0000
1010
0000
0000
0010
0100
0010
1000
,  // measure 59
0000
0001
0101
0000
1000
1010
0000
0100
,  // measure 60
0100
0000
0001
0001
0010
0100
1000
0000
,  // measure 61
0001
0000
0000
0010
0000
0000
1000
0000
0000
0000
0000
0000
0010
0000
0001
0000
1000
0000
0001
0000
0100
0000
0010
0000
,  // measure 62
0200
0000
0000
0000
,  // measure 63
0310
1000
0001
0101
0000
1001
0000
1010
,  // measure 64
0000
0010
1000
0001
1000
1010
0000
0010
,  // measure 65
0100
0001
0100
0010
1000
1001
0000
0101
,  // measure 66
0000
0100
1000
0100
0001
1000
0001
0100
,  // measure 67
0010
0100
0001
1001
0000
1010
0000
0100
,  // measure 68
0001
1000
0001
0100
0010
0100
0000
0100
,  // measure 69
0001
1000
0010
0100
0000
0110
0000
0010
,  // measure 70
0100
0001
0010
0100
1000
0010
1000
0001
,  // measure 71
0100
0001
0010
0001
0000
1001
0000
1010
,  // measure 72
0000
0000
0100
0000
0001
0000
0010
0000
0001
1000
0001
1000
0100
0000
1000
0000
,  // measure 73
0010
0100
0001
0100
0010
1000
0010
0110
,  // measure 74
0000
0000
0001
0000
1000
0000
0010
0000
0100
0010
0100
0010
1000
0000
0100
0000
,  // measure 75
0101
0000
1100
0000
0010
1000
0001
1000
,  // measure 76
0100
0010
0100
1000
0001
1001
0000
0000
,  // measure 77
0001
0101
0000
0110
0000
1000
1001
0000
,  // measure 78
0000
0110
0000
0100
0001
0100
0010
0100
,  // measure 79
0120
0000
0000
0000
0000
0000
0000
0000
0000
0000
0000
0000
0000
0000
0000
0130
,  // measure 80
0000
0000
0000
0001
0000
0010
0000
0100
0000
1000
0000
1001
0000
0000
0000
0000
;

//---------------dance-single - ----------------
#NOTES:
     dance-single:
     :
     Challenge:
     16:
     0.671082,0.806458,1.070875,0.014278,0.224884,658.000000,508.000000,150.000000,2.000000,0.000000,0.000000,0.671082,0.806458,1.070875,0.014278,0.224884,658.000000,508.000000,150.000000,2.000000,0.000000,0.000000:
// measure 0
0000
0000
0000
0000
,  // measure 1
0000
0000
0000
0000
,  // measure 2
0000
0000
0000
0000
,  // measure 3
0000
0000
0000
0000
,  // measure 4
0000
0000
0000
0000
,  // measure 5
1001
0000
0110
0000
1001
1000
0001
0000
,  // measure 6
1100
1000
0000
0011
0001
0000
0110
0100
,  // measure 7
0010
0000
1001
0000
0110
0001
0100
0000
,  // measure 8
1000
0100
1000
0100
0001
0100
1001
0000
0000
0000
0000
0000
,  // measure 9
0000
0000
0000
0000
1010
0100
0001
0101
,  // measure 10
0000
1001
1000
0010
1000
0001
0010
0011
,  // measure 11
0000
0110
0100
1000
0001
1000
0010
1010
,  // measure 12
0000
1100
1000
0010
0100
0001
0010
0100
,  // measure 13
1000
0100
0010
0100
1000
0001
0010
0011
,  // measure 14
0000
1100
1000
0010
1000
0001
0100
0101
,  // measure 15
0000
1010
0010
0100
0001
0010
0100
0110
,  // measure 16
0000
1001
1000
0001
0010
1000
0010
0100
,  // measure 17
0010
0000
0000
0001
0000
0000
1000
0000
0000
0010
0000
0000
0100
0100
0010
0010
1000
1000
0001
0001
1000
0100
0010
0001
,  // measure 18
1000
0000
1100
0000
0110
0000
0101
0000
0110
0000
1001
0000
,  // measure 19
0010
1000
0001
1000
0010
0100
0001
1001
,  // measure 20
0000
0000
1000
0000
0010
0000
0100
0000
0001
0010
0001
0010
0001
0100
0001
0100
,  // measure 21
0001
1000
0010
0110
0000
0010
1000
0001
,  // measure 22
1000
0000
0010
0000
0100
0000
0001
0000
0010
0100
0010
0100
1000
0100
1000
0100
,  // measure 23
0010
0001
0100
1000
0000
0101
0000
1010
,  // measure 24
0000
0100
0001
0010
0001
1000
0010
0100
,  // measure 25
0101
1001
0000
1010
0000
0110
1010
0000
,  // measure 26
0000
0101
0000
1000
0010
0001
0010
1000
,  // measure 27
1001
0000
0000
0000
0000
0000
0010
0000
0110
0000
0000
0000
0000
0101
0000
0000
,  // measure 28
1001
0000
0000
0000
0000
0000
0100
0000
0000
0010
0000
0000
1000
0000
0000
0000
0000
0000
1010
0000
0000
0000
0000
0000
0001
0000
0000
0000
0001
0000
0000
0000
0100
0000
0000
0000
0110
0000
0000
0000
0000
0000
0000
0000
0000
0000
0000
0000
,  // measure 29
1010
0000
0100
0001
0100
0010
1000
0000
0101
0000
0110
0000
0000
1000
1001
0000
,  // measure 30
0101
0000
0000
0000
0000
0010
0110
0000
1010
0000
0000
0000
1001
0000
0000
0000
,  // measure 31
0101
0010
1000
0010
0110
0000
0101
0010
,  // measure 32
1000
0010
0110
0000
0101
0010
1000
0010
,  // measure 33
1100
0010
0100
1000
0110
0000
0011
0100
,  // measure 34
1000
0100
0101
0000
0100
1000
1010
0100
,  // measure 35
0001
1000
1001
0010
0110
0000
0110
0001
,  // measure 36
1000
0001
0101
0000
0010
1000
1001
0001
,  // measure 37
0100
1010
0000
0110
0000
0101
0000
0001
,  // measure 38
1001
0000
1010
0000
0110
0100
0001
0101
,  // measure 39
0000
0000
1010
0100
0001
0100
1010
0000
,  // measure 40
0000
0101
0000
1001
1010
0000
1010
0110
,  // measure 41
0000
0000
1001
1001
0000
0110
0000
1010
,  // measure 42
0000
0000
1001
0000
0000
0000
0000
0000
0001
0100
0001
0100
0010
0100
0010
0100
,  // measure 43
0010
0000
0000
0000
1000
0010
1000
0010
0100
0010
0100
0010
0100
0000
0000
0000
,  // measure 44
0000
0101
0000
0000
1010
0000
0110
1001
,  // measure 45
0000
0000
1010
1001
0000
0101
0000
1010
,  // measure 46
0000
1001
0000
0000
0101
0100
1100
0100
,  // measure 47
0110
0000
1010
0010
0011
0010
0110
0000
,  // measure 48
0000
1001
0000
1010
1001
0000
0101
1001
,  // measure 49
0000
0000
1010
1001
0000
0101
0000
0110
,  // measure 50
0000
0000
1010
0000
0000
0000
0000
0000
1000
0100
1000
0100
0010
0001
0010
0001
,  // measure 51
0100
0000
0000
0000
0001
0010
0001
0010
0100
1000
0100
1000
0010
0000
0000
0000
,  // measure 52
0000
0110
0000
0000
1001
0000
1010
1001
,  // measure 53
0000
0000
0101
0110
0000
1010
0000
1001
,  // measure 54
0000
0101
0000
0000
0010
0100
0001
0000
,  // measure 55
0100
0010
1000
0000
0001
0010
1000
0010
,  // measure 56
0001
0000
0100
0001
0011
0000
0101
0000
,  // measure 57
0010
1000
0100
0000
0100
1001
0000
1010
,  // measure 58
0000
0110
0000
0000
0001
0010
1000
0010
,  // measure 59
0001
0100
1010
0000
0100
0101
0000
0010
,  // measure 60
1010
0000
0001
0100
0010
0100
0001
1000
,  // measure 61
0100
0000
0000
1000
0000
0000
0110
0000
0000
0000
0000
0000
0001
0000
0010
0000
0001
0000
0010
0000
0100
0000
1000
0000
,  // measure 62
0200
0000
0000
0000
,  // measure 63
1300
0100
0001
0101
0000
1010
0000
0101
,  // measure 64
0000
0010
1000
0001
1000
0010
0100
0010
,  // measure 65
1000
0001
0100
0101
0000
1001
0000
0110
,  // measure 66
0000
0100
0010
1000
0010
0100
0001
1000
,  // measure 67
1001
0001
0101
0100
0000
1010
0000
0100
,  // measure 68
0001
1000
0001
0101
0000
0010
0100
0001
,  // measure 69
0100
0010
1000
1010
0000
0100
0001
0010
,  // measure 70
1000
0010
0001
0100
0010
1000
0010
0100
,  // measure 71
1001
0010
0100
1000
0001
0010
0001
0100
,  // measure 72
0010
0000
0100
0000
0010
0000
1000
0000
0001
0100
0001
0100
0001
0000
1000
0000
,  // measure 73
1010
0100
0010
1000
0001
0100
0010
0100
,  // measure 74
0001
0000
1000
0000
0010
0000
0100
0000
0001
0010
0001
0010
0001
0010
0001
0000
,  // measure 75
0100
0001
0101
0100
0010
1000
0100
0010
,  // measure 76
0001
0100
1000
0100
0001
0010
1000
0010
,  // measure 77
0011
1001
0000
1010
0000
0110
0101
0000
,  // measure 78
0000
0110
0000
0001
0100
0100
0010
0010
,  // measure 79
2001
0000
0000
0000
0000
0000
0000
0000
3001
0000
0001
0000
0000
0000
0000
0101
,  // measure 80
0000
0000
0000
0001
0000
0010
0000
0100
0000
1000
0001
1000
0000
0000
0000
0000
;

//---------------dance-double - ----------------
#NOTES:
     dance-double:
     :
     Easy:
     7:
     0.219275,0.357605,0.064253,0.049974,0.014278,215.000000,206.000000,9.000000,7.000000,0.000000,0.000000,0.219275,0.357605,0.064253,0.049974,0.014278,215.000000,206.000000,9.000000,7.000000,0.000000,0.000000:
00000000
00000000
00000000
00000000
,
00000000
00000000
00000000
00000000
,
00000000
00000000
00000000
00000000
,
00000000
00000000
00000000
00000000
,
00000000
00000000
00000000
00000000
,
00000001
00000000
00001000
00000000
,
00000010
00010000
00001000
00000000
,
00010000
00000000
10000000
00000000
,
00010000
00001000
00022000
00000000
,
00000000
00033000
00010000
00000000
,
00000100
00000000
00000010
00001000
,
00010000
00000000
00010000
00000000
,
00100000
00000000
00001000
00010000
,
01000000
00000000
10000000
00000000
,
00010000
00000000
00001000
00010000
,
00001000
00001000
00010000
00000000
,
00010000
00000000
00000010
00000100
,
00000001
00001000
00000200
00000300
,
00020000
00000000
00000000
00000000
,
00031000
00000000
00000000
00000000
,
00001000
00000000
00000000
00000000
,
00010000
00000000
01000000
00000000
,
10000000
00000000
00100000
00000000
,
01000000
00000000
00000000
00000000
,
00010000
00000000
00000000
00000000
,
00100000
00000000
00001000
00000000
,
00010000
00000000
00000100
00000000
,
00000010
00000000
00000000
00000000
,
00000001
00000000
00000000
00000000
,
00000100
00000000
00001000
00000000
,
00010000
00000000
01000000
00000000
,
10010000
00000000
00000000
00000000
,
00000000
00000000
00000000
00000000
,
00011000
00000000
00000000
00000000
,
00000100
00000000
00001000
00000000
,
00010000
00100000
10000000
01000000
,
00010000
00001000
00000100
00000001
,
00000010
00000100
00010000
00001000
,
00100000
01000000
10000000
00010000
,
01000000
00000000
10010000
00000000
,
10000000
00000000
00010000
00000000
,
00001000
00000000
00011000
00000000
,
00010000
00000000
00001000
00000000
,
00000001
00000000
00000110
00000000
,
00001000
00000000
00100000
00000000
,
00010000
00010000
00010000
00000000
,
10000000
10000000
10000000
00000000
,
00000000
01000000
00000000
00000000
,
00010000
00000000
00000000
00001000
,
00000000
00000000
00000000
00010000
,
00000000
00000000
00000100
00000000
,
00000010
00000000
00000000
00000000
,
00000001
00000000
00000000
00001000
,
00000000
00010000
00000000
00001000
,
00000000
00000000
00000010
00000000
,
00000000
00010000
00001000
00000000
,
00000000
01000000
00000000
00000000
,
00000000
00100000
00000000
00000000
,
01000000
00000000
01000000
00000000
,
00000000
00000000
00100000
00000000
,
00000000
10000000
00000000
01000000
,
00000000
00010000
00000000
00000000
,
00001000
00000000
00000000
00000010
,
00000000
00000000
00000001
00000000
,
00000000
00001000
00000000
00000000
,
00000000
00000010
00000000
00000000
,
00010000
00000000
00001000
00000000
,
00000000
00000000
00100000
00000000
,
00000000
00010000
00000000
01000000
,
00000000
10000000
00000000
00000000
,
01000000
00000000
00000000
00100000
,
00000000
00000000
01000000
00000000
,
00000000
00001000
00000000
00000000
,
00000000
00010000
00000000
00000000
,
00000010
00000000
00001000
00000000
,
00000000
00000000
00000100
00000000
,
00010000
00001000
00010000
00000000
,
00000000
01000000
00000000
00100000
,
00000000
01000000
00100000
01000000
,
00000000
10000000
00000000
00010000
,
00000000
10000000
00010000
10000000
,
00000000
00100000
00000000
00001000
,
00000000
00010000
00000100
00010000
,
00000000
00000010
00000000
00000100
,
00000000
00000010
00000100
00000220
,
00000000
00000000
00000330
00000001
,
00000000
00000100
00000000
00010000
,
01000000
10000000
00000000
01000000
,
00000000
00001000
00000000
00010000
,
00001000
00000100
00000000
00000001
,
00000000
00001000
00000000
00000100
,
00010000
00001000
00001000
00010000
,
00000000
01000000
00000000
00100000
,
00010000
10000000
00010000
01000000
,
00000000
00000000
00000000
00010000
,
00000000
00000000
00001000
00000000
,
00000010
00000000
00001000
00000000
,
00000001
00000000
00000000
00000100
,
00000000
00000000
00000000
00001000
,
00000000
00000000
00010000
00000000
,
00001000
00000000
00100000
00000000
,
01000000
00000000
00000000
00100000
,
00000000
00000000
00000000
00010000
,
00000000
00000000
10000000
00000000
,
01000000
00000000
00010000
00000000
,
00001000
00000000
00010000
00001000
,
00000000
00000000
00011000
00000000
,
00001000
00010000
00000000
00000000
,
00000100
00000000
00000001
00000000
,
00000100
00000000
00000000
00020000
,
00000000
00000000
00000000
00000000
00000000
00000000
00000000
00000000
00030000
00000000
00000000
00001000
00000000
00000000
00000000
00100000
,
00000000
01000000
00000000
00000000
00000000
10010000
00000000
00000000
00000000
00000000
00000000
00000000
00000000
00000000
00000000
00000000
,
00000000
00000000
00000000
00000000
;

//---------------dance-double - ----------------
#NOTES:
     dance-double:
     :
     Medium:
     11:
     0.419171,0.716014,0.335541,0.071392,0.074961,411.000000,364.000000,47.000000,10.000000,0.000000,0.000000,0.419171,0.716014,0.335541,0.071392,0.074961,411.000000,364.000000,47.000000,10.000000,0.000000,0.000000:
00000000
00000000
00000000
00000000
,
00000000
00000000
00000000
00000000
,
00000000
00000000
00000000
00000000
,
00000000
00000000
00000000
00000000
,
00000000
00000000
00000000
00000000
,
00001000
00020100
00000000
00031000
,
00001000
00100000
00000000
00100000
01000000
00000000
10000000
00000000
,
00010000
01002000
00000000
00013000
,
00001000
00000100
00000001
00000200
00000000
00000000
,
00000000
00000000
00000000
00000000
00000310
00000000
00000010
00001000
,
00000000
00010010
00000000
00000000
00001000
00000000
00001000
00100000
,
00000000
00110000
00000000
00000000
01000000
00000000
01000000
10000000
,
00000000
10010000
00000000
00000000
00100000
00000000
00100000
00001000
,
00000000
00101000
00000000
00000000
00010000
00000000
00010000
00000100
,
00000000
00001100
00000000
00000000
00000010
00000000
00000010
00000001
,
00000000
00000101
00000000
00000000
00000001
00000000
00000001
00001000
,
00000000
00010010
00000000
00000000
00001000
00000000
00010000
00000000
,
01000000
00000000
00000000
10000000
00000000
00000000
00010000
00000000
00000000
00000000
00000000
00000000
10000000
00000000
01000000
00000000
00010000
00000000
01000000
00000000
00010000
00000000
00001000
00000000
,
00010000
00001000
00000100
00001000
00000100
00000001
,
00000010
00000100
00000010
00000100
,
00000000
00001000
00000001
00001000
,
00000000
00000010
00010000
00000010
,
00000000
00011000
00000000
00000100
,
00010000
00001000
00010000
00001000
,
00000000
00100000
00010000
00100000
,
00000000
00010000
10000000
00010000
,
00000000
00101000
00000000
00010000
,
00000100
00000010
00000100
00000010
,
00000000
00000001
00000100
00000001
,
00000000
00001000
00000100
00001000
,
00000000
00010100
00000000
00010000
,
00001000
00100000
00001000
00100000
,
00000000
00010000
01000000
00000000
,
00000000
01100000
00000000
00100000
,
10000000
00010000
10000000
00010000
,
01000000
00000000
00000000
00000000
00000000
00000000
00010000
00000000
00001000
00000000
00000000
00000000
00000000
00000100
00000000
00000000
,
00011000
00000000
00000000
00000000
00000000
00000000
00000000
00000000
00000000
00001001
00000000
00000000
00000010
00000000
00000001
00000000
00000100
00000000
00001000
00000000
00000000
00000000
00000000
00000000
,
00010000
00100000
01000000
10000000
01000000
00100000
00010000
00001000
,
00000100
00000010
00000001
00000100
00000010
00001000
00010000
01000000
,
10000000
10000000
01010000
00100000
,
00001000
00010000
00001000
00000000
00000100
00000000
00000110
00000000
,
00000001
00000001
00001010
00000100
,
00000010
00010000
00000010
00000000
00001000
00000100
00001000
00000100
,
00010000
00000000
00101000
00000000
00010000
01000000
10000000
00000000
,
00100000
00000000
10010000
00000000
01000000
00100000
10000000
00000000
,
01000000
00010000
00000000
00001000
00000000
00000010
00000000
00000001
,
00001000
00001100
00011000
00010000
,
01000000
10000000
00000000
00000000
,
00100000
00001000
00010000
00000100
,
00001000
00000000
00000000
00000010
,
00000000
00000001
00000100
00000000
,
00000010
00001000
00000000
00000000
,
00000100
00010000
00000000
00011000
,
00000000
01000000
00000000
10010000
,
00000000
00000000
00100000
00001000
,
01000000
00010000
00100000
00001000
,
00010000
00000010
00001000
00000000
,
00000000
00000101
00000000
00000000
,
00000010
00000000
00010000
00001000
,
00000000
00000000
00010000
10000000
,
00000000
10010000
00000000
11000000
,
00000000
01100000
00000000
00000000
,
00100000
00010000
00100000
00001000
,
00000000
00000000
00010000
01000000
,
10000000
01000000
00010000
00000000
,
00000000
00001100
00000000
00000010
,
00000001
00000000
00000010
00001000
,
00000000
00000000
00010000
00001000
,
00000000
01000000
00000000
00001000
,
00000000
00011000
00000000
00000000
,
00000010
00000001
00000100
00001000
,
00000000
00000000
00001000
00010000
,
00001000
00010000
01000000
00000000
,
00000000
01100000
00000000
00000000
,
10010000
00000000
00100000
00001000
,
00000000
00000000
00011000
00000000
,
00010000
00001000
00001001
00000000
,
00000000
00000000
00000010
00000000
00020000
00000000
00000000
00001000
,
00030000
00000000
00100000
00000000
00000000
10000000
00000000
00000000
,
01000000
00010000
01000000
00000000
00200000
00000000
00000000
00010000
,
00300000
00000000
00001000
00001000
00000000
00010000
00000000
00000100
,
00000000
00000000
00000010
00000000
00001002
00000000
00000000
00000010
,
00000003
00000000
00001000
00010000
00000000
00001000
00010000
00000000
,
00010000
00000000
00100000
00000000
20010000
00000000
00000000
00100000
,
30000000
00000000
00000000
10000000
00000000
01000000
00000000
00010000
00000000
02000000
00000000
00000000
,
00000000
00000000
00000000
03100000
,
00100000
00010000
00000000
00101000
00000000
00000000
00010000
00000000
,
00010000
00000010
00000000
00001010
00000000
00000000
00000100
00000000
,
00000100
00000001
00000000
00001001
00000000
00000000
00000010
00000000
,
00000010
00010000
00000000
00010010
00000000
00000000
00001000
00000000
,
00001000
01000000
00000000
01010000
00000000
00000000
00100000
00000000
,
00100000
10000000
00000000
11000000
00000000
00000000
10000000
00000000
,
10000000
00010000
00000000
00101000
00000000
00000000
00010000
00000000
,
00001000
00000000
00000100
00000001
00001000
00000000
00000010
00000000
,
00001000
00000001
00000100
00001000
,
00010000
00100000
00000000
00100000
,
01000000
00010000
10000000
00010000
,
00000000
10010000
00000000
01000000
,
00010000
00100000
00001000
00000100
,
00000010
00000100
00000000
00000100
,
00000010
00001000
00000000
00010010
,
00000000
00011000
00000000
00100000
,
00001000
00010000
00001000
01000000
,
00100000
10000000
00000000
10000000
,
01000000
00010000
00001000
00000100
,
00000010
00001000
00000000
00000001
,
00001000
00000000
00011000
00000000
,
00010000
10000000
00000000
00000000
,
00100000
00000000
00001000
00000100
,
00001000
00010000
00100000
02000000
,
00000000
00000000
00000000
00000000
00002000
00000000
00000000
00000000
00003000
00000000
00000000
03001000
00000000
00000000
00000000
00010000
,
00000000
00001000
00000000
00010000
00000000
00000010
00000000
00000001
00000000
00000000
00000000
00000000
00000000
00000000
00000000
00000000
,
00000000
00000000
00000000
00000000
;

//---------------dance-double - ----------------
#NOTES:
     dance-double:
     :
     Hard:
     16:
     0.569094,0.957363,0.514020,0.242732,0.110657,558.000000,486.000000,72.000000,34.000000,0.000000,0.000000,0.569094,0.957363,0.514020,0.242732,0.110657,558.000000,486.000000,72.000000,34.000000,0.000000,0.000000:
00000000
00000000
00000000
00000000
,
00000000
00000000
00000000
00000000
,
00000000
00000000
00000000
00000000
,
00000000
00000000
00000000
00000000
,
00000000
00000000
00000000
00000000
,
00000011
00000000
00001100
00000000
00000010
00001000
00010000
00000000
,
00010000
00001000
00000000
00001000
00010000
00000000
00100000
00000000
,
11000000
00000000
00110000
00000000
00100000
00001000
00010000
00000000
,
00000100
00001000
00010000
01000000
00010000
00001000
00000200
00000000
00000000
00000000
00000000
00000000
,
00000000
00000000
00000000
00000000
00001300
00010000
00001000
00010000
,
00000000
00011000
00000000
00010000
00100000
01000000
00010000
01000000
,
00000000
10010000
00000000
01000000
00100000
00001000
00010000
00001000
,
00000000
00010010
00000000
00000010
00001000
00000001
00000010
00000100
,
00000000
00001100
00000000
00000100
00010000
00001000
00100000
01000000
,
00000000
10010000
00000000
00100000
00001000
00000100
00000001
00000010
,
00000000
00001100
00000000
00001000
00000001
00000100
00001000
00010000
,
00000000
01010000
00000000
20100000
00000000
31000000
00010000
00001000
,
00000100
00000000
00000000
00000001
00000000
00000000
00000010
00000000
00000000
00001000
00000000
00000000
00010000
00001000
00010000
00000100
00001000
00000100
00010000
00001000
00100000
00010000
00100000
00001000
,
00020000
00000000
00000000
00000000
00000000
00000000
00000000
00000000
00000000
00000000
00000000
00000000
00000000
00000000
00000000
00000000
00000000
00000000
00000000
00000000
00000000
00000000
00000000
00000000
00000000
00000000
00000000
00000000
00000000
00000000
00030000
00000000
02000000
00000000
00000000
00000000
00000000
00000000
00000000
00000000
00000000
00000000
00000000
00000000
00000000
00000000
00000000
00000000
00000000
00000000
00000000
00000000
00000000
00000000
00000000
00000000
00000000
00000000
00000000
00000000
00000000
00000000
00000000
03000000
20000000
00000000
00000000
00000000
00000000
00000000
00000000
00000000
00000000
00000000
00000000
00000000
00000000
00000000
00000000
00000000
00000000
00000000
00000000
00000000
00000000
00000000
00000000
00000000
00000000
00000000
00000000
00000000
00000000
00000000
00000000
00000000
30200000
00000000
00000000
00000000
00000000
00000000
00000000
00000000
00000000
00000000
00000000
00000000
00000000
00000000
00000000
00000000
00000000
00000000
00000000
00000000
00000000
00000000
00000000
00000000
00000000
00000000
00000000
00000000
00000000
00000000
00000000
00000000
00020000
00300000
00000000
00000000
00000000
00000000
00000000
00000000
00000000
00000000
00000000
00000000
00000000
00000000
00000000
00000000
00000000
00000000
00000000
00000000
00000000
00000000
00000000
00000000
00000000
00000000
00000000
00000000
00000000
00000000
00000000
00000000
00002000
00000000
00030000
00000000
00000000
00000000
00000000
00000000
00000000
00000000
00000000
00000000
00000000
00000000
00000000
00000000
00000000
00000000
00000000
00000000
00000000
00000000
00000000
00000000
00000000
00000000
00000000
00000000
00000000
00000000
00000000
00000000
,
00013000
01000000
00100000
00010000
,
10000000
01000000
00010000
00001000
,
00000100
00000001
00000010
00000100
,
00010000
00001000
00010000
00001000
00010000
00000000
00001000
00000000
,
01000000
00100000
10000000
00010000
,
00100000
00001000
00010000
00000100
,
00000010
00000001
00000100
00001000
,
01000000
00010000
01000000
00010000
01000000
00000000
00100000
00000000
,
10000000
01000000
00100000
00001000
,
00010000
01000000
10000000
00100000
,
00010000
00001000
00000010
00000001
,
00001000
00000100
00001000
00000100
00001000
00000000
00000010
00000000
,
00010000
00001000
00000000
00011000
,
00000000
00100000
02000000
00000000
,
00000000
00100000
00000000
03100000
,
00020000
00032000
00003200
00000302
,
00001003
00000000
00000010
00000100
00000010
00000000
00011000
00000000
01001000
00000000
00000000
00000000
00000000
11000000
00000000
00000000
,
00110000
00000000
00000000
00000000
00000000
00000000
01000000
00000000
00000000
10000000
00000000
00000000
01000000
00000000
00000000
00000000
00000000
00000000
00010000
00000000
00000000
00000000
00000000
00000000
00011000
00000000
00000000
00000000
00000010
00000000
00000000
00000000
00000001
00000000
00000000
00000000
00000010
00000000
00000000
00000000
00000000
00000000
00000000
00000000
00000000
00000000
00000000
00000000
,
00002000
00000100
00000001
00000010
00023000
01000000
10000000
00100000
,
00031000
00000100
00000010
00001000
00010000
01000000
01100000
00000000
,
10000000
01000000
00010000
00000000
00001000
00000000
00000100
00000001
,
00000010
00001000
00010000
00000000
00010000
01000000
10000000
01000000
,
00010000
00001000
00000100
00000000
00000001
00000000
00000010
00000001
,
00000100
00000000
00001000
00000000
00010000
00001000
00011000
00000000
,
01000000
00100000
01000000
00000000
10000000
01000000
10000000
00000000
,
00100000
00001000
00100000
00000000
00010000
00000100
00010000
00000000
,
00001000
00001001
00000000
00000110
00000000
00011000
00000000
01100000
,
10000000
00020000
00031000
01000000
,
00010000
20000000
00000000
00000000
,
31000000
00100000
00001000
00000100
,
00000002
00000000
00000000
00001003
,
00000000
00000010
00010010
00000000
,
00001000
00101000
00000000
00000000
,
10010000
10010000
00000000
01100000
,
00000000
00101000
00000000
02020000
,
00000000
03030000
10000000
00100000
,
01000000
00002000
00013000
00100000
,
00010000
00000010
00000200
00000000
,
00000000
00000301
00000000
00000000
,
00011000
00000000
10000000
00010000
,
00000000
00000000
00100000
00101000
,
00000000
00010100
00000000
00000011
,
00000000
00002002
00000000
00003003
,
00000100
00010000
00100000
02000000
,
00000000
00000000
13000000
01000000
,
00010000
01000000
00200000
00000000
,
00000000
01300000
00000000
00001000
,
00011000
00000000
00000010
00001010
,
00000000
00000000
00001001
00001001
,
00000000
00000110
00000000
00010010
,
00000000
00002200
00000000
00003300
,
00100000
00001000
01000000
20000000
,
00000000
00000000
31000000
00100000
,
10000000
00010000
00002000
00000000
,
00000000
00013000
00000000
00000000
,
00011000
00000000
00001010
00001100
,
00000000
00000000
00000101
00000000
,
00010010
01001000
00011000
00000000
,
00000000
00000000
10010000
00000000
01100000
00000000
10000000
01000000
,
10000000
00000000
00100000
00001000
00000000
00001000
00100000
00000000
,
00001000
00010000
00011000
00000000
00000110
00000000
00000001
00000100
,
00000001
00000000
00000010
00010000
00000000
00011000
00000000
00011000
,
00000000
00000000
01100000
00000000
10010000
00000000
00100000
00010000
,
00001000
00000000
00000010
00000001
00000000
00000001
00001000
00000000
,
00011000
00000000
00000110
00000000
00001001
00000000
00000100
00010000
,
01000000
00000000
00000000
00100000
00010000
00001000
00000010
00001000
00010000
00200000
00000000
00000000
,
00000000
00000000
00000000
00000000
00000000
00000000
01300000
10000000
,
01000000
00010000
01000000
00100000
01000000
00010000
00100000
00001000
,
00010000
00000010
00010000
00001000
00011000
00000000
00001000
00000100
,
00000001
00000100
00000010
00000100
00000001
00000010
00001000
00010000
,
00001000
00000100
00000010
00010000
00011000
00000000
00010000
00100000
,
00010000
00001000
00010000
01000000
10000000
00100000
01000000
00010000
,
00100000
00001000
00000010
00001000
00011000
00000000
00001000
00000100
,
00000001
00000100
00000010
00001000
00000100
00010000
00001000
00100000
,
00010000
01000000
00001000
00010000
00011000
00000000
00010000
00000000
,
00001000
00100000
01000000
10000000
,
01000000
00000000
00100000
00000000
00001000
00000000
00010000
00001000
,
00010000
00000000
00000100
00000000
00000010
00000000
00000001
00000100
,
00000010
00000100
00000001
00000000
00001000
00000000
00010000
00000000
,
00100000
00000000
00010000
00000000
10000000
00000000
00010000
01000000
,
00010000
00100000
00001000
00010000
,
00000010
00000000
00001000
00000000
00000010
00000000
00000100
00000001
,
00001000
00000001
00000100
00000000
00000010
00000000
00001000
00000000
,
00010000
00000000
00000100
00000000
00010000
00000000
00001000
00100000
,
00001000
00000000
01000000
00000000
00100000
00000000
10000000
01000000
,
10000000
00000000
01000000
00000000
00010000
00000000
00001000
00000100
,
00001000
00000100
00000010
00000100
00000010
00000000
00000100
00000000
,
00001001
00000000
00011000
00000000
,
01100000
10010000
00000000
00000000
,
00011000
00000000
00000000
00000000
00001001
00000000
00000010
00001000
,
00000100
00010000
00001000
00100000
00001000
00000000
00020000
00000000
,
00000000
00000000
00001000
00000000
00002000
00000000
00000000
00000000
00003000
00000000
00000000
00030010
00000000
00000000
00000000
00010000
,
00001000
00010000
00000000
00000010
00000000
00010200
00000000
00001000
00000000
00000000
00000000
00000000
00000300
00000000
00000000
00000000
,
00000000
00000000
00000000
00000000
;

//---------------dance-double - ----------------
#NOTES:
     dance-double:
     :
     Challenge:
     18:
     0.627227,1.356264,0.549716,0.342680,0.171340,615.000000,538.000000,77.000000,48.000000,0.000000,0.000000,0.627227,1.356264,0.549716,0.342680,0.171340,615.000000,538.000000,77.000000,48.000000,0.000000,0.000000:
00000000
00000000
00000000
00000000
,
00000000
00000000
00000000
00000000
,
00000000
00000000
00000000
00000000
,
00000000
00000000
00000000
00000000
,
00000000
00000000
00000000
00000000
,
00020100
00000000
01030000
00000000
00001000
00010000
00010000
00000000
,
00000100
00000110
00000000
00000100
00010100
00000000
00001000
01000000
,
01002000
00000000
00003100
00000000
00010000
00001000
00001000
00000000
,
00000001
00000100
00001000
00010000
01000000
10000000
02000000
00000000
00000000
00000000
00000000
00000000
,
00100000
00000000
00000000
00000000
03010000
10000000
01000000
00100000
,
00000000
00011000
00001000
00010000
00000010
00001000
00000001
00000100
,
00000000
00000110
00000010
00000100
00000001
00000010
00000100
00001000
,
00000000
00010100
00010000
00000010
00010000
01000000
10000000
10000000
,
00000000
01000000
01000000
01000000
00100000
00001000
00000010
00000001
,
00000000
00001001
00000001
00000100
00001000
00010000
01000000
00100000
,
00000000
00101000
00001000
01000000
00100000
10000000
01000000
00010000
,
00000000
00101000
00100000
00010000
00001000
00000100
00000010
00000001
,
00000100
00000000
00000000
00001000
00000000
00000000
00010000
00000000
00000000
00001000
00000000
00000000
00010000
01000000
10000000
01000000
00010000
00001000
00000100
00000001
00000100
00001000
00010000
01000000
,
10000000
10100000
01001000
00011000
00010010
00001001
,
00000100
00000001
00000010
00000100
,
00010000
00001000
00010000
00000000
00001000
00000000
00100000
00000000
,
01000000
10000000
01000000
00010000
,
00001000
00010000
00001000
00010000
00001000
00000000
00010000
00000000
,
00000100
00000010
00000001
00000100
,
00010000
00001000
00010000
00000000
00001000
00000000
01000000
00000000
,
00100000
10000000
01000000
00100000
,
00010000
00001000
00010000
00001000
00010000
00000000
00000010
00000000
,
00000100
00000001
00000100
00000000
00001000
00000000
00000100
00000000
,
00000010
00010000
00001000
00100000
,
01000000
10000000
01000000
00000000
00010000
00000000
00001000
00000000
,
00000100
00000010
00001000
00000001
,
00001001
00001001
00000000
00011000
,
00000000
10010000
20020000
00000000
,
30030000
01100000
00000000
00101000
,
00010000
00001000
00000010
00000001
,
00000100
00000000
00000100
00000000
00000010
00000000
00000010
00000000
00010000
00000000
00010000
00000000
00001000
00001000
00100000
00100000
,
00010000
00000000
00000000
00000000
00000000
00000000
00000000
00000000
00000000
00000000
00000000
00000000
00000000
00000000
00000000
00000000
00000000
00000000
00000000
00000000
00000000
00000000
00000000
00000000
00010000
00000000
00000000
00000000
00000000
00000000
00000000
00000000
00000000
00000000
00000000
00000000
00000000
00000000
00000000
00000000
00000000
00000000
00000000
00000000
00000000
00000000
00000000
00000000
10000000
00000000
00000000
00000000
00000000
00000000
00000000
00000000
00000000
00000000
00000000
00000000
10000000
00000000
00000000
00000000
00000000
00000000
00000000
00000000
00000000
00000000
00000000
00000000
01000000
00000000
00000000
00000000
00000000
00000000
00000000
00000000
00000000
00000000
00000000
00000000
00000000
00000000
00000000
00000000
00000000
00000000
00000000
00000000
00000000
00000000
00000000
00000000
00020000
00000000
00000000
00000000
00000000
00000000
00000000
00000000
00000000
00000000
00000000
00000000
00000000
00000000
00000000
00030000
00002000
00000000
00000000
00000000
00000000
00000000
00000000
00000000
00000000
00000000
00000000
00000000
00000000
00000000
00000000
00000000
00020000
00003000
00000000
00000000
00000000
00000000
00000000
00000000
00000000
00000000
00000000
00000000
00000000
00000000
00000000
00000000
00031000
00000000
00000000
00000000
00000000
00000000
00000000
00000000
00000000
00000000
00000000
00000000
00000000
00000000
00000000
00000000
00000000
00000000
00000000
00000000
00000000
00000000
00000000
00000000
00000000
00000000
00000000
00000000
00000000
00000000
00000000
00000000
00000000
00000000
00000000
00000000
00000000
00000000
00000000
00000000
00000000
00000000
00000000
00000000
00000000
00000000
00000000
00000000
,
00000010
00000000
00000010
00000001
00000000
00000001
00000100
00000000
00000100
00001000
00000000
00001000
00010000
00000000
00010000
00100000
00000000
00100000
10000000
00000000
10000000
01000000
00000000
01000000
,
00010000
00000000
00010000
00000010
00000000
00000010
00001000
00000001
00001000
00000001
00000000
00000001
00000100
00000000
00000100
00001000
00000000
00001000
00010000
01000000
10000000
01000000
00000000
00000000
,
00100000
01000000
00010000
01000000
20000000
00000000
30010000
00100000
,
00001000
00000010
00000002
00000000
00001003
00000010
00000001
00000010
,
00001000
00000100
00010000
01000000
20000000
00000000
30010000
01000000
,
10000000
01000000
00020000
00000000
00130000
01000000
00010000
00001000
,
00000100
00000010
00020000
00000000
00030100
00001000
00000200
00000000
,
00001300
00000010
00020000
00000000
00130000
10000000
00200000
00000000
,
10300000
01000000
00010000
00001000
00010000
00000100
00000001
00000100
,
00000010
00000100
00001000
00000001
00001000
00000000
00000010
00000000
,
00010000
00022000
00000000
00033000
,
01000000
00100000
01000000
00100000
,
02200000
00000000
03300000
10010000
,
00000000
00210000
00301000
00000000
,
02001000
03010000
00000000
00000000
,
00001000
00011000
00000000
00010100
,
00000000
00000011
00000000
00002002
,
00000000
00003003
00000010
00010000
,
00001000
02000000
03010000
00100000
,
10000000
00100000
22000000
00000000
,
33000000
10010000
00000000
00000000
,
00101000
00000000
12000000
03010000
,
00000000
00000000
00010020
00000130
,
00000000
00001001
00000000
00000110
,
00000000
00022000
00000000
00033000
,
00100000
00100000
01000000
02200000
,
00000000
03300000
10000000
01000000
,
00010000
00001000
00000200
00000000
,
00000000
00000301
00000000
00000001
,
00000011
00000000
00000010
00000110
,
00000000
00000000
00001001
00010100
,
00000000
00011000
00000000
00110000
,
00000000
02020000
00000000
03030000
,
00100000
10000000
10000000
21000000
,
00000000
00000000
30010000
00100000
,
00001000
00001000
00022000
00000000
,
00033000
00000010
00000000
00000000
,
00001001
00000000
00020010
00030100
,
00000000
00000000
01010000
00000000
,
10100000
01010000
00011000
00000000
,
00000000
00000000
00020100
00000000
01030000
00000000
00001000
00010000
,
00010000
00000000
00000100
00000110
00000000
00000100
00010100
00000000
,
00001000
00010000
00102000
00000000
00003010
00000000
00000000
00011000
,
00000000
00000000
00100000
10000000
00000000
01000000
00000000
00011000
,
00000000
00000000
00102000
00000000
00003010
00000000
00010000
00001000
,
00001000
00000000
00100000
01100000
00000000
00100000
00101000
00000000
,
00010000
00000010
00020010
00000000
00130000
00000000
00001000
00010000
,
00010000
00000000
00000000
10000000
00100000
00010000
00001000
00000010
00000001
00000020
00000000
00000000
,
00000000
00000000
00000100
00000000
00000000
00000000
00001030
00000001
,
00000010
00000100
00000000
00011000
00010000
00001000
01000000
00010000
,
10000000
00100000
00000000
01100000
01000000
00100000
10000000
01000000
,
00100000
00010000
00000000
00101000
00001000
01000000
00001000
00000010
,
00000001
00000001
00000000
00000010
00000010
00000010
00000100
00010000
,
01000000
10000000
00000000
10010000
10000000
00100000
00010000
00001000
,
00000010
00000100
00000000
00010100
00010000
00000010
00000100
00000001
,
00000010
00001000
00000000
00010100
00000100
00001000
00010000
00100000
,
01000000
10000000
00100000
00010000
00001000
00010000
00100000
00000000
,
10000000
10000000
01000000
10000000
,
01000000
00000000
00100000
00000000
00001000
00000000
00010000
00001000
,
00010000
00000000
00000100
00000000
00000010
00000000
00000001
00000100
,
00001000
00010000
01000000
00000000
10000000
00000000
00010000
00000000
,
00100000
00000000
00001000
00000000
00010000
00000000
00000010
00001000
,
00000010
00000100
00000100
00000001
,
00000010
00000000
00001000
00000000
00000010
00000000
00000001
00000100
,
00001000
00010000
01000000
00000000
10000000
00000000
00100000
10000000
,
00100000
10000000
00010000
01000000
00010000
01000000
00001000
00100000
,
00001000
00100000
00000100
00010000
00000100
00010000
00000010
00001000
,
00000010
00001000
00000001
00000010
00000001
00000010
00000001
00000100
,
00001000
00010000
01000000
10000000
01000000
00000000
00100000
00000000
,
10010000
00000000
00011000
00000000
,
00000110
00001001
00000000
00000000
,
00011000
00000000
00000000
00000000
10010000
00000000
00100000
10000000
,
01000000
00010000
00001000
00000100
00000001
00000000
00002000
00000000
,
00000000
00000000
00010000
00000000
00020000
00000000
00000000
00000000
00033000
00000000
00000000
00100000
00000000
00000000
00000000
10000000
,
01000000
00100000
00010000
00001000
00000100
00000010
00000001
00000200
00000000
00000000
00000000
00000000
00000300
00000000
00000000
00000000
,
00000000
00000000
00000000
00000000
;
