#TITLE:Treble, Bass and Attitude (CLSM Remix);
#SUBTITLE:;
#ARTIST:The Acolyte;
#TITLETRANSLIT:;
#SUBTITLETRANSLIT:;
#ARTISTTRANSLIT:;
#GENRE:;
#CREDIT:;
#BANNER:Treble, Bass & Attitude (CLSM Remix).png;
#BACKGROUND:Treble, Bass & Attitude (CLSM Remix)-bg.png;
#LYRICSPATH:;
#CDTITLE:;
#MUSIC:Treble, Bass & Attitude (CLSM Remix).ogg;
#OFFSET:-1.366000;
#SAMPLESTART:32.930016;
#SAMPLELENGTH:15.000000;
#SELECTABLE:YES;
#BPMS:0.000000=172.039993
;
#STOPS:
;
#BGCHANGES:;
#KEYSOUNDS:;
#ATTACKS:;

//---------------dance-single - ----------------
#NOTES:
     dance-single:
     :
     Beginner:
     3:
     0.138252,0.167682,0.000000,0.000000,0.000000,101.000000,101.000000,0.000000,0.000000,0.000000,0.000000,0.138252,0.167682,0.000000,0.000000,0.000000,101.000000,101.000000,0.000000,0.000000,0.000000,0.000000:
0000
0000
0000
0000
,
0000
0000
0000
0000
,
0000
0000
0000
0000
,
1000
0000
0000
0000
,
0001
0000
0000
0000
,
0100
0000
0100
0000
,
0010
0000
0010
0000
,
1000
0000
0000
0000
,
0001
0000
0000
0000
,
0100
0000
0000
0000
,
0010
0000
0000
0000
,
1000
0000
0000
0000
,
0001
0000
0000
1000
,
0000
0000
0000
0010
,
0000
0000
0000
0100
,
0000
0000
0000
0001
,
0000
0000
1000
0000
,
0000
0001
0000
1000
,
0000
0001
0000
0100
,
0000
0010
0000
0100
,
0000
0001
0000
1000
,
0000
0010
0000
1000
,
0000
0000
0000
0000
,
0000
0000
0000
0001
,
0000
0000
0000
1000
,
0000
0000
0001
0000
,
0000
1000
0000
0000
,
0001
0000
0000
0000
,
1000
0000
0000
0000
,
0010
0000
0000
0000
,
0100
0000
0001
0000
,
0100
0000
0010
0000
,
1000
0000
0001
0000
,
1000
0000
0000
0000
,
0001
0000
0100
0000
,
0001
0000
0000
0000
,
1000
0000
0010
0000
,
1000
0000
0000
0000
,
0001
0000
0100
0000
,
0001
0000
0000
0000
,
1000
0000
0010
0000
,
1000
0000
0001
0000
,
0100
0000
0000
0000
,
0010
0000
1000
0000
,
0010
0000
0100
0000
,
0001
0000
1000
0000
,
0001
0000
1000
0000
,
0010
0000
0100
0000
,
0010
0000
1000
0000
,
0001
0000
1000
0000
,
0001
0000
0100
0000
,
0010
0000
0100
0000
,
0001
0000
1000
0000
,
0001
0000
0010
0000
,
0001
0000
0100
0000
,
1000
0000
0100
0000
,
0001
0000
0010
0000
,
1000
0000
0000
0010
,
0000
0000
0001
0000
,
1000
0000
0001
0000
,
0100
0000
0010
0000
,
0100
0000
0001
0000
,
1000
0000
0000
0000
,
1000
0000
0000
0000
,
0001
0000
0000
0000
,
0001
0000
0000
0000
,
0100
0000
0000
0000
,
0100
0000
0000
0000
,
0010
0000
0000
0000
,
0010
0000
0000
0000
,
1000
0000
0000
0000
;

//---------------dance-single - ----------------
#NOTES:
     dance-single:
     :
     Easy:
     4:
     0.273767,0.301828,0.009582,0.000000,0.000000,200.000000,199.000000,1.000000,0.000000,0.000000,0.000000,0.273767,0.301828,0.009582,0.000000,0.000000,200.000000,199.000000,1.000000,0.000000,0.000000,0.000000:
0000
0000
0000
0000
,
0000
0000
0000
0000
,
0000
0000
0000
0000
,
1000
0000
0001
0000
,
1000
0000
0010
0000
,
0100
0000
0010
0000
,
1000
1000
1000
0000
,
0001
0010
0001
0000
,
0100
0010
0100
0000
,
0010
0010
0010
0000
,
1000
0001
1000
0000
,
0001
0001
0001
0000
,
0100
0010
0000
0100
,
0001
0100
0000
0010
,
1000
0010
0000
1000
,
0001
1000
0000
0001
,
0100
0001
0000
1000
,
0010
1000
0000
0001
,
1000
0001
0000
1000
,
0001
1000
0001
1000
,
0001
1000
0001
1000
,
1000
0010
0010
0100
,
0100
0001
1000
0001
,
0100
0010
0100
0001
,
1000
0001
0000
1000
,
1000
1000
0000
0001
,
0001
0001
0000
0100
,
0100
0100
0000
0010
,
0010
0010
0000
1000
,
1000
1000
0001
0001
,
0001
0000
1000
1000
,
1000
0000
0010
0010
,
0010
0000
0100
0100
,
0100
0000
0001
0010
,
0001
0000
1000
0100
,
1000
0000
0001
0010
,
0001
0000
0100
0010
,
0100
0000
0010
1000
,
0010
1000
0010
0000
,
0100
0000
0001
0000
,
1000
0000
0010
0000
,
1000
0000
1001
0000
,
0001
1000
0001
0000
,
1000
0010
1000
0000
,
0010
0100
0010
0000
,
0100
0001
0100
0000
,
0000
0001
0000
0000
,
1000
0001
0000
1000
,
0001
0000
1000
0010
,
1000
0000
0010
0100
,
0010
0000
1000
0001
,
1000
0000
0001
0100
,
0001
0000
1000
0010
,
1000
0000
0010
0100
,
0010
0000
1000
0001
,
1000
0000
0001
0100
,
0001
0000
1000
0010
,
1000
0000
0010
0100
,
0010
0000
0100
0001
,
0100
0000
0001
1000
,
0001
0000
1000
0010
,
1000
0000
0010
0100
,
0010
0000
0010
0100
,
0010
0000
0100
0001
,
0100
0000
0001
0000
,
1000
0001
0000
0000
,
1000
0010
1000
0000
,
0010
0100
0010
0000
,
0100
0001
0100
0000
,
0001
1000
0001
1000
,
0001
0000
0000
0000
;

//---------------dance-single - ----------------
#NOTES:
     dance-single:
     :
     Medium:
     8:
     0.399700,0.434417,0.047909,0.000000,0.000000,292.000000,287.000000,5.000000,0.000000,0.000000,0.000000,0.399700,0.434417,0.047909,0.000000,0.000000,292.000000,287.000000,5.000000,0.000000,0.000000,0.000000:
0000
0000
0000
0000
,
0000
0000
0000
0000
,
0000
0000
0000
0000
,
1000
0000
0001
0000
1000
0000
0010
0100
,
0010
0100
0001
0010
,
0001
0000
1000
0000
0100
0000
1000
0010
,
1000
0010
0100
0001
,
0010
0000
0001
0000
1000
0000
0001
1000
,
0001
0000
0100
0000
0010
0000
0100
0010
,
1000
0001
0100
1000
,
0100
0001
1000
0001
,
1000
0000
0010
0000
0100
0010
0100
0000
,
0001
0000
1000
0000
0001
0100
0001
0000
,
0100
0010
1000
0100
,
1000
0000
0001
0000
0010
0001
0010
0000
,
0001
0000
0100
0000
0010
0100
0010
0000
,
1000
0000
0100
0000
1000
0001
1000
0000
,
0001
0000
0100
0000
0010
0100
0010
0000
,
0100
0010
0100
0000
0010
1000
0010
0000
,
1000
0010
1000
0000
0001
0000
0100
0000
,
0010
0100
0001
1000
,
1000
0001
0001
0100
,
0100
0010
0010
1000
,
0001
0000
0100
0000
0010
0100
0010
0000
,
1000
0000
0001
0000
1000
0001
1000
0000
,
0001
0100
0010
0100
,
0001
1000
0001
1000
,
0010
0000
0100
0001
0100
0000
0010
0000
,
1000
0100
1000
0010
,
1000
0000
0001
0000
0100
0001
0100
0000
,
0010
1000
0001
0100
,
0010
0000
0100
0010
0100
0000
0001
0000
,
1000
0000
0010
1000
0010
0000
1000
0000
,
0001
0100
0010
0100
,
0101
0001
1000
0010
,
1010
1000
0001
0100
,
0110
0010
1000
0001
,
0101
0100
0010
1000
,
0001
1000
0001
0000
1000
0001
1000
0000
,
0001
0100
0010
0100
,
0001
0010
0001
1000
,
0010
1000
0100
1000
,
0001
0010
0001
0100
,
0010
0100
0001
1000
,
0010
1000
0010
0100
,
0001
0010
0001
0000
,
1000
0001
1000
0000
,
0001
0010
0001
0100
,
0001
0000
0100
0010
,
0100
0001
0100
0000
,
0010
1000
0010
0100
,
0010
0000
0100
0001
,
1000
0001
0100
0000
,
0010
1000
0001
1000
,
0100
0010
0001
0010
,
0001
0000
1000
0001
1000
0000
0010
0000
,
0100
0010
0100
0010
,
1000
0001
1000
0001
,
0100
0000
0010
1000
0010
0000
1000
0000
,
0001
0100
0010
0100
,
0001
0000
1000
0100
1000
0000
0010
0000
,
0100
0001
0010
0001
,
1000
0100
1000
0100
,
0010
0001
0010
0001
,
1000
0001
1000
0001
,
0100
0010
0100
0001
,
1000
0100
1000
0010
,
0100
0010
1000
0001
,
0100
0010
0100
0001
,
1000
0000
0001
1000
0001
0000
1001
0000
;

//---------------dance-single - ----------------
#NOTES:
     dance-single:
     :
     Hard:
     12:
     0.659779,0.637193,0.344947,0.009582,0.479092,482.000000,446.000000,36.000000,1.000000,0.000000,0.000000,0.659779,0.637193,0.344947,0.009582,0.479092,482.000000,446.000000,36.000000,1.000000,0.000000,0.000000:
// measure 0
0000
0000
0000
0000
,  // measure 1
0000
0000
0000
0000
,  // measure 2
0000
0000
0000
0000
,  // measure 3
1010
0000
0000
1000
0001
0000
0000
0001
0100
0000
0000
0000
0010
0000
1000
0000
,  // measure 4
0001
0000
0000
0001
0100
0000
0000
0100
0010
0000
0000
0000
0100
0000
0001
0000
,  // measure 5
1000
0000
0000
1000
0010
0000
0000
0010
0001
0000
0000
0001
0010
0000
0000
0010
,  // measure 6
1000
0000
0000
1000
0001
1000
0001
1000
0020
0000
0000
0000
0000
0000
0030
0000
,  // measure 7
0100
0000
0000
0100
0001
0000
0000
0001
0100
0000
0000
0001
0000
0100
0000
1000
,  // measure 8
0100
0000
0000
0001
1000
0000
0000
1000
0001
0000
0000
0100
0000
0010
0000
0100
,  // measure 9
0001
0000
0000
0001
1000
0000
0000
1000
0010
0000
0000
0010
0100
0000
0000
0100
,  // measure 10
0001
0000
0000
0001
1000
0000
0000
1000
0001
0000
0000
0001
0100
0000
0000
0100
,  // measure 11
0010
0000
0000
0010
1000
0000
0000
1000
0001
0000
0100
0000
0010
0000
1000
0010
,  // measure 12
0000
0000
0010
1000
0000
0000
1000
0001
0000
0000
0001
0000
0100
0000
0010
0000
,  // measure 13
0000
0101
0000
0110
0000
1010
0000
1001
,  // measure 14
0000
0101
0000
0110
0000
1010
0000
0001
,  // measure 15
0000
0001
0100
0000
0000
0100
0010
0000
0000
1000
0000
0001
0000
0100
0001
0000
,  // measure 16
0000
0001
1000
0000
0000
1000
0010
0000
0000
0100
0000
0001
0000
1000
0010
0000
,  // measure 17
0000
0010
0100
0000
0000
0100
0010
0000
1000
0000
0001
0000
0100
0010
0000
0000
,  // measure 18
0010
0001
0000
0000
0001
0010
0000
0000
0010
0000
1000
0000
0001
0000
0000
0000
,  // measure 19
1001
0000
0000
0001
0100
0000
0000
0000
0110
0000
0000
0000
1010
0000
0000
0000
,  // measure 20
1001
0000
0000
0001
0100
0000
0000
0000
0110
0000
0000
0010
1000
0000
0000
0000
,  // measure 21
1100
0000
0000
0000
0110
0000
0000
0000
0011
0000
0000
0000
0100
0010
0100
0000
,  // measure 22
0010
0000
0100
0000
0001
0000
0010
0000
0001
0000
0000
0001
0100
0000
0000
0100
,  // measure 23
0010
0000
0000
0010
0100
0000
0000
0001
0000
1000
0000
0010
0000
0000
0010
0100
,  // measure 24
0000
0000
0100
0001
0000
0000
0000
1000
0000
0010
0000
0001
0000
0000
0001
0010
,  // measure 25
0000
0000
0010
1000
0000
0000
1000
0100
0000
0000
0100
0001
0000
0000
0001
0100
,  // measure 26
0000
0000
0100
1000
0000
0000
1000
0000
0001
0000
0010
0000
0000
0010
0001
0000
,  // measure 27
0000
0001
1000
0000
0000
1000
0100
0000
0000
0100
0010
0000
0000
0010
1000
0000
,  // measure 28
0000
1000
0001
0000
0000
0100
0000
0010
0000
1000
0000
0000
1000
0001
0000
0000
,  // measure 29
0001
0100
0000
0000
0110
0000
0000
0000
0001
0000
0000
0000
0001
0100
0000
0000
,  // measure 30
0100
1000
0000
0000
0100
0000
0001
0000
1000
0000
0000
0000
1000
0100
0000
0000
,  // measure 31
0100
0010
0000
0000
0010
0000
0001
0000
0100
0001
0000
0000
0001
1000
0000
0000
,  // measure 32
1000
0010
0000
0000
0010
0000
0100
0000
0001
0000
0000
0000
1010
0000
0000
0000
,  // measure 33
0110
0101
0011
0110
,  // measure 34
1100
0000
0000
0000
1000
0000
0001
0000
0010
0000
0000
0010
0100
0000
0000
0100
,  // measure 35
0010
0000
0000
0010
0001
0000
1000
0000
0001
0000
0000
0001
0100
0000
0000
0100
,  // measure 36
1000
0000
0000
1000
0100
0000
0001
0000
0100
0000
0000
0100
0010
0000
0000
0010
,  // measure 37
1000
0000
0000
1000
0001
0000
0100
0000
0010
1000
0010
0000
1000
0000
0001
0000
,  // measure 38
1000
0100
1000
0000
0010
0000
0100
0000
0001
0000
0100
0000
0010
0000
0000
0000
,  // measure 39
1000
0010
1000
0000
0001
0100
0010
0000
,  // measure 40
0010
0100
0000
0001
0000
1001
0000
1000
,  // measure 41
0010
1000
0000
0010
0100
0010
0000
0100
,  // measure 42
0001
1000
0000
0001
0010
0001
0000
0100
,  // measure 43
0010
1000
0000
0001
0100
0001
0000
1000
,  // measure 44
0100
1000
0000
0001
1000
0001
0000
0100
,  // measure 45
0010
1010
1001
0101
,  // measure 46
0110
0000
0010
0000
0100
0001
0000
0001
,  // measure 47
1000
0000
0110
0000
0100
0001
0000
0001
,  // measure 48
0010
0000
0101
0000
0010
1000
0000
1000
,  // measure 49
0010
0000
0101
0000
1000
0010
0000
0010
,  // measure 50
0100
0010
1000
0000
1000
0010
0000
0100
,  // measure 51
0001
0000
1000
0001
0010
0000
0010
0100
,  // measure 52
0000
1000
0000
0001
0100
0000
0100
0010
,  // measure 53
0000
1000
0100
0010
0001
1000
0100
0010
,  // measure 54
0000
1001
0000
1000
0010
0000
0110
0000
,  // measure 55
0100
0001
0000
0001
1000
0001
0100
0000
,  // measure 56
0010
1000
0100
1000
0001
0010
0001
0000
,  // measure 57
0100
0010
1000
0010
0100
0001
0010
0000
,  // measure 58
0100
1000
0010
0100
0010
1000
0001
0000
,  // measure 59
0100
0001
1000
0001
0010
0100
0000
1000
,  // measure 60
0001
0100
0010
0100
0001
1000
0000
0010
,  // measure 61
0100
0010
1000
0010
0100
0010
0000
0100
,  // measure 62
0001
0010
0001
0100
0001
0010
0000
1000
,  // measure 63
0010
0100
0010
1000
0010
0100
0000
0001
,  // measure 64
1000
0010
1000
0100
1000
0001
0000
0100
,  // measure 65
0010
1000
0010
0100
0010
1000
0000
0001
,  // measure 66
0010
0001
0100
0010
0100
0001
0000
0100
,  // measure 67
0001
0010
0001
1000
0100
1000
0000
0010
,  // measure 68
0100
0000
0001
0000
0100
0000
0010
0000
1000
0000
0001
0000
0000
0000
0000
1000
,  // measure 69
0000
0001
1000
0000
1010
0000
0110
0000
,  // measure 70
1001
0000
0000
0000
;
