#TITLE:The Remixer;
#SUBTITLE:;
#ARTIST:Various Artists;
#TITLETRANSLIT:D;
#SUBTITLETRANSLIT:;
#ARTISTTRANSLIT:Ryu;
#GENRE:;
#CREDIT:;
#BANNER:The Remixer.png;
#BACKGROUND:The Remixer-bg.png;
#LYRICSPATH:;
#CDTITLE:;
#MUSIC:The Remixer.ogg;
#OFFSET:1.620000;
#SAMPLESTART:37.429993;
#SAMPLELENGTH:15.000000;
#LASTBEATHINT:1.659162;
#SELECTABLE:YES;
#BPMS:0.000000=170.110001
,72.000000=175.600006
,80.000000=177.029999
,144.000000=154.929993
,206.000000=178.000000
;
#STOPS:
;
#BGCHANGES:;
#KEYSOUNDS:;
#ATTACKS:;

//---------------dance-single - ----------------
#NOTES:
     dance-single:
     :
     Hard:
     15:
     0.846761,0.889949,0.374178,0.153073,0.497487,697.000000,653.000000,44.000000,18.000000,0.000000,0.000000,0.846761,0.889949,0.374178,0.153073,0.497487,697.000000,653.000000,44.000000,18.000000,0.000000,0.000000:
0000
0000
0000
0000
,
0000
0000
0000
0000
,
0000
0000
0000
0000
,
0001
0000
0010
0000
1000
0000
0010
0000
0001
0100
0000
0010
0100
0000
0001
0010
,
0000
0000
0100
0000
1000
0000
0010
0000
0001
0000
0010
1000
0010
0000
0001
0000
,
0010
0000
1000
0000
0100
0000
0001
0000
0100
1000
0000
0001
1000
0000
0010
1000
,
0000
0000
0001
0000
0100
1000
0100
1000
0100
0000
0001
0000
0010
0000
0100
0000
,
1000
0000
0010
0000
0001
0000
0010
0000
1010
0000
0000
1100
0000
0000
0110
0000
,
0000
0011
0000
0000
0001
0100
0000
0000
0100
0000
1000
0100
1000
0000
0100
0000
,
0001
0000
0010
0000
0100
0000
1000
0000
1010
0000
0000
0100
0010
0000
1000
0010
,
0100
0001
0010
0001
0100
0001
0010
0001
0100
0000
0100
0000
0010
1000
0010
0000
,
1010
0000
1000
0000
0001
0010
0001
0000
0100
0000
0100
0000
1000
0001
1000
0000
,
0100
0000
0001
0000
0100
1000
0001
0000
1000
0000
0010
0000
0100
0000
0100
0000
,
0001
0000
0001
0000
0010
1000
0010
0000
0001
0000
0001
0000
0100
0010
0100
0000
,
0001
0000
0010
0001
0100
0000
0010
1000
0001
0000
0010
0000
0100
1000
0100
1000
,
0001
0010
0100
1000
1010
0001
0010
1000
,
0001
0000
0100
1000
0100
0000
0001
0000
0010
0000
0110
0000
0100
0000
1000
0010
,
0100
0000
0001
0000
0100
0000
0010
0000
1000
0100
1000
0001
1000
0100
1000
0001
,
2000
0000
0000
0000
,
3010
0000
0000
0000
0110
0000
0000
0000
0000
0010
0000
0100
0000
1100
0000
0000
,
1001
0000
0000
0011
0000
0000
0010
0000
0100
0000
0100
0000
1000
0000
0010
0000
,
0100
0000
0001
0010
0001
0000
1000
0000
0010
0000
0010
0000
0100
0000
0001
0000
,
1000
0000
0001
1000
0001
0000
0100
0000
0010
0000
1000
0000
0100
0000
0001
0000
,
0100
0000
1000
0010
1000
0000
0001
0000
0100
0000
0010
0000
0100
0000
0001
0000
,
0010
0001
0010
0001
0100
0000
0010
0000
1000
0000
0010
0000
0100
0000
0001
0000
,
1000
0010
1000
0000
0010
0000
0100
0000
0001
0000
0010
0000
0100
0000
1000
0000
,
0001
1000
0001
0000
1000
0000
0010
0000
0100
0010
0100
0000
0010
0000
1000
0000
,
0001
1000
0001
0000
1000
0000
0010
0000
0100
0000
0001
0000
0021
0000
0000
0000
,
0130
1000
0100
0000
1000
0000
0010
0000
0100
0000
0001
0000
0010
0001
1000
0000
,
0100
0000
1000
0010
1000
0000
0001
0000
0100
0000
0010
0000
0100
0000
0001
0000
,
0010
0000
0100
1000
0100
0000
1000
0000
1010
0000
0010
0100
0010
0000
0100
0000
,
0101
0000
0001
0010
0001
0000
0010
0000
0100
0000
1000
0000
0010
0000
1000
0000
,
0001
0000
0010
0001
0100
0000
0010
0000
1000
0000
0100
1000
0010
0000
1000
0000
,
0001
0000
0100
0001
0010
0000
0100
0000
1000
0000
0010
1000
0100
0000
0010
0000
,
0001
0000
0100
0000
0001
0000
1000
0000
0010
0100
0010
0100
0010
0100
0010
0000
,
1000
0100
1000
0000
0001
0000
0100
0001
0100
0000
0010
0000
1000
0000
0000
0000
,
0001
0010
0001
0000
0100
0000
0020
0000
0000
0000
1030
0000
0010
0000
0100
0001
,
0100
0010
1000
0100
0010
0001
1000
0002
,
0000
0000
0103
0000
0010
0000
1000
0000
0010
0000
0100
0001
0100
0001
0100
0000
,
0010
0000
1000
0001
0100
0000
0001
0000
0000
0000
0010
0100
1000
0100
0010
0000
,
0002
0000
0000
0000
0003
0000
1000
0100
0002
0000
0000
0000
0003
0000
0100
0000
,
2000
0000
0000
0000
3010
0000
0100
0001
0010
0000
0000
0000
0100
0000
1000
0001
,
1000
0000
0000
0000
0001
0000
0010
0100
0010
0000
0001
1000
0000
0010
1000
0010
,
0000
0000
1000
0000
0100
0000
0010
0001
0010
0000
0000
0000
1001
0000
0000
0000
,
0001
0000
0100
0000
0010
1000
0010
0000
1000
0000
0100
0000
0010
0000
0001
0100
,
0001
0000
1000
0000
0010
1000
0000
1000
0001
0100
0001
0010
0001
0000
1000
0000
,
0100
0000
0010
0001
0000
0000
0100
0000
0010
1000
0010
1000
0010
1000
0001
0000
,
0100
0000
0100
0010
1000
0000
0001
1000
0010
0000
0100
0001
0010
0001
1000
0000
,
0020
0000
0130
0001
1000
0001
0010
0100
,
1000
0001
1000
0010
2000
0000
3200
0000
,
0320
0000
0000
0000
0030
0001
1000
0001
,
0100
0010
1000
0010
0200
0000
0000
0000
,
0301
1000
0001
0010
0100
1000
0100
0010
,
0001
0000
1000
0000
0010
0000
1000
0000
0001
0000
0100
0000
0010
0000
0100
0001
,
0100
0000
0001
0000
0010
0000
0010
0000
1000
0000
0010
0000
0001
0100
0001
0100
,
0010
1000
0020
0000
0230
0000
0302
0000
,
1003
0010
1000
0001
0100
0010
1000
0010
,
0100
0000
0001
0000
0010
0000
0100
0000
1000
0000
0100
0000
0010
0000
0001
1000
,
0001
0000
0100
0000
0010
1000
0010
0000
1000
0000
0100
0000
0010
0001
0010
0000
,
0001
0000
0100
0000
0020
0000
0000
0000
1030
0000
0100
1000
0100
0000
0000
0000
,
0010
0001
0101
0100
0110
0010
1010
1000
,
1100
0000
0100
0000
0110
0000
0010
0000
0011
0000
0001
0000
1000
0010
1000
0010
,
1000
0000
0001
0000
0100
0010
0100
0010
0100
0000
0001
0000
0010
0100
0010
0100
,
1000
0001
0101
0100
0110
0000
1010
0000
,
1000
0100
0011
0001
0101
0100
0110
0010
,
1010
0000
1000
0000
0100
0010
0100
0010
0001
0000
1000
0000
0001
0100
0001
0100
,
0010
1000
1100
0000
0100
0010
0011
0000
,
0001
0000
1000
0000
0010
1000
0010
0000
0100
0000
0001
0000
0010
0000
0100
0000
,
1000
0010
0110
0000
0100
0001
0011
0000
,
0010
0000
1000
0000
1010
0000
0000
0000
0010
0000
0001
0100
0001
0000
1000
0000
,
0010
0100
0010
1000
0001
0000
0010
0001
,
0100
0000
0000
0000
0010
0000
1000
0100
1000
0000
0001
1000
0001
0000
0100
0001
,
0100
0010
1000
0100
0010
0000
0001
0100
,
1000
0000
0100
0001
0010
0100
1000
0001
,
0010
0001
0100
0000
0110
0000
1010
0000
,
1100
0000
0000
0000
0100
0000
0010
0001
0010
0000
0001
1000
0001
0000
1000
0100
,
1000
0010
0100
0100
0001
0010
0000
0001
,
1000
0100
1000
0010
0100
0001
0010
0001
,
1000
0100
1000
0000
1100
0000
0110
0000
,
0011
0101
0110
1010
,
2200
0000
3300
0000
;

//---------------dance-single - ----------------
#NOTES:
     dance-single:
     :
     Beginner:
     4:
     0.208957,0.238113,0.000000,0.008504,0.000000,172.000000,172.000000,0.000000,1.000000,0.000000,0.000000,0.208957,0.238113,0.000000,0.008504,0.000000,172.000000,172.000000,0.000000,1.000000,0.000000,0.000000:
// measure 0
0000
0000
0000
0000
,  // measure 1
0000
0000
0000
0000
,  // measure 2
0000
0000
0000
0000
,  // measure 3
1000
0001
1000
0000
,  // measure 4
0010
0000
1000
0000
,  // measure 5
0100
0000
1000
0000
,  // measure 6
0001
0000
0010
0000
,  // measure 7
0001
0000
1000
0000
,  // measure 8
0100
0000
1000
0000
,  // measure 9
0010
0000
1000
0000
,  // measure 10
0001
0000
0100
0000
,  // measure 11
0010
0010
1000
1000
,  // measure 12
0001
0000
0001
0000
,  // measure 13
0100
0100
0010
0010
,  // measure 14
1000
0000
0001
0000
,  // measure 15
1000
0000
0010
0000
,  // measure 16
0100
0000
0010
0000
,  // measure 17
1000
0000
0001
0000
,  // measure 18
2000
0000
0000
0000
,  // measure 19
3001
0001
0001
0000
,  // measure 20
0100
0000
0100
0000
,  // measure 21
0010
0000
0010
0000
,  // measure 22
1000
0000
1000
0000
,  // measure 23
0001
0000
0001
0000
,  // measure 24
0100
0000
0100
0000
,  // measure 25
0010
0000
0010
0000
,  // measure 26
1000
0000
1000
0000
,  // measure 27
0001
0000
0001
0000
,  // measure 28
0100
0000
0100
0000
,  // measure 29
0010
0000
0010
0000
,  // measure 30
1000
0000
1000
0000
,  // measure 31
0001
0000
0001
0000
,  // measure 32
1000
0000
1000
0000
,  // measure 33
0100
0000
0100
0000
,  // measure 34
0010
0000
0010
0000
,  // measure 35
0001
0000
0001
0000
,  // measure 36
1000
0000
0000
0000
,  // measure 37
1000
0000
0010
0000
,  // measure 38
1000
0000
0001
0000
,  // measure 39
0100
0000
0001
0000
,  // measure 40
0010
0000
0001
0000
,  // measure 41
1000
0100
1000
0000
,  // measure 42
0010
0100
0010
0000
,  // measure 43
1000
0000
0001
0000
,  // measure 44
1000
1000
1000
0000
,  // measure 45
0010
0000
0010
0000
,  // measure 46
0100
0000
0100
0000
,  // measure 47
0001
0001
0001
0000
,  // measure 48
1000
0000
0010
0000
,  // measure 49
1000
0000
0100
0000
,  // measure 50
1000
0000
0001
0000
,  // measure 51
0100
0010
0100
0000
,  // measure 52
1000
0000
0000
0000
,  // measure 53
0001
0000
1000
0000
,  // measure 54
0010
0010
0010
0100
,  // measure 55
0000
0001
0000
1000
,  // measure 56
0000
0010
0010
0010
,  // measure 57
0000
1000
1000
1000
,  // measure 58
0000
0001
0000
0100
,  // measure 59
0000
0001
0000
1000
,  // measure 60
0000
0010
1000
0010
,  // measure 61
0000
1000
0100
1000
,  // measure 62
0000
0001
0001
0001
,  // measure 63
0000
0100
0100
0100
,  // measure 64
0000
0010
0010
0010
,  // measure 65
0000
1000
1000
1000
,  // measure 66
0000
0001
0000
0100
,  // measure 67
0000
0001
0000
1000
,  // measure 68
0000
0010
0000
1000
,  // measure 69
0000
0100
0000
1000
,  // measure 70
0000
0001
0000
0001
,  // measure 71
0000
0010
0000
0010
,  // measure 72
0000
0100
0000
0100
,  // measure 73
0000
1000
0000
1000
,  // measure 74
0000
0000
0000
0001
,  // measure 75
0000
0100
0000
0100
,  // measure 76
0000
0010
0000
0010
,  // measure 77
0000
1000
0000
1000
,  // measure 78
0000
0001
0000
0001
,  // measure 79
0000
0100
0000
0100
,  // measure 80
0010
0000
0000
0000
;

//---------------dance-single - ----------------
#NOTES:
     dance-single:
     :
     Easy:
     8:
     0.442211,0.612292,0.561267,0.034016,0.000000,364.000000,298.000000,66.000000,4.000000,0.000000,0.000000,0.442211,0.612292,0.561267,0.034016,0.000000,364.000000,298.000000,66.000000,4.000000,0.000000,0.000000:
// measure 0
0000
0000
0000
0000
,  // measure 1
0000
0000
0000
0000
,  // measure 2
0000
0000
0000
0000
,  // measure 3
1000
0010
1000
0010
,  // measure 4
0100
0001
0100
0001
,  // measure 5
0011
0010
0110
0100
,  // measure 6
1100
1000
0001
1000
,  // measure 7
1010
0010
0110
0100
,  // measure 8
0001
0010
1100
1000
,  // measure 9
1001
0001
0101
0100
,  // measure 10
0010
1000
0010
0100
,  // measure 11
0001
0001
1000
1000
,  // measure 12
0010
0010
0100
0100
,  // measure 13
0001
0001
1000
1000
,  // measure 14
0010
0010
0100
0100
,  // measure 15
0101
0001
1001
1000
,  // measure 16
1010
0010
0110
0100
,  // measure 17
0101
0001
1001
1000
,  // measure 18
1000
0000
0000
0000
,  // measure 19
0010
1000
0010
0000
,  // measure 20
1000
0001
1000
0001
,  // measure 21
0010
0000
0001
0100
,  // measure 22
0010
0000
0100
0001
,  // measure 23
1000
0001
0010
0100
,  // measure 24
1100
1000
1010
0010
,  // measure 25
0110
0100
0001
0010
,  // measure 26
0011
0011
0011
0011
,  // measure 27
1100
1100
1100
1100
,  // measure 28
1001
0001
0010
0100
,  // measure 29
1100
1000
0100
0010
,  // measure 30
0011
0001
0101
0100
,  // measure 31
1100
1000
1100
0100
,  // measure 32
0101
0011
0110
1100
,  // measure 33
1001
0101
0110
1010
,  // measure 34
1000
0100
0010
0001
,  // measure 35
2000
0000
3002
0000
,  // measure 36
0103
0010
1000
0010
,  // measure 37
0100
0001
0010
0001
,  // measure 38
1000
0100
0010
0100
,  // measure 39
1000
0001
0010
0001
,  // measure 40
0200
0000
0310
0000
,  // measure 41
2000
0000
3100
0010
,  // measure 42
0001
1000
0100
1000
,  // measure 43
1100
0011
1100
0011
,  // measure 44
0100
0010
1000
0010
,  // measure 45
0100
0001
0010
0100
,  // measure 46
1100
1100
0011
0011
,  // measure 47
0100
0010
1000
0001
,  // measure 48
1001
0100
0010
1000
,  // measure 49
0010
0001
0010
1000
,  // measure 50
0110
0010
0001
0100
,  // measure 51
1000
0100
0001
1000
,  // measure 52
0001
0010
0001
0100
,  // measure 53
0010
1000
0010
0100
,  // measure 54
0010
1000
0001
1000
,  // measure 55
0001
0010
0010
0010
,  // measure 56
0010
0001
1000
0001
,  // measure 57
1000
0001
0010
0001
,  // measure 58
0100
1100
0100
0101
,  // measure 59
0001
0010
0100
1000
,  // measure 60
0001
1000
0001
0011
,  // measure 61
0010
0010
0100
1000
,  // measure 62
0100
1100
0001
1001
,  // measure 63
0001
1001
1000
1010
,  // measure 64
0010
0100
0001
0010
,  // measure 65
0100
1000
0010
0001
,  // measure 66
0010
1000
0100
0101
,  // measure 67
0100
1100
1000
0010
,  // measure 68
0001
0011
0010
1010
,  // measure 69
1000
1100
0100
0101
,  // measure 70
0100
1000
0010
0001
,  // measure 71
0010
1000
0100
0001
,  // measure 72
0100
1000
0010
0100
,  // measure 73
0001
0100
0010
1000
,  // measure 74
0010
0100
0001
0010
,  // measure 75
0100
1000
0001
1000
,  // measure 76
0100
0010
0001
0100
,  // measure 77
0010
1000
0100
0010
,  // measure 78
0001
1000
0001
1000
,  // measure 79
0001
1001
1001
1001
,  // measure 80
1001
0000
0000
0000
;

//---------------dance-single - ----------------
#NOTES:
     dance-single:
     :
     Medium:
     12:
     0.499309,0.578276,0.204097,0.008504,0.000000,411.000000,387.000000,24.000000,1.000000,0.000000,0.000000,0.499309,0.578276,0.204097,0.008504,0.000000,411.000000,387.000000,24.000000,1.000000,0.000000,0.000000:
// measure 0
0000
0000
0000
0000
,  // measure 1
0000
0000
0000
0000
,  // measure 2
0000
0000
0000
0000
,  // measure 3
1000
0010
1000
0010
1000
0000
0100
0000
,  // measure 4
0010
0000
0001
0000
1000
0001
1000
0000
,  // measure 5
0001
0000
0100
0000
0010
1000
0010
0000
,  // measure 6
1000
0100
0001
0100
,  // measure 7
1000
0010
0001
0010
,  // measure 8
1000
0001
1000
0100
,  // measure 9
1000
0010
0100
0001
,  // measure 10
0010
0000
0001
0000
0100
0001
0100
0000
,  // measure 11
0010
1000
0010
0000
1000
0100
1000
0000
,  // measure 12
0001
1000
0001
0000
1000
0000
1000
0000
,  // measure 13
0010
0010
0100
0100
,  // measure 14
0001
0001
1000
1000
,  // measure 15
0010
0100
0010
0000
0100
0010
0100
0000
,  // measure 16
0001
1000
0001
0000
1000
0001
1000
0000
,  // measure 17
0001
0001
0100
0100
,  // measure 18
0010
0000
0000
0000
,  // measure 19
1000
1000
1000
0000
,  // measure 20
0001
1000
0001
1000
,  // measure 21
0010
1000
0010
1000
,  // measure 22
0100
1000
0100
0000
0010
0001
0010
0000
,  // measure 23
0001
0100
0001
0000
0100
0010
0100
0000
,  // measure 24
0010
1000
0100
0000
0010
0001
0100
0000
,  // measure 25
0010
1000
0100
0000
0001
1000
0001
0000
,  // measure 26
0100
1000
0010
0000
1000
0010
1000
0000
,  // measure 27
0010
1000
0010
0000
1000
0010
1000
0000
,  // measure 28
1001
1001
1100
1100
,  // measure 29
0011
0011
0101
0101
,  // measure 30
0100
0010
0100
0000
0010
0100
0010
0000
,  // measure 31
1010
0000
1010
0000
1000
0100
0010
0000
,  // measure 32
0001
0010
0001
0000
0100
0001
0100
0000
,  // measure 33
0001
1000
0001
0000
1000
0010
1000
0000
,  // measure 34
0100
1000
0100
1000
0100
1000
0100
1000
,  // measure 35
0010
0000
0000
0000
,  // measure 36
0100
0000
0001
0000
0100
0000
0010
1000
,  // measure 37
0010
1000
0100
0010
,  // measure 38
0001
0000
1000
0000
0001
1000
0001
1000
,  // measure 39
0100
0010
0001
0100
,  // measure 40
1100
0100
0101
0001
,  // measure 41
0011
0010
1010
1000
,  // measure 42
1100
0000
0100
0001
0010
0000
0100
1000
,  // measure 43
0010
0000
0100
0001
0010
0001
0010
0001
,  // measure 44
0010
0000
0100
0000
1000
0000
0001
1000
,  // measure 45
0010
0000
1000
0100
0010
0001
0010
0100
,  // measure 46
1000
0000
0001
0000
1000
0010
1000
0010
,  // measure 47
1000
0000
0100
0001
0100
0000
1000
0010
,  // measure 48
0001
0010
1000
0100
,  // measure 49
0010
0001
0010
0100
,  // measure 50
1000
0000
0001
1000
0001
0000
1000
0010
,  // measure 51
1000
0100
0010
0001
,  // measure 52
1000
0100
1000
0010
,  // measure 53
0100
0000
0001
0000
0010
0001
0010
0000
,  // measure 54
0100
1000
0100
0000
1000
0010
1000
0000
,  // measure 55
0001
1000
0001
0000
1000
0000
0100
0000
,  // measure 56
0010
0100
0010
0000
0100
0000
1000
0000
,  // measure 57
0001
1000
0001
0000
1000
0010
1000
0000
,  // measure 58
0100
1000
0100
0000
0001
0010
0001
0000
,  // measure 59
0100
1000
0200
0000
0000
0000
0310
0000
,  // measure 60
0001
0000
1000
0001
1000
0001
1000
0001
,  // measure 61
1000
0001
1000
0000
0010
0000
0100
0010
,  // measure 62
0100
0010
0100
0000
0001
1000
0001
0000
,  // measure 63
1000
0100
1000
0000
0010
0000
1010
0000
,  // measure 64
1000
0000
0100
0010
0001
0000
0010
0100
,  // measure 65
1000
0000
0100
0001
0100
0000
1000
0010
,  // measure 66
1000
0000
0010
0001
0010
0000
1000
0100
,  // measure 67
1000
0001
1000
0001
,  // measure 68
0100
0101
0100
0110
,  // measure 69
1000
0000
1010
0000
1000
0100
1000
0000
,  // measure 70
0001
1000
0001
0000
1000
0000
0010
0000
,  // measure 71
0100
0000
0001
0100
0001
0000
0100
0001
,  // measure 72
0100
0010
1000
0100
,  // measure 73
0010
0011
0011
1100
,  // measure 74
1100
0000
1000
0000
0001
0000
1000
0001
,  // measure 75
1000
0000
0010
0100
0010
0000
0100
0010
,  // measure 76
0100
0010
1000
0100
,  // measure 77
0010
0000
0001
1000
0001
0000
1000
0001
,  // measure 78
1000
0100
0010
0001
,  // measure 79
0010
0100
1000
0001
,  // measure 80
1001
0000
0000
0000
;
