#TITLE:Take Over Control (Radio Edit);
#SUBTITLE:;
#ARTIST:Afrojack ft. Eva Simmons;
#TITLETRANSLIT:;
#SUBTITLETRANSLIT:;
#ARTISTTRANSLIT:;
#GENRE:;
#CREDIT:Unknown StepMaker;
#BANNER:take over control.png;
#BACKGROUND:Take Over Control-bg.png;
#LYRICSPATH:;
#CDTITLE:;
#MUSIC:Take Over Control.mp3;
#OFFSET:-12.039999;
#SAMPLESTART:74.359993;
#SAMPLELENGTH:12.000000;
#SELECTABLE:YES;
#BPMS:0.000000=130.009995
;
#STOPS:164.000000=1.600000,
194.500000=0.760000
;
#BGCHANGES:;
#KEYSOUNDS:;
#ATTACKS:;

//---------------dance-single - ----------------
#NOTES:
     dance-single:
     :
     Challenge:
     12:
     0.441278,0.570737,0.043102,0.316078,0.150856,430.000000,424.000000,6.000000,44.000000,0.000000,0.000000,0.441278,0.570737,0.043102,0.316078,0.150856,430.000000,424.000000,6.000000,44.000000,0.000000,0.000000:
// measure 0
0000
0000
0000
0000
,  // measure 1
0000
0000
0000
0000
,  // measure 2
1000
0010
1000
0010
0100
0001
0100
0001
,  // measure 3
0100
0010
1000
0010
0100
0001
0010
0200
,  // measure 4
1000
1000
0001
0001
1300
0010
0100
0001
,  // measure 5
0020
0100
0230
0001
0301
0100
1000
0200
,  // measure 6
0001
0001
1000
1000
0301
0010
0100
0001
,  // measure 7
0100
1000
0010
0100
0001
0100
0001
2000
,  // measure 8
0001
0001
0010
0010
3100
0001
0010
0100
,  // measure 9
0020
0001
2030
0010
3200
0001
0310
0001
,  // measure 10
1000
0000
0000
0010
1000
0000
0100
0000
0010
0000
0000
0100
0010
0000
0001
0000
,  // measure 11
0100
0001
0010
0001
1000
0010
0100
0010
,  // measure 12
2000
0001
3100
0000
0001
0100
0001
1000
,  // measure 13
0020
0100
0230
0001
0302
1000
1003
0001
,  // measure 14
1000
0010
1000
0100
0010
0001
1000
0001
,  // measure 15
0100
0010
1000
0010
0100
0001
0010
0100
,  // measure 16
1000
1000
0100
0100
0001
0001
0100
0100
,  // measure 17
2000
0000
3020
0000
0032
0000
0023
2000
,  // measure 18
0030
0000
3001
0200
0010
0000
0310
2000
,  // measure 19
0001
0000
3001
0000
0100
0010
1000
0020
,  // measure 20
0100
0000
0130
0002
0000
0023
0000
0230
,  // measure 21
0000
1300
0000
0001
0100
0010
0100
0002
,  // measure 22
1000
0000
1003
0020
0000
0000
0130
0002
,  // measure 23
0100
0000
0013
0000
1000
0001
0010
0001
,  // measure 24
0200
0010
0310
1000
0020
0100
0130
0001
,  // measure 25
0020
0100
1030
0100
1000
0001
0010
0001
,  // measure 26
0101
0000
0010
1000
0100
1000
0010
0100
,  // measure 27
0001
0010
0001
1000
0001
0100
0010
0200
,  // measure 28
0000
0300
0001
0020
0100
0000
1030
0002
,  // measure 29
0010
0000
1003
0000
0010
0100
0001
0200
,  // measure 30
0000
0000
0310
2000
0010
0000
3001
0200
,  // measure 31
0001
0000
0310
0000
0100
0001
1000
0020
,  // measure 32
0100
0130
0001
1000
0010
1000
0100
0010
,  // measure 33
0200
0000
0310
0001
1000
0010
1000
0100
,  // measure 34
0010
0000
0000
0101
0000
0000
1001
0000
0000
1010
0000
0000
0010
0000
0100
0000
,  // measure 35
0001
0100
0010
1000
0010
0000
0100
0100
,  // measure 36
0001
0000
0010
0000
1000
0000
0010
0000
0001
0000
0100
0000
0010
1000
0010
0000
,  // measure 37
0100
0001
0010
0100
1000
0010
0001
0010
,  // measure 38
1000
0000
1000
0010
0000
0001
0100
0000
0001
0010
0000
1000
0001
0000
0100
0010
,  // measure 39
0100
0000
0010
1000
0000
1000
0001
0000
0100
0010
0000
0010
1000
0000
0001
0000
,  // measure 40
1000
0001
1000
0001
1000
0010
1000
0010
1000
0100
0010
0100
0010
0001
0010
0001
,  // measure 41
0010
2010
0000
3001
0010
1000
0001
0100
,  // measure 42
1000
1002
0000
0103
0100
0001
0010
0100
,  // measure 43
0001
0200
0000
1300
0010
0100
0001
0010
,  // measure 44
1000
0002
0000
0103
0010
1000
0100
0010
,  // measure 45
0001
2000
0000
3010
0100
0001
0010
0100
,  // measure 46
1000
0002
0000
1003
1000
0010
0100
0001
,  // measure 47
0010
2000
0000
3010
0001
0100
1000
0100
,  // measure 48
0001
0010
0010
1000
1000
0001
0001
0000
,  // measure 49
0100
0010
1000
0010
0100
0001
0010
0100
,  // measure 50
1000
0001
1000
0010
0100
0010
1000
0001
,  // measure 51
0010
0000
0001
0000
1000
0000
0100
0010
0100
0010
0001
0000
1000
0000
0010
0000
,  // measure 52
0001
0000
0010
0000
1000
0000
0100
0000
0010
0000
0001
0000
1000
0000
0001
1000
,  // measure 53
0000
0000
0001
0000
0000
0010
0001
0000
0010
0000
1000
0000
0010
0000
0001
0000
,  // measure 54
0100
0000
0010
0000
1000
0000
0001
1000
0000
0100
0000
0010
0000
1000
0010
0000
,  // measure 55
0001
0010
0000
0000
0001
1000
0001
1000
0000
0000
0100
0010
0100
0010
0100
0010
,  // measure 56
0001
0100
0001
0100
0001
0100
0001
1000
0001
1000
0001
1000
0010
0000
0000
0000
;

//---------------dance-single - ----------------
#NOTES:
     dance-single:
     :
     Hard:
     11:
     0.392019,0.446461,0.028734,0.316078,0.079020,382.000000,378.000000,4.000000,44.000000,0.000000,0.000000,0.392019,0.446461,0.028734,0.316078,0.079020,382.000000,378.000000,4.000000,44.000000,0.000000,0.000000:
0000
0000
0000
0000
,
0000
0000
0000
0000
,
1000
0010
1000
0010
0100
0001
0100
0001
,
0100
0010
1000
0010
0100
0001
0010
0200
,
1000
0000
0001
0000
1300
0010
0100
0001
,
0020
0000
0032
0000
1003
0010
0001
0020
,
0001
0000
0001
0000
0130
0010
0100
0000
,
0001
0100
0010
1000
0100
0010
0001
2000
,
0001
0000
0001
0000
3100
0001
0000
0100
,
0020
0000
2030
0000
3200
0000
0310
0001
,
1000
0010
1000
0000
0010
0100
0010
0000
,
0100
0001
0010
0001
1000
0010
0100
0010
,
1000
0001
1000
0000
0001
0100
0001
1000
,
0020
0000
0230
0000
0302
0000
1003
0001
,
1000
0010
1000
0000
0001
0100
0001
0000
,
0100
0010
1000
0010
0100
0001
0010
0100
,
1000
1000
0100
0100
0001
0001
0100
0100
,
2000
0000
3020
0000
0032
0000
0023
2000
,
0030
0000
3001
0200
0010
0000
0310
2000
,
0001
0000
3001
0000
0100
0010
1000
0020
,
0100
0000
0130
0002
0000
0023
0000
0230
,
0000
2300
0000
3001
0100
0010
0100
0002
,
0000
0000
1003
0020
0000
0000
0130
0002
,
0100
0000
0013
0000
1000
0001
0010
0001
,
0200
0000
0310
1000
0020
0000
0130
0001
,
0020
0000
0030
0100
1000
0001
0010
0001
,
0100
0000
0010
1000
0100
0000
1000
0001
,
0010
0001
1000
0000
0001
0100
0010
0200
,
0000
0300
0010
2000
0100
0000
3100
0020
,
0001
0000
0031
0000
1000
0100
0001
0200
,
0000
0000
1300
0020
1000
0000
0001
0230
,
0001
0000
0310
0000
0100
1000
0001
0020
,
0100
0130
1000
0001
0010
0001
0100
0010
,
0200
0000
0310
1000
0010
0100
0001
0010
,
0100
0000
0000
1100
0000
0000
1001
0000
0000
0101
0000
0000
0010
0000
0100
0000
,
0001
0100
0010
1000
0010
0000
0100
0100
,
0001
0000
0010
0000
1000
0000
0010
0000
0001
0000
0100
0000
0010
1000
0010
0000
,
0100
0001
0010
0100
1000
0010
0001
0010
,
1000
0000
1000
0010
0000
0001
0100
0000
0001
0010
0000
1000
0001
0000
0100
0010
,
0100
0000
0010
1000
0000
1000
0001
0000
0100
0010
0000
0010
1000
0000
0001
0000
,
1000
0001
1000
0010
1000
0010
1000
0001
,
0000
2010
0000
3001
0010
1000
0010
1000
,
0010
0002
0000
0103
0010
1000
0010
0100
,
0001
0020
0000
0130
0010
0100
1000
0001
,
0010
0002
0000
0103
0010
1000
0010
0100
,
0001
0020
0000
0031
0100
1000
0100
1000
,
0100
0002
0000
1003
0010
0001
0010
0001
,
0010
2000
0000
3010
0100
0001
1000
0001
,
0100
0010
0010
1000
1000
0001
0001
0000
,
0100
0010
1000
0010
0100
0001
0010
0100
,
1000
0001
1000
0010
0100
0010
1000
0001
,
0010
0000
0001
0000
0100
0000
0010
0000
1000
0001
1000
0000
0001
0000
0010
0000
,
1000
0000
0010
0000
0001
0000
0100
0000
0010
0000
0100
0000
0001
0000
1000
0001
,
0000
0000
1000
0000
0000
0010
0100
0000
0010
0000
1000
0000
0001
0000
1000
0000
,
0010
0000
0100
0000
0010
1000
0010
1000
0100
0000
0010
0000
0001
0000
0010
0001
,
0000
0001
1000
0000
0001
1000
0001
1000
0000
0000
0010
0100
0010
0000
0100
0000
,
0001
1000
0000
0001
1000
0000
0000
0000
;

//---------------dance-single - ----------------
#NOTES:
     dance-single:
     :
     Beginner:
     1:
     0.060547,0.101917,0.000000,0.000000,0.000000,59.000000,59.000000,0.000000,0.000000,0.000000,0.000000,0.060547,0.101917,0.000000,0.000000,0.000000,59.000000,59.000000,0.000000,0.000000,0.000000,0.000000:
0000
0000
0000
0000
,
0000
0000
0000
0000
,
0010
0000
0100
0000
,
0010
0000
0000
0000
,
0100
0000
0000
0000
,
0001
0000
0000
0000
,
1000
0000
0000
0000
,
0100
0000
0000
0000
,
0010
0000
0000
0000
,
0100
0000
0000
0000
,
0001
0000
0000
0000
,
1000
0000
0000
0000
,
0100
0000
0000
0000
,
0001
0000
0000
0000
,
1000
0000
0000
0000
,
0100
0000
0000
0000
,
0010
0000
0000
0000
,
1000
0000
0000
0000
,
0001
0000
0000
0000
,
0000
0000
0000
0000
,
0100
0000
0000
0000
,
0010
0000
0000
0000
,
1000
0000
0000
0000
,
0001
0000
0000
0000
,
0100
0000
0000
0000
,
0010
0000
0000
0000
,
1000
0000
0000
0000
,
0001
0000
0000
0000
,
0100
0000
0000
0000
,
0010
0000
0000
0000
,
1000
0000
0000
0000
,
0001
0000
0000
0000
,
0100
0000
0000
0000
,
0010
0000
0000
0000
,
1000
0000
0100
0000
,
0010
0000
0000
0000
,
0001
0000
0001
0000
,
1000
0000
1000
0000
,
0100
0000
0000
0000
,
0100
0000
0000
0000
,
0001
0000
0000
0000
,
1000
0000
0000
0000
,
0000
0001
0000
0000
,
0000
1000
0000
0000
,
0100
0000
0000
0000
,
1000
0000
0000
0000
,
0000
0001
0000
0000
,
0000
0100
0000
0000
,
1000
0000
0000
0000
0000
0100
0000
0000
,
0001
0000
0000
0000
,
0000
0100
0000
0000
,
0000
0010
0000
0000
,
0000
1000
0000
0000
,
0000
0001
0000
0000
,
0000
0100
0000
0000
,
0000
0010
0000
0000
,
0000
0000
0000
1000
;

//---------------dance-single - ----------------
#NOTES:
     dance-single:
     :
     Medium:
     6:
     0.171380,0.203835,0.014367,0.107754,0.000000,167.000000,165.000000,2.000000,15.000000,0.000000,0.000000,0.171380,0.203835,0.014367,0.107754,0.000000,167.000000,165.000000,2.000000,15.000000,0.000000,0.000000:
0000
0000
0000
0000
,
0000
0000
0000
0000
,
1000
0001
1000
0010
,
1000
0001
0100
0010
,
1000
0000
0000
0000
,
0001
0100
0010
1000
,
0200
0000
0300
0000
,
0001
1000
0010
0100
,
0002
0000
0003
0000
,
1000
0010
0100
0010
,
2000
3000
0000
0000
,
0001
1000
0100
1000
,
0002
0000
0003
0000
,
1000
0010
1000
0100
,
0002
0000
0003
0000
,
1000
0010
0100
0001
,
0020
0000
0030
0000
,
1000
0100
0001
0100
,
1000
0000
0100
0000
,
0010
0000
0100
0001
,
0100
0000
0010
0000
,
1000
0000
0100
0010
,
0100
0000
0001
0000
,
1000
0000
0000
0000
,
0100
0000
0010
0000
,
0100
0000
0001
0100
,
0010
0000
1000
0000
,
0001
0000
0100
0001
,
0010
0000
1000
0000
,
0001
0000
0100
0010
,
0200
0300
0002
0003
,
2000
3000
0010
0100
,
0002
0003
2000
3000
,
0002
0003
0000
0000
,
0010
1000
0100
0001
,
0100
1000
0020
0030
,
0100
0001
0200
0300
,
0010
1000
0100
0000
,
0001
0100
0010
1000
,
0100
0010
0002
0003
,
1000
1000
0001
0001
,
1001
0100
0010
0100
,
0010
0100
0000
0001
,
1000
0001
1000
0100
,
1000
0010
1000
0001
,
0100
0001
1000
0010
,
1000
0010
1000
0100
,
0001
0100
1000
0010
,
0100
0000
0001
0000
0010
1000
0000
0000
,
1000
0100
0001
0100
,
1000
1100
0001
0010
,
1000
0010
0001
0100
,
0010
0100
0001
0100
,
0010
0100
1000
0100
,
0010
0100
0000
0001
,
0100
0010
1000
0100
,
0010
0001
0010
0100
;

//---------------dance-single - ----------------
#NOTES:
     dance-single:
     :
     Easy:
     4:
     0.136488,0.163068,0.000000,0.000000,0.000000,133.000000,133.000000,0.000000,0.000000,0.000000,0.000000,0.136488,0.163068,0.000000,0.000000,0.000000,133.000000,133.000000,0.000000,0.000000,0.000000,0.000000:
0000
0000
0000
0000
,
0000
0000
0000
0000
,
0100
0000
0010
0000
,
0100
0000
0001
0000
,
0100
0000
0000
0000
,
1000
0000
0010
0000
,
1000
0000
0000
0000
,
0001
1000
0010
0000
,
0100
0000
0000
0000
,
1000
0001
0100
0010
,
1000
0000
0000
0000
,
0001
1000
0001
0000
,
0100
0000
0000
0000
,
0010
1000
0100
0000
,
0010
0000
0000
0000
,
0001
1000
0100
0000
,
0010
0000
0000
0000
,
0001
1000
0010
0000
,
0100
0000
0000
0000
,
0100
0000
0000
0001
,
1000
0000
0100
0000
,
0010
0000
1000
0100
,
0001
0000
0100
0000
,
0010
0000
1000
0001
,
1000
0000
0100
0000
,
0010
0000
0000
0000
,
0000
0000
1000
0000
,
0001
0000
1000
0100
,
0010
0000
0001
0000
,
1000
0000
0100
0010
,
0001
0000
1000
0000
,
0100
0000
0010
1000
,
0100
0000
0001
0000
,
1000
0000
0000
0000
,
0100
0010
0100
0000
,
1000
0001
1000
0000
,
0100
0100
0100
0000
,
0010
0010
0010
0000
,
1000
0100
0001
0000
,
0001
0100
1000
0000
,
0100
0100
0100
0100
,
0100
0000
0010
0010
,
0010
0100
0000
0000
,
1000
0000
0001
1000
,
0001
0000
0100
0010
,
0100
0000
0000
1000
,
1000
0000
0001
1000
,
0001
1000
0000
0100
,
0100
0000
0100
0000
0000
0010
0000
0000
,
1000
0001
1000
0100
,
1000
0000
0000
0010
,
1000
0010
0000
0100
,
0001
0100
0000
1000
,
0010
0100
0000
0001
,
0100
0010
0000
1000
,
0001
1000
0001
0000
,
0000
0100
0010
0100
;
