#TITLE:Super Bass -Beta Control DUBSTEP REMIX-;
#SUBTITLE:;
#ARTIST:Nicki Minaj;
#TITLETRANSLIT:;
#SUBTITLETRANSLIT:;
#ARTISTTRANSLIT:;
#GENRE:;
#CREDIT:InternalScreams;
#BANNER:Super Bass -Beta Control DUBSTEP REMIX-.png;
#BACKGROUND:Super Bass -Beta Control Dubstep Remix--bg.png;
#LYRICSPATH:;
#CDTITLE:;
#MUSIC:Super Bass -Beta Control DUBSTEP REMIX-.ogg;
#OFFSET:-5.366000;
#SAMPLESTART:65.834061;
#SAMPLELENGTH:12.000000;
#SELECTABLE:YES;
#BPMS:0.000000=136.979996
;
#STOPS:
;
#BGCHANGES:;
#KEYSOUNDS:;
#ATTACKS:;

//---------------dance-single - ----------------
#NOTES:
     dance-single:
     :
     Hard:
     13:
     0.584231,0.558727,0.115053,0.083675,0.245795,391.000000,380.000000,11.000000,8.000000,0.000000,0.000000,0.584231,0.558727,0.115053,0.083675,0.245795,391.000000,380.000000,11.000000,8.000000,0.000000,0.000000:
// measure 0
0000
0000
0000
0000
,  // measure 1
0000
0000
0000
0000
,  // measure 2
1002
0000
0000
0000
0000
0000
1003
0020
,  // measure 3
0000
0000
0000
0000
0130
0010
1000
0000
,  // measure 4
1001
0000
0001
0000
0100
0000
1000
0100
,  // measure 5
0001
0000
0000
0000
1000
0000
0000
0000
0001
0000
0000
0000
1000
0000
0001
1000
,  // measure 6
0001
0010
0100
1000
0001
0010
0001
1000
,  // measure 7
0010
0001
0010
1000
0100
0001
0100
1000
,  // measure 8
0001
0010
0001
0000
1000
0000
0010
0000
0100
0000
0010
0000
1000
0000
0001
0000
,  // measure 9
0010
0001
0100
0010
0100
0001
0010
0100
,  // measure 10
1000
0010
1000
0000
0001
0000
1000
0000
0100
0000
0010
0000
0001
0000
0010
0000
,  // measure 11
0100
1000
0100
0000
1000
0000
0001
0000
0010
0000
0001
0000
0100
0000
0001
0000
,  // measure 12
1000
0010
1000
0000
0100
0000
0010
0000
0001
0000
0010
0000
0100
0000
1000
0000
,  // measure 13
0001
0000
0100
0000
0001
0000
0000
0001
1000
0000
0010
0000
0001
0000
0010
0000
,  // measure 14
1000
0001
1000
0000
0010
0000
0100
0000
0010
1000
0010
0000
1000
0000
0001
0000
,  // measure 15
0100
0001
0100
0000
0010
0000
1000
0000
0001
0000
0010
0000
0100
0000
1000
0000
,  // measure 16
0100
0010
0100
0000
1000
0000
0001
0000
1000
0100
1000
0000
0010
0000
0100
0001
,  // measure 17
0100
0000
0001
0000
1000
0000
0010
0100
0010
0000
1000
0000
0100
0000
0010
0000
,  // measure 18
0002
0023
0230
2300
,  // measure 19
3100
0000
0000
0100
0010
0000
0000
0010
1000
0000
0010
0001
0010
0000
0000
0000
,  // measure 20
0001
0000
0100
0000
0010
1000
0010
0000
0100
0000
0001
0000
1001
0000
0000
0000
,  // measure 21
0001
0100
0000
0000
0100
0010
0000
0000
0010
1000
0000
0001
0000
1000
0000
0000
,  // measure 22
0010
0100
0010
0000
1000
0000
0001
0100
0001
0000
0010
0000
1000
0000
0010
0000
,  // measure 23
0001
1000
0001
0000
0100
0000
1000
0000
0100
0001
0100
0000
0010
0000
1000
0000
,  // measure 24
0100
0010
0100
0000
0001
0000
0100
0000
1000
0010
1000
0000
0010
0000
0001
0000
,  // measure 25
0010
0000
1000
0000
0001
0000
0100
0000
0001
0010
0001
0000
0000
0000
1000
0000
,  // measure 26
0010
0000
0001
0000
0010
0000
1000
0000
0001
1000
0001
0000
0000
0000
0100
0000
,  // measure 27
0010
1000
0010
0100
0001
0001
0001
1000
,  // measure 28
0010
0100
0010
0000
1000
0000
0001
0000
0010
0001
1000
0001
0000
0100
0001
0000
,  // measure 29
0000
0000
0100
0000
0010
0000
1000
0000
0010
0100
0001
0000
0100
0000
0010
0000
,  // measure 30
1000
0001
1000
0000
0001
0000
0100
0000
0010
1000
0010
0000
0100
0000
0001
0000
,  // measure 31
0010
0100
1000
0001
1000
1000
1000
0010
,  // measure 32
0100
0000
0010
0000
1000
0000
0001
0100
0001
0000
1000
0000
0010
0000
0000
0000
,  // measure 33
1000
0010
0001
0010
1000
0100
0001
0100
,  // measure 34
1000
0010
0001
0000
0010
1000
0100
0001
,  // measure 35
0101
0000
1001
0000
1000
0010
0100
0010
,  // measure 36
1000
0000
0000
1000
0001
0000
0000
0000
0100
0000
0010
0000
1000
0000
0010
0000
,  // measure 37
0100
0000
0001
0100
0010
0100
0001
0010
,  // measure 38
0001
0000
1000
0010
0001
0010
1000
0100
,  // measure 39
0001
0000
0000
0001
0100
0000
1000
0000
0001
0000
0000
0001
0100
0000
0010
0000
,  // measure 40
0200
0000
0301
0010
1000
0010
0001
0100
,  // measure 41
0010
0000
0000
0010
1000
0000
0001
0000
1000
0000
0000
1000
0010
0000
0100
0000
,  // measure 42
0020
1000
1030
0001
0010
0001
0100
0010
,  // measure 43
0100
0101
1001
1010
,  // measure 44
0100
0010
0100
0001
0010
0001
0100
0010
,  // measure 45
1000
1010
0110
0101
,  // measure 46
0001
0010
1000
0010
0001
0100
0100
1000
,  // measure 47
1000
0000
0000
0100
0001
0000
0010
0000
1000
0000
0000
0010
0001
0000
0100
0000
,  // measure 48
0010
0100
0001
0010
0100
1000
0001
1000
,  // measure 49
0010
0000
0000
0010
0100
0000
0001
0000
0100
0000
0000
0100
0010
0000
1000
0000
,  // measure 50
0100
0010
0100
0010
0001
1000
0010
1000
;

//---------------dance-single - ----------------
#NOTES:
     dance-single:
     :
     Beginner:
     2:
     0.094134,0.115053,0.000000,0.000000,0.000000,63.000000,63.000000,0.000000,0.000000,0.000000,0.000000,0.094134,0.115053,0.000000,0.000000,0.000000,63.000000,63.000000,0.000000,0.000000,0.000000,0.000000:
0000
0000
0000
0000
,
0000
0000
0000
0000
,
1000
0000
0000
0000
,
0001
0000
0000
0000
,
1000
0000
0000
0000
,
0100
0000
0000
0000
,
0010
0000
0000
0000
,
0100
0000
0000
0000
,
0001
0000
0000
0000
,
1000
0000
0000
0000
,
0100
0000
0010
0000
,
0100
0000
0000
0000
,
0001
0000
1000
0000
,
0000
0000
0100
0000
,
0010
0000
0000
0000
,
0100
0000
0000
0000
,
0010
0000
0000
0000
,
0010
0000
0100
0000
,
0010
0000
0000
0000
,
1000
0000
0010
0000
,
0100
0000
0000
0000
,
0001
0000
1000
0000
,
0010
0000
0000
0000
,
0100
0000
0000
0000
,
0001
0000
0000
0000
,
1000
0000
0000
0000
,
0100
0000
0000
0000
,
0010
0000
0100
0000
,
0001
0000
0000
0000
,
1000
0000
0000
0000
,
0100
0000
0000
0000
,
0010
0000
0000
0000
,
0100
0000
0000
0000
,
0001
0000
0000
0000
,
1000
0000
0000
0000
,
0001
0000
1000
0000
,
0000
0000
0100
0000
,
0000
0000
0010
0000
,
0000
0000
0000
0000
,
1000
0000
0000
0000
,
0001
0000
0000
0000
,
0010
0000
0000
0000
,
0100
0000
0000
0000
,
1000
0000
0001
0000
,
0100
0000
0000
0000
,
0010
0000
0000
0000
,
0100
0000
0000
0000
,
0001
0000
0000
0000
,
1000
0000
0000
0000
,
0100
0000
0000
0000
,
0010
0000
0000
0000
,
1000
0000
0000
0000
,
0001
0000
1000
0000
,
0100
0000
0000
0000
,
0010
0000
0100
0000
,
0001
0000
0000
0000
;

//---------------dance-single - ----------------
#NOTES:
     dance-single:
     :
     Medium:
     8:
     0.312287,0.373400,0.020919,0.000000,0.010459,209.000000,207.000000,2.000000,0.000000,0.000000,0.000000,0.312287,0.373400,0.020919,0.000000,0.010459,209.000000,207.000000,2.000000,0.000000,0.000000,0.000000:
0000
0000
0000
0000
,
0000
0000
0000
0000
,
0001
1000
0100
1000
,
0010
0000
0100
0000
,
0001
0000
1000
0000
,
0100
0000
0000
0000
,
1000
0001
1000
0000
0100
0000
0000
0000
,
1000
0100
1000
0000
0000
0000
0010
0000
,
0000
1000
0100
1000
,
0100
0010
0100
0001
,
0100
0010
1000
0010
,
0100
0001
0100
0000
0010
0000
1100
0000
,
0100
0001
0100
0010
,
1000
0100
0001
0100
,
1000
0000
0010
1000
0010
0000
0100
0001
,
0100
1000
0010
0100
,
0001
0100
0001
0000
1000
0000
0100
0000
,
0010
0100
0001
0100
,
0010
1000
0010
0000
0100
0000
0001
0000
,
0100
0000
1000
0100
0000
0000
0000
0000
,
0001
1000
0001
1001
,
0100
0000
0010
1000
0100
0000
1000
0000
,
0001
1000
0001
0000
1000
0000
0100
0000
,
1000
0100
0100
0001
,
0001
0010
0010
0100
,
0100
0000
0001
0000
1000
0001
0000
0000
,
0010
0000
1000
0000
0100
1000
0000
0000
,
0001
0000
1000
0000
0100
1000
0100
0000
,
0010
1000
0010
0000
0100
0000
0001
0000
,
1000
0100
1000
0000
0100
1000
0100
0000
,
0010
0000
0100
0000
0001
0100
1000
0000
,
1000
0100
1000
0000
0010
0100
0010
0000
,
1000
0100
0001
0100
,
1000
0010
0001
0010
,
1000
0100
1000
0100
,
0010
0000
1000
0000
0001
1000
0001
0100
,
0000
0000
0000
0000
1000
0010
1000
0010
,
1000
0000
0000
0000
0100
0001
0100
0001
,
0000
0000
1000
0000
,
0100
0000
0000
0100
1000
0000
0100
0000
1000
0000
0000
0100
1000
0000
0100
0000
,
0010
0000
0100
0000
0001
0100
0001
0000
,
0010
0100
0010
0100
,
0001
0000
0100
0000
0010
0001
0010
0000
,
0100
0010
0100
0010
,
0100
0001
0100
0001
,
0010
0100
1000
0100
,
0010
0001
0000
0000
1000
0100
0000
0000
,
0000
1000
0100
0010
,
0100
0100
0010
0010
,
0100
0001
0100
0010
,
0100
0001
0100
0010
,
0100
0000
0000
0000
;

//---------------dance-single - ----------------
#NOTES:
     dance-single:
     :
     Easy:
     4:
     0.198728,0.230106,0.000000,0.000000,0.000000,133.000000,133.000000,0.000000,0.000000,0.000000,0.000000,0.198728,0.230106,0.000000,0.000000,0.000000,133.000000,133.000000,0.000000,0.000000,0.000000,0.000000:
0000
0000
0000
0000
,
0000
0000
0000
0000
,
1000
0000
0000
0000
,
0001
0000
0000
1000
,
0001
0000
0000
0100
,
0010
0000
0000
0000
,
1000
0000
0000
0001
,
1000
0000
0000
0000
,
0010
0000
0000
0100
,
0100
0000
0000
0000
,
1000
0001
0000
0000
,
0100
0010
0100
0000
,
1000
0000
0100
0010
,
0000
0000
1000
0001
,
0000
0100
0010
0000
,
1000
0000
0001
1000
,
0000
0100
0000
0000
,
1000
0100
0001
0000
,
0001
0010
1000
0010
,
0001
0000
1000
0100
,
1000
0000
0001
1000
,
0001
0000
0100
0000
,
0010
0100
0010
0100
,
0010
0000
1000
0100
,
0000
0000
0001
0100
,
0001
0000
1000
0100
,
0000
0000
0010
0100
,
0010
0100
0000
1000
,
0001
0000
1000
0000
,
0100
0000
1000
0000
,
0100
0000
0010
0000
,
0100
0001
0100
0000
,
1000
0100
1000
0000
,
0001
1000
0000
0000
,
0100
0010
0100
0000
,
0001
0100
0000
0000
,
1000
0100
0001
0100
,
0000
1000
0010
0001
,
0000
1000
0100
0001
,
0100
0000
1000
0001
,
0000
0000
1000
0100
,
0001
0000
1000
0010
,
0001
0000
1000
0000
,
0100
0000
1000
0000
,
0100
0100
0010
0010
,
0000
0000
1000
1000
,
0001
0001
0100
0100
,
1000
0000
0000
0000
,
1000
1000
0100
0100
,
0000
0000
0000
0000
,
0001
0001
1000
1000
,
0010
0000
0100
0000
,
0010
0010
0100
0100
,
0001
0000
1000
0000
,
0100
0100
0010
0010
,
0100
0000
0000
0000
;

//---------------dance-single - ----------------
#NOTES:
     dance-single:
     :
     Challenge:
     14:
     0.687330,0.691757,0.135972,0.062756,0.564806,460.000000,447.000000,13.000000,6.000000,0.000000,0.000000,0.687330,0.691757,0.135972,0.062756,0.564806,460.000000,447.000000,13.000000,6.000000,0.000000,0.000000:
// measure 0
0000
0000
0000
0000
,  // measure 1
0000
0000
0000
0000
,  // measure 2
1020
0000
0000
0000
0000
0000
1030
0002
,  // measure 3
0000
0000
0000
0000
1003
0001
0100
0000
,  // measure 4
0110
0000
0010
0000
1000
0000
0001
0100
,  // measure 5
1000
0000
0100
0000
0001
0000
1000
0010
,  // measure 6
1000
0001
1000
0001
1000
0000
0001
0100
0001
0000
1000
0000
0010
0000
1000
0000
,  // measure 7
0001
0000
0100
0000
0010
0000
1000
0001
0100
0000
0001
0100
0000
0100
0010
0000
,  // measure 8
1000
0100
1000
0100
1000
0000
0001
1000
0001
0000
0100
0001
0000
0001
0010
0000
,  // measure 9
0001
1000
0010
1000
0100
0010
0001
1000
,  // measure 10
0100
0010
0100
0010
0100
0000
1000
0001
1000
0000
0001
0100
0001
0000
0100
0000
,  // measure 11
0010
0100
0010
0100
0001
0000
1000
0001
0100
0000
0001
0010
0000
0010
0001
0000
,  // measure 12
1000
0001
0100
0001
1000
0000
0010
1000
0000
1000
0100
0000
1000
0000
0001
0000
,  // measure 13
0011
0000
0010
0000
0001
0000
0000
0001
0100
0000
0010
0000
1000
0000
0100
0000
,  // measure 14
1000
0001
1000
0001
0010
0000
0001
0100
0001
0100
0010
0100
0010
0000
1000
0001
,  // measure 15
1000
0001
0100
0001
0100
0000
0010
1000
0001
0000
0000
0001
0100
0000
0010
0000
,  // measure 16
0100
0001
1000
0001
1000
0000
0010
1000
0010
1000
0001
1000
0001
0000
0100
0001
,  // measure 17
0010
0000
0001
0000
1000
0000
0010
1000
0100
1000
0100
0000
1000
0001
0000
0000
,  // measure 18
2000
3200
0320
0032
,  // measure 19
0103
0000
0000
0100
0010
0000
0000
0010
1000
0000
0001
1000
0001
0000
0010
0000
,  // measure 20
0001
0000
0100
0001
0100
0001
1000
0001
1000
0000
0010
1000
0010
0000
0000
0100
,  // measure 21
0001
0000
0000
0001
1000
0000
0000
1000
0010
0000
0100
0000
0001
0000
0000
0000
,  // measure 22
0010
0001
0010
0001
0010
0000
0001
1000
0001
1000
0001
0000
1000
0000
0010
1000
,  // measure 23
0010
1000
0010
0000
0100
0000
0100
0000
0001
1000
0001
1000
0001
0000
0001
0000
,  // measure 24
0010
0001
0010
0001
0010
0000
0010
0000
0010
0000
0100
1000
0100
1000
0100
0000
,  // measure 25
0010
0100
0010
0100
1000
0000
0001
1000
0001
1000
0010
0000
0000
0000
0100
0000
,  // measure 26
0001
0000
1000
0001
1000
0000
0001
0100
0001
0100
0010
0000
0000
0000
1000
0000
,  // measure 27
0001
0100
0100
0010
1000
1000
0001
0001
,  // measure 28
0100
0001
1000
0000
0001
0000
0100
0000
0010
1000
0001
0000
1000
0010
1000
0000
,  // measure 29
0001
0100
0001
0000
0010
0000
0001
1000
0001
1000
0001
0000
0100
0000
0010
0000
,  // measure 30
1000
0100
1000
0100
1000
0000
0001
1000
0001
1000
0001
0000
0100
0000
0010
0000
,  // measure 31
1000
0001
0001
0001
0100
0100
0100
0010
,  // measure 32
1000
0001
1000
0001
1000
0000
0001
0100
0001
0000
0010
0000
0001
0000
1000
0000
,  // measure 33
0100
0000
1000
0001
1000
0000
0001
0100
0001
0000
0100
0000
0110
0000
0000
0000
,  // measure 34
1001
1000
1001
0000
0011
0001
0010
0100
,  // measure 35
1100
1000
0001
0100
0001
1000
0010
1000
,  // measure 36
0001
0000
0000
0000
1000
0000
0001
0100
0001
0000
1000
0000
0010
0000
0100
0000
,  // measure 37
0001
0000
0001
0100
1000
0100
0001
1000
,  // measure 38
0010
0000
0000
0010
0100
0000
0001
0000
0010
0000
0001
0000
1000
0000
0100
0000
,  // measure 39
1000
0000
0000
1000
0010
0000
0100
0000
0001
0000
0000
0001
1000
0000
0010
0000
,  // measure 40
1000
0000
0100
0010
0100
0000
0010
0000
0001
0000
1000
0000
0100
0000
1000
0000
,  // measure 41
1010
0000
0000
0010
0100
0000
0001
0000
1000
0000
0000
1000
0001
0000
0010
0000
,  // measure 42
0001
0000
0100
0000
0010
0000
1000
0001
1000
0000
0001
0000
0100
0000
0010
0000
,  // measure 43
0100
0101
0011
0110
,  // measure 44
0100
0000
1000
0001
1000
0000
0010
0000
0100
0000
0001
0010
0001
0010
0001
0000
,  // measure 45
1000
0000
0001
0000
1000
0000
0100
1000
0100
0000
0010
0000
0011
0000
0000
0000
,  // measure 46
0001
0000
0100
0001
1000
0000
1000
0000
0001
0000
0001
0100
0001
0100
0010
0000
,  // measure 47
1000
0000
0000
1000
0001
0000
0010
0000
0001
0000
0000
0001
0100
0000
1000
0000
,  // measure 48
0100
0000
0001
1000
0001
0000
1000
0000
0010
0000
0100
0000
0010
0000
1000
0000
,  // measure 49
0001
0000
0000
0001
0010
0000
0001
0000
1000
0000
0000
1000
0010
0000
1000
0000
,  // measure 50
0100
0010
0001
0100
0010
1000
0001
0100
;
