#VERSION:0.83;
#TITLE:Storm Buster;
#SUBTITLE:;
#ARTIST:P*Light;
#TITLETRANSLIT:;
#SUBTITLETRANSLIT:;
#ARTISTTRANSLIT:;
#GENRE:;
#ORIGIN:;
#CREDIT:;
#BANNER:Storm Buster.png;
#BACKGROUND:Storm Buster-bg.png;
#PREVIEWVID:;
#JACKET:Storm Buster-jacket.png;
#CDIMAGE:;
#DISCIMAGE:;
#LYRICSPATH:;
#CDTITLE:;
#MUSIC:Storm Buster.ogg;
#OFFSET:-2.292001;
#SAMPLESTART:12.208029;
#SAMPLELENGTH:15.000000;
#SELECTABLE:YES;
#BPMS:0.000=193.000;
#STOPS:;
#DELAYS:;
#WARPS:;
#TIMESIGNATURES:0.000=4=4;
#TICKCOUNTS:0.000=4;
#COMBOS:0.000=1;
#SPEEDS:0.000=1.000=0.000=0;
#SCROLLS:0.000=1.000;
#FAKES:;
#LABELS:0.000=Song Start;
#BGCHANGES:;
#KEYSOUNDS:;
#ATTACKS:
;

//---------------dance-single - ----------------
#NOTEDATA:;
#CHARTNAME:;
#STEPSTYPE:dance-single;
#DESCRIPTION:;
#CHARTSTYLE:;
#DIFFICULTY:Hard;
#METER:17;
#RADARVALUES:0.888675,1.089466,0.554072,0.293826,0.541480,741.000000,675.000000,66.000000,35.000000,0.000000,0.000000,0.000000,0.000000,0.000000,0.888675,1.089466,0.554072,0.293826,0.541480,741.000000,675.000000,66.000000,35.000000,0.000000,0.000000,0.000000,0.000000,0.000000;
#CREDIT:;
#NOTES:
// measure 0
0000
0000
0000
0000
,  // measure 1
0000
0000
0000
0000
,  // measure 2
0000
0000
0000
0000
,  // measure 3
1001
1010
0000
0101
0000
0001
0010
0100
,  // measure 4
1000
0001
0101
0010
0100
0001
1001
0010
,  // measure 5
0100
0010
1010
1000
0001
0100
0010
0100
,  // measure 6
0001
0000
1000
0000
0010
0000
1000
0000
0001
1000
0001
1000
0001
1000
0001
0000
,  // measure 7
0101
0110
1010
1001
,  // measure 8
0001
0000
0100
0000
0010
0000
0100
0000
0001
0000
1000
0010
0000
0010
0100
0000
,  // measure 9
0001
0000
0010
0000
0100
0000
1000
0000
0001
0000
0100
0010
0000
0010
1000
0000
,  // measure 10
0001
0000
0100
0000
0001
0000
0100
0000
0010
0000
1000
0001
0000
0001
0100
0000
,  // measure 11
0010
0000
1000
0000
0001
0000
1000
0000
0001
0100
0001
0000
0100
0010
0100
0000
,  // measure 12
1001
0000
1000
0000
0010
0000
0100
0000
0010
0000
1000
0001
0000
1000
0010
1000
,  // measure 13
0001
0000
0100
0000
0010
0000
0100
0000
0001
0000
1000
0010
0000
0010
0100
0001
,  // measure 14
0100
0000
0010
0000
1000
0000
0100
0000
1000
0000
0001
0100
0000
0100
0010
1000
,  // measure 15
0001
0000
0001
0000
0100
0000
0100
0000
0010
1000
0010
0000
1000
0001
1000
0000
,  // measure 16
0001
1000
0001
0000
0001
0100
0010
0000
0100
0000
0100
0001
1000
0010
1000
0000
,  // measure 17
0001
1000
0010
0000
0100
0010
1000
0000
0001
0000
0010
0100
0010
0100
1000
0000
,  // measure 18
0001
0100
0001
0000
1000
0001
1000
0000
0010
0000
0100
0010
1000
0001
1000
0000
,  // measure 19
0100
0010
0001
0000
0010
0100
0010
0000
0100
1000
0100
0000
0010
0001
0010
0000
,  // measure 20
0001
0100
0001
0000
1000
0001
1000
0000
1010
0000
0010
0000
0110
0000
0100
0000
,  // measure 21
0001
1000
0001
0000
1000
0010
1000
0000
1001
0000
0001
0000
0101
0000
0100
0000
,  // measure 22
0010
1000
0010
0000
0100
0001
0010
0000
0001
1000
0010
0000
0100
0010
1000
0010
,  // measure 23
0200
0000
0000
0000
0000
0300
1001
0000
,  // measure 24
0102
0000
1003
0010
0100
0100
0010
1000
,  // measure 25
1200
0000
0000
0000
1300
0000
0001
0010
0001
0000
0100
0000
0010
0000
0100
0000
,  // measure 26
0101
0000
0000
0000
0001
0000
0010
0000
0100
0000
1000
0000
0001
0000
1000
0010
,  // measure 27
1000
0001
0100
0001
1000
0010
2000
0000
,  // measure 28
3001
0100
1000
0100
0001
0010
1000
0010
,  // measure 29
0002
0100
0103
0010
0200
0010
0310
1000
,  // measure 30
0001
0000
0100
0000
1000
0000
0100
0000
0001
0100
0001
0100
0010
1000
0010
1000
,  // measure 31
0002
0000
0000
0000
,  // measure 32
1003
0000
0100
0000
0010
0000
0100
0000
1000
0000
0001
0010
0000
0010
0100
0001
,  // measure 33
0200
0000
0310
0001
1002
0000
0103
0010
,  // measure 34
1000
0000
0001
0000
0100
0000
0001
0000
0010
0000
0001
1000
0000
0010
1000
0000
,  // measure 35
0010
0000
0001
0000
0010
0000
0100
0010
1000
0000
0100
1000
0001
0000
1000
0000
,  // measure 36
1020
0000
0000
0000
0130
0000
0001
0000
1000
0000
0001
0100
0000
0100
0010
0000
,  // measure 37
2000
0000
3001
0010
1000
0001
0100
1000
,  // measure 38
1001
0000
0000
0000
0010
0000
1000
0000
0001
0000
0010
0100
0000
1000
0100
0000
,  // measure 39
0010
0000
0010
0001
0000
0001
1000
0000
0000
1010
0000
0000
,  // measure 40
0101
0000
0001
1000
0000
0000
1010
0000
0010
1000
0010
0100
,  // measure 41
0000
0100
0001
1000
0000
1000
0100
0000
0100
0010
0001
0010
,  // measure 42
0100
0000
0100
1000
0000
0000
1001
0000
0001
0100
0010
0100
,  // measure 43
0010
1000
0001
1000
0000
1000
0100
0000
0100
0010
0000
0000
,  // measure 44
0011
0010
0001
0100
0110
0010
1000
0001
,  // measure 45
0101
0100
0010
0100
0101
0100
1000
0100
,  // measure 46
0010
0100
0010
0000
0100
0001
0100
0000
0001
1000
0001
0000
1000
0010
1000
0000
,  // measure 47
0001
0100
0001
0100
0001
0010
0001
0010
0100
1000
0100
1000
0001
1000
0001
1000
,  // measure 48
0002
0000
0000
0000
,  // measure 49
2000
0000
0000
0003
,  // measure 50
0200
0000
0000
3000
,  // measure 51
0020
0000
0000
0000
0000
0000
0000
0300
,  // measure 52
0002
0000
0000
0000
0000
0000
0000
0030
,  // measure 53
0020
0000
0000
0000
0000
0000
0000
0003
,  // measure 54
0200
0000
0000
0000
0000
0000
0000
0030
,  // measure 55
2000
0000
0000
0000
0000
0300
3001
0100
,  // measure 56
0101
0000
1000
0010
1010
0000
0010
1000
,  // measure 57
0100
0000
1000
0000
0001
0100
0001
0000
1000
0000
0000
0000
0110
0000
0100
0000
,  // measure 58
0001
0000
0010
0000
0001
0000
1000
0000
0010
0100
0010
0000
1000
0001
1000
0000
,  // measure 59
0100
0100
0010
0010
1001
0000
0010
0100
,  // measure 60
1000
0000
1000
0000
0001
0010
0001
0000
0011
0000
0000
0000
1000
0000
0100
0000
,  // measure 61
0010
0000
0001
0000
1000
0010
1000
0000
1010
0000
0000
0000
0101
0000
0001
0000
,  // measure 62
1000
0000
0010
0000
0100
0000
0010
0000
1000
0001
1000
0000
0001
0100
0001
0000
,  // measure 63
1001
1000
1010
0010
0110
0000
1001
0000
,  // measure 64
0000
0000
0000
0000
0000
0000
0000
0000
0001
0100
0001
0100
0001
0000
1000
0000
,  // measure 65
1010
0010
0100
0010
0002
0000
0013
1000
,  // measure 66
0100
0000
0010
0000
0001
1000
0001
0000
0021
0000
0000
0000
0130
0000
0001
0000
,  // measure 67
0100
0000
1000
0000
0010
0000
0100
0000
1000
0000
0100
0000
0010
0001
0010
0000
,  // measure 68
1000
0100
0010
0001
1001
0000
0001
0010
,  // measure 69
0100
0000
0001
0000
0100
1000
0100
0000
2000
0000
0000
0000
3010
0000
1000
0000
,  // measure 70
0100
0000
0010
0000
1000
0010
1000
0000
0012
0000
0000
0000
0013
0000
0100
0000
,  // measure 71
1000
0100
0010
0001
0100
0010
1000
0001
,  // measure 72
0101
0100
0110
0010
1010
0000
1001
0001
,  // measure 73
0201
0000
0310
1000
0102
0000
0013
0100
,  // measure 74
0010
0000
0001
0000
1000
0010
1000
0010
1000
0000
0000
0000
1001
0000
0001
0000
,  // measure 75
0100
0000
0010
0000
1000
0000
0100
0000
1000
0001
1000
0000
0100
1000
0100
0000
,  // measure 76
1000
0000
0001
0000
0100
0001
0100
0000
0101
0000
0000
0000
0010
0000
1000
0000
,  // measure 77
0100
0000
0010
0000
0001
1000
0001
1000
0002
0000
0000
0000
0103
0000
0010
0000
,  // measure 78
1000
0000
0010
0000
0100
0001
0100
0001
0200
0000
0000
0000
0310
0000
1000
0000
,  // measure 79
0001
1000
0010
0100
0001
0010
1000
0010
,  // measure 80
1010
1000
1010
0010
0011
0000
0001
0100
,  // measure 81
2100
0000
3100
0001
0021
0000
0031
0001
,  // measure 82
0100
0100
0010
0010
1000
0100
0010
0001
,  // measure 83
0012
0000
0000
0000
0103
0000
0010
1000
0002
0000
0100
0000
0103
0000
0010
1000
,  // measure 84
0002
1000
1003
0100
0110
0010
0011
0001
,  // measure 85
0201
0000
0010
0000
0310
0000
1000
0000
0100
0010
0001
0000
1000
0000
0001
0100
,  // measure 86
0010
0000
1000
0000
0001
0000
0010
0001
0010
0000
0100
0000
1000
0000
0100
0000
,  // measure 87
0010
0001
1000
0000
0100
0000
1000
0000
0100
1000
0001
1000
0001
1000
0001
0000
,  // measure 88
0101
0000
0101
0000
1000
0010
1000
0010
0100
0000
0000
0000
0110
0000
0000
0000
,  // measure 89
2002
0000
3003
0000
;

//---------------dance-single - ----------------
#NOTEDATA:;
#CHARTNAME:;
#STEPSTYPE:dance-single;
#DESCRIPTION:;
#CHARTSTYLE:;
#DIFFICULTY:Beginner;
#METER:4;
#RADARVALUES:0.256648,0.336221,0.016790,0.000000,0.000000,214.000000,212.000000,2.000000,0.000000,0.000000,0.000000,0.000000,0.000000,0.000000,0.256648,0.336221,0.016790,0.000000,0.000000,214.000000,212.000000,2.000000,0.000000,0.000000,0.000000,0.000000,0.000000,0.000000;
#CREDIT:;
#NOTES:
0000
0000
0000
0000
,
0000
0000
0000
0000
,
0000
0000
0000
0000
,
1000
1000
0001
0001
,
0100
0000
0010
0000
,
1000
0000
0010
0000
,
0100
0100
0100
0100
,
0010
0000
0000
0000
,
0010
1000
0010
0000
,
1000
0001
1000
0000
,
0001
0100
0001
0000
,
1000
1000
1000
0010
,
0010
0000
0100
0000
,
0100
0000
0001
0000
,
0001
0000
1000
0000
,
1000
1000
0010
0010
,
0100
0000
0001
0001
,
1000
0000
0010
0010
,
1000
0000
0100
0100
,
0010
0000
0001
0001
,
1000
0000
0010
0010
,
0100
0000
0001
0001
,
1001
0000
1000
1000
,
1010
0000
0010
0000
,
0100
0010
0100
0000
,
0010
1000
0010
0000
,
1000
0001
1000
0000
,
0001
0100
0001
0000
,
0100
0000
0100
0000
,
0010
0000
0010
0000
,
1000
1000
1000
1000
,
1000
0000
0000
0000
,
0001
1000
0001
0000
,
1000
0100
1000
0000
,
0010
0100
0010
0000
,
0100
0100
0100
0000
,
0001
0010
0001
0000
,
1000
0100
1000
0000
,
0010
0100
0010
0000
,
0100
0001
0010
0001
,
1000
1000
0010
0010
,
0100
0100
0010
0010
,
1000
0001
1000
0001
,
1000
1000
0001
0001
,
0100
0000
0010
0000
,
0100
0100
0010
0010
,
1000
0000
0001
0000
,
1000
0001
1000
0000
,
0001
0000
0000
0000
,
0100
0000
0000
0000
,
0010
0000
0000
0000
,
0100
0000
0000
0000
,
0001
0000
0000
0000
,
1000
0000
0000
0000
,
0010
0000
0000
0000
,
1000
0000
0000
0000
,
0001
0000
1000
0000
,
0001
0001
0001
0000
,
0100
0000
0100
0000
,
0010
0010
0010
0000
,
1000
0000
1000
0000
,
0001
0000
0001
0000
,
0100
0000
0100
0000
,
0010
0000
0010
0000
,
1000
0000
0000
0000
,
0001
0000
1000
0000
,
0001
0001
0001
0000
,
0100
0000
0100
0000
,
0010
0010
0010
0000
,
1000
0000
0001
0000
,
1000
0000
0001
0000
,
1000
0000
0001
0000
,
0100
0100
0100
0000
,
0010
0000
1000
0000
,
0001
0000
1000
0000
,
0010
0000
0100
0000
,
0010
0000
1000
0000
,
0001
0000
0100
0000
,
0010
0000
0100
0000
,
0001
0000
1000
0000
,
0010
0000
1000
0000
,
0001
0000
0100
0000
,
0010
0010
0010
0000
,
0100
0000
0001
0000
,
1000
0000
0001
0000
,
0100
0000
0010
0000
,
0100
0000
0001
0000
,
0010
0000
0001
0000
,
1000
0000
0001
0000
,
1000
0000
0000
0000
;

//---------------dance-single - ----------------
#NOTEDATA:;
#CHARTNAME:;
#STEPSTYPE:dance-single;
#DESCRIPTION:;
#CHARTSTYLE:;
#DIFFICULTY:Easy;
#METER:7;
#RADARVALUES:0.382574,0.410937,0.092345,0.000000,0.000000,319.000000,308.000000,11.000000,0.000000,0.000000,0.000000,0.000000,0.000000,0.000000,0.382574,0.410937,0.092345,0.000000,0.000000,319.000000,308.000000,11.000000,0.000000,0.000000,0.000000,0.000000,0.000000,0.000000;
#CREDIT:;
#NOTES:
0000
0000
0000
0000
,
0000
0000
0000
0000
,
0000
0000
0000
0000
,
1000
0010
0000
0000
1000
0000
0010
0000
,
0100
0001
0100
0010
,
0100
0010
1000
0010
,
1000
0100
1000
0000
0001
0100
0001
0000
,
1000
0000
0000
0000
,
0110
0010
0100
0001
,
1000
0000
0001
0000
0100
0010
0100
0000
,
0010
1000
0100
1000
,
0001
0010
0001
0100
,
0010
0100
0010
1000
,
0100
1000
0001
0010
,
0001
0010
0100
0010
,
0100
0010
1000
0100
,
1100
1000
0001
1000
,
0010
1000
0010
0100
,
1010
1000
0001
0100
,
0010
0100
0001
0010
,
0001
1000
0100
1000
,
0010
0000
0100
0000
0010
0100
0010
0000
,
1000
0001
0100
0001
,
0010
0000
0000
0000
,
0001
1000
0001
1000
,
0100
1000
0010
0100
,
0010
1000
0001
0100
,
0010
0100
0010
0000
0100
0010
0100
0000
,
0010
1000
0100
1000
,
0001
0010
0001
0100
,
0010
0100
0001
0010
,
0100
0000
0000
0000
,
1001
1000
0010
1000
,
0101
0001
0100
0010
,
0100
0001
0010
0100
,
1100
1000
0001
0100
,
0010
0100
0010
1000
,
1100
0100
0010
0001
,
0101
0100
0010
1000
,
0010
0100
0001
0010
,
0100
0100
1000
1000
,
0001
0001
0100
0100
,
0010
0010
1000
1000
,
0100
0100
0010
0010
,
0001
1000
0001
1000
,
0010
0100
0010
1000
,
0001
0100
0010
0100
,
0101
0001
0010
0100
,
1000
0000
0000
0000
,
0001
0000
0100
0000
,
0010
0000
0100
0000
,
0001
0000
1000
0000
,
0100
0000
1000
0000
,
0010
0000
0100
0000
,
0010
0000
1000
0000
,
0001
0000
0100
0000
,
0010
0100
0010
1000
,
0001
1000
0010
0000
,
0100
0001
0010
0001
,
1000
0100
0010
0000
,
0001
0100
1000
0010
,
1000
0100
0001
0000
,
1000
0010
0001
0100
,
0001
0010
1000
0001
,
0100
0000
0000
0000
,
0110
0010
1000
0100
,
1000
0001
0100
0000
,
0001
0100
0010
0100
,
0001
0010
0100
0000
,
1000
1000
0001
0100
,
0010
0100
0001
0000
,
1000
0010
0100
0010
,
1000
0100
0001
0000
,
1000
0010
0001
1000
,
0100
0001
1000
0010
,
0001
1000
0100
0001
,
1000
0010
0001
0000
,
1000
0010
0100
0010
,
1000
0001
0100
0010
,
0100
0001
1000
0100
,
1000
0010
0100
0000
,
0010
1000
0001
1000
,
0010
0100
0010
1000
,
0001
0000
0100
0000
,
0010
0100
0001
0100
,
0010
1000
0100
0000
,
1000
0001
0010
0000
,
0001
0100
0010
0100
,
0001
1000
0001
0000
,
1001
0000
0000
0000
;

//---------------dance-single - ----------------
#NOTEDATA:;
#CHARTNAME:;
#STEPSTYPE:dance-single;
#DESCRIPTION:;
#CHARTSTYLE:;
#DIFFICULTY:Medium;
#METER:11;
#RADARVALUES:0.466524,0.560369,0.058765,0.041975,0.033580,389.000000,382.000000,7.000000,5.000000,0.000000,0.000000,0.000000,0.000000,0.000000,0.466524,0.560369,0.058765,0.041975,0.033580,389.000000,382.000000,7.000000,5.000000,0.000000,0.000000,0.000000,0.000000,0.000000;
#CREDIT:;
#NOTES:
0000
0000
0000
0000
,
0000
0000
0000
0000
,
0000
0000
0000
0000
,
0010
0010
0000
0100
0000
0010
1000
0010
,
0100
0001
0010
0001
,
1000
0100
1000
0010
,
0110
0100
0001
0010
,
0001
1000
0001
0000
1000
0010
1000
0000
,
0001
0100
0010
0100
,
0001
0010
0100
1000
,
0001
1000
0001
0000
1000
0010
1000
0000
,
0010
0100
0001
0010
,
0001
0000
1000
0100
1000
0000
0001
0000
,
0100
0000
0010
0100
0010
0000
0100
0000
,
0010
1000
0100
1000
,
0001
0010
0001
0010
,
0011
0001
0010
0100
,
1000
0000
0001
0000
1000
0001
1000
0000
,
0010
0000
0100
0000
0010
0100
0010
0000
,
1000
0100
1000
0001
,
0010
0001
0010
0000
0001
0100
0001
0000
,
1000
0010
1000
0000
0010
0100
0010
0000
,
1000
0100
1000
0001
,
0010
0001
0100
0000
,
0010
1000
0010
0100
,
0010
1000
0001
0100
,
0001
0010
0001
1000
,
0100
1000
0100
0000
1000
0010
1000
0000
,
0001
0100
0010
0100
,
0001
0010
1000
0010
,
0001
0100
1000
0100
,
0001
0000
0000
0000
,
1000
0010
1000
0001
,
0100
0010
0100
0010
,
1000
0100
1000
0001
,
0010
0001
0010
0000
0001
0010
0001
0000
,
0010
0100
1000
0001
,
0010
0000
0001
0010
0001
0000
0001
0000
,
1000
0000
0100
1000
0100
0000
1000
0000
,
0010
0100
0010
1000
,
0001
0000
0000
0001
0100
0000
0000
0000
1000
0000
0000
1000
0010
0000
0000
0000
,
0100
0000
0000
0100
0001
0000
0000
0000
0001
0000
0000
0001
0010
0000
0000
0000
,
0010
0000
0000
0010
0100
0000
0000
0000
0100
0000
0000
0100
1000
0000
0000
0000
,
0001
1000
0001
1000
0000
0000
1010
0000
0000
0110
0000
0000
,
0100
0001
0010
0000
0001
0000
1000
0000
,
0100
1000
0100
0000
1000
0010
1000
0000
,
0001
0100
0001
0100
0001
0100
0001
0100
,
0001
1000
0010
1000
,
0001
0000
0000
0000
,
0100
0000
0010
0000
,
2000
0000
3001
0000
,
0200
0000
0310
0000
,
2000
0000
3001
0000
,
0200
0000
0310
0000
,
0020
0000
1030
0000
,
0001
0000
0000
0000
0100
0000
0010
1000
,
0010
0000
1000
0000
0001
0000
0100
0010
,
0100
0000
0001
0000
0010
0000
0001
1000
,
0001
1000
0100
0010
,
0001
0000
1000
0000
0010
0000
0100
0010
,
0100
0000
0010
0000
1000
0000
0100
1000
,
0100
1000
0100
1000
0100
0000
1000
0000
,
0001
0010
0001
0100
,
0010
0100
0001
0000
,
0010
0001
0010
0001
,
0010
0000
1000
0010
1000
0000
0010
0000
,
1000
0001
1000
0001
1000
0001
1000
0000
,
0001
0100
0010
0100
,
0011
0010
0100
0000
,
1100
1000
0001
0100
,
0010
0100
0010
1000
,
0100
1000
0010
0100
,
0010
0010
0100
0100
0010
0000
1000
0100
,
0010
0000
0001
0000
0100
0000
0010
0100
,
0010
0000
1000
0001
1000
0000
0001
0000
,
0100
0010
0100
0001
,
0010
0001
0010
0001
0010
0000
0001
0000
,
1000
0000
0100
0000
1000
0000
0010
0100
,
0010
0000
0100
0010
0100
0000
0010
0000
,
1000
0100
0010
0001
,
1000
0001
1000
0001
1000
0000
0010
0000
,
0100
0010
1000
0001
,
0100
0000
0001
0100
0001
0000
0100
0000
,
0010
1000
0100
1000
,
0001
0010
0001
0000
,
0100
0010
1000
0010
,
0100
0010
1000
0100
,
0010
0001
1000
0001
,
1000
0001
1000
0001
0100
0000
0010
0000
,
1001
0000
0000
0000
;

//---------------dance-single - ----------------
#NOTEDATA:;
#CHARTNAME:;
#STEPSTYPE:dance-single;
#DESCRIPTION:;
#CHARTSTYLE:;
#DIFFICULTY:Challenge;
#METER:18;
#RADARVALUES:0.913860,1.232811,0.554072,0.277036,0.730368,762.000000,696.000000,66.000000,33.000000,116.000000,0.000000,0.000000,0.000000,0.000000,0.913860,1.232811,0.554072,0.277036,0.730368,762.000000,696.000000,66.000000,33.000000,116.000000,0.000000,0.000000,0.000000,0.000000;
#CREDIT:;
#OFFSET:-2.292001;
#BPMS:0.000000=193.000000
,124.000000=386.000000
,126.000000=193.000000
;
#STOPS:124.000000=0.932644
;
#DELAYS:;
#WARPS:;
#TIMESIGNATURES:0.000000=4=4
;
#TICKCOUNTS:0.000000=4
;
#COMBOS:0.000000=1
;
#SPEEDS:0.000000=1.000000=0.000000=0
;
#SCROLLS:0.000000=1.000000
;
#FAKES:;
#LABELS:0.000000=Song Start
;
#NOTES:
// measure 0
0000
0000
0000
0000
,  // measure 1
0000
0000
0000
0000
,  // measure 2
0000
0000
0000
0000
,  // measure 3
1001
MMMM
0000
0101
0000
0001
0010
0100
,  // measure 4
1000
0001
MMMM
0010
0100
0001
MMMM
0010
,  // measure 5
0100
0010
MMMM
0001
1000
0100
0010
0001
,  // measure 6
1000
0010
0100
0010
1000
0010
0100
0010
1000
0010
0100
0010
1000
0010
0100
0000
,  // measure 7
0101
1001
1010
MMMM
,  // measure 8
0001
0000
0100
0000
0010
0000
0100
0000
0001
0000
1000
0010
0000
0010
0100
0000
,  // measure 9
0101
0000
0010
0000
0100
0000
1000
0000
0001
0000
0100
0010
0000
0010
1000
0000
,  // measure 10
1001
0000
0100
0000
0001
0000
0100
0000
0010
0000
1000
0001
0000
0001
0100
0000
,  // measure 11
0010
1000
0010
1000
0001
0010
0001
0010
0100
1000
0100
1000
0010
0100
0010
0100
,  // measure 12
0001
0000
0010
0000
1000
0000
0010
0000
0001
0000
1000
0001
0000
0100
0010
0100
,  // measure 13
0001
0000
0010
0000
1000
0000
0010
0000
0001
0000
1000
0100
0000
0010
0001
0100
,  // measure 14
0010
0000
1000
0000
0001
0000
0010
0000
0001
0000
1000
0010
1000
0010
0100
0000
,  // measure 15
0101
0000
MMMM
0000
0101
0000
MMMM
0000
1001
0000
0001
0000
0001
0100
0010
0000
,  // measure 16
1000
0100
0010
0000
0010
0001
0100
0000
0110
0000
0100
0001
1000
0010
1000
0000
,  // measure 17
0001
1000
0010
0000
0100
0010
1000
0000
0001
0010
0001
0100
0010
0100
1000
0000
,  // measure 18
0100
0001
1000
0000
1000
0001
1000
0000
0010
0100
0010
1000
0001
0100
0001
0000
,  // measure 19
0100
0010
0001
0000
0010
0100
0010
0000
0100
0001
1000
0010
0100
0001
0010
0100
,  // measure 20
1000
0010
0100
0000
0001
1000
0001
0000
1010
0000
0010
0000
MMMM
0000
0001
0000
,  // measure 21
1000
0100
0001
0000
0100
1000
0010
0000
MMMM
0000
0001
0000
0100
0001
0100
0000
,  // measure 22
0010
1000
0010
0000
0100
0001
0010
0000
0001
1000
0010
0000
0100
0010
1000
0010
,  // measure 23
0200
0000
0000
0000
0000
0300
MMMM
0000
,  // measure 24
2001
0000
3100
0010
0100
0100
0001
1000
,  // measure 25
1200
0000
0000
0000
0310
0000
0001
1000
0001
0000
1000
0000
0100
0000
0010
0000
,  // measure 26
0110
0000
0011
0010
0110
0100
1000
0001
,  // measure 27
1000
0001
0100
0000
0001
0000
1000
0000
0010
1000
0010
0000
MMMM
0000
0000
0000
,  // measure 28
0101
0100
1000
0100
0101
0001
0010
1000
,  // measure 29
1020
0000
0001
0000
0031
0000
0100
0000
0010
0100
0001
0000
1000
0000
0001
0000
,  // measure 30
1000
0100
0010
0001
0100
0010
1000
0100
0010
0001
0100
0010
1000
0100
0010
0001
,  // measure 31
0200
0000
0000
0000
0301
1000
0010
1000
,  // measure 32
0001
0000
1000
0010
0000
0100
0001
0010
0200
0000
0000
0000
0310
0000
0110
0000
,  // measure 33
1002
0000
1003
0010
1000
0001
0100
0001
,  // measure 34
0010
0000
0001
1000
0000
0010
1000
0000
0010
1000
0001
0000
0100
0000
0010
0000
,  // measure 35
1000
0001
0100
0001
0010
0000
0100
0000
1020
0000
0000
0000
1030
0000
0001
0000
,  // measure 36
1000
0000
0001
0100
0000
0010
1000
0001
2000
0000
0000
0000
3001
0000
0010
0000
,  // measure 37
0110
0110
MMMM
1001
MMMM
0000
1010
1000
,  // measure 38
0001
0000
0000
0000
0000
0000
0100
0000
0000
0010
0000
0000
0000
0000
0000
1000
0000
0000
0100
0000
0000
0000
0000
0000
0010
0000
0000
0000
0000
0000
0000
0000
0010
0000
0000
0000
0001
0000
0000
0000
0000
0000
0000
0000
0001
0000
0000
0000
,  // measure 39
1001
0000
0000
MMMM
0000
0000
0101
0000
0001
1000
0000
0000
,  // measure 40
1010
0000
0010
1000
0010
0100
0001
0100
0001
1000
0000
1000
,  // measure 41
0010
0000
0010
0100
0001
0100
0001
0000
0001
1000
0000
0000
,  // measure 42
1010
0000
0010
0100
0001
0100
0001
1000
0001
1000
0000
0001
,  // measure 43
0100
0000
0000
0000
0100
0000
0010
0000
0000
0000
0010
0000
1001
0000
0000
0010
0000
0000
0001
0000
0000
0100
0000
0000
,  // measure 44
MMMM
1000
0001
0100
MMMM
0100
0010
1000
,  // measure 45
MMMM
0000
0100
0000
0001
0000
1000
0000
0010
0100
0010
0100
0001
0010
0001
0010
,  // measure 46
0100
1000
0100
1000
0010
0100
0010
0100
0001
0100
0001
0100
0001
0010
0001
0010
,  // measure 47
0100
1000
0100
1000
0001
1000
0001
1000
0002
0000
0000
0000
0000
0000
0000
0000
,  // measure 48
0000
0000
2000
0000
,  // measure 49
0000
0003
0200
0000
,  // measure 50
0000
3000
0020
0000
,  // measure 51
0000
0000
0000
0300
0002
0000
0000
0000
,  // measure 52
0000
0000
0000
0030
0020
0000
0000
0000
,  // measure 53
0000
0000
0000
0003
0200
0000
0000
0000
,  // measure 54
0000
0000
0000
0030
2000
0000
0000
0000
,  // measure 55
0000
0300
3100
0010
MMMM
0000
0010
0100
,  // measure 56
MMMM
0000
0000
0000
1000
0000
0001
0000
0100
0000
0001
0000
1000
0100
1000
0000
,  // measure 57
MMMM
0000
0110
0010
0100
0001
1000
0010
,  // measure 58
0100
0001
0010
0000
0001
0100
0010
0000
0100
0000
0001
0000
0100
0010
1000
0000
,  // measure 59
MMMM
0000
0000
0000
0110
0000
0010
0000
1000
0000
0001
0000
0100
0010
0100
0001
,  // measure 60
0010
0000
0000
0000
1100
0000
0100
0000
0010
0000
0001
0000
1000
0001
1000
0010
,  // measure 61
0100
0000
0101
0001
1001
1000
0100
0010
,  // measure 62
0001
0010
0100
0000
1000
0100
0001
0000
0101
0000
0010
0000
1001
0000
0100
0000
,  // measure 63
1010
MMMM
MMMM
MMMM
,  // measure 64
1000
0100
0010
0001
0100
0000
0010
0000
0210
0000
0000
0000
0301
0000
0010
0000
,  // measure 65
0012
0000
0000
0000
1003
0000
0010
0000
0100
0010
1000
0000
0001
1000
0100
0000
,  // measure 66
0120
0000
0000
0000
0130
0000
1000
0000
0001
0010
0001
0000
0110
0000
0010
0000
,  // measure 67
1000
0010
0100
0000
0001
0010
0001
0000
MMMM
0000
0010
0000
1000
0000
0100
0000
,  // measure 68
MMMM
0000
0000
0000
0010
0000
0001
0000
0010
0000
0100
0000
1000
0001
1000
0001
,  // measure 69
2000
0000
0000
0000
3010
0000
0100
0000
0001
0000
0100
0000
0010
1000
0001
1000
,  // measure 70
0020
0000
0130
0001
0010
0100
0001
0100
,  // measure 71
1000
0001
1000
0000
0001
0000
0100
0000
0110
0000
0010
0000
1010
0000
1000
0000
,  // measure 72
MMMM
0000
0000
0000
0100
0010
1000
0010
2000
0000
0000
0000
3010
0100
0001
0100
,  // measure 73
0020
0000
0000
0000
0130
0000
0001
0000
1000
0000
0100
0000
0010
0001
1000
0001
,  // measure 74
0100
0000
0000
0000
1001
0000
1000
0000
0100
0000
0010
0000
0001
0010
0001
0000
,  // measure 75
1000
0100
1000
0000
0001
0100
1000
0000
0100
0000
0001
0000
0100
0010
1000
0100
,  // measure 76
0010
0000
MMMM
0000
1000
0000
0010
0000
0001
0000
0010
0000
1000
0001
1000
0001
,  // measure 77
0200
0000
0000
0000
0310
0000
1000
0000
0011
0000
0010
0000
0100
1000
0100
0001
,  // measure 78
0100
0000
0000
0000
1010
0000
1000
0000
0001
1000
0010
0000
0010
1000
0100
0000
,  // measure 79
0100
0010
0001
0000
0001
1000
0010
0000
0110
0000
0100
0000
0101
0000
0001
0000
,  // measure 80
1001
MMMM
0011
0001
2001
0000
3100
0001
,  // measure 81
0201
0000
1300
0100
0011
0010
1001
1000
,  // measure 82
0110
0000
0010
0000
0101
0000
0100
0000
0012
0000
0000
0000
0013
0000
0100
1000
,  // measure 83
0002
0000
0100
0000
0103
0000
0001
0010
0002
0000
1000
0000
0013
0000
0100
0000
,  // measure 84
1010
1000
1001
0001
0200
0010
0310
1000
,  // measure 85
0100
0010
0001
0000
1000
0000
0001
0100
0010
0000
1000
0000
0001
0000
0010
0001
,  // measure 86
0010
0000
0100
0000
1000
0000
0100
0000
0010
0001
1000
0000
0100
0000
1000
0000
,  // measure 87
0100
1000
0100
0010
0001
0100
0010
0000
1001
0000
0101
0000
0001
0010
1000
0010
,  // measure 88
0001
1001
0220
0000
,  // measure 89
0330
0000
0000
0000
;
