#TITLE:So Deep (Sanxion7 Remix);
#SUBTITLE:;
#ARTIST:SILVERTEAR;
#TITLETRANSLIT:;
#SUBTITLETRANSLIT:;
#ARTISTTRANSLIT:;
#GENRE:;
#CREDIT:;
#BANNER:So Deep (Sanxion7 Remix).png;
#BACKGROUND:So Deep (Sanxion7 Remix)-bg.png;
#LYRICSPATH:;
#CDTITLE:;
#MUSIC:So Deep (Sanxion7 Remix).ogg;
#OFFSET:-4.940001;
#SAMPLESTART:53.839981;
#SAMPLELENGTH:15.000000;
#SELECTABLE:YES;
#DISPLAYBPM:152.000000;
#BPMS:0.000000=152.009995
;
#STOPS:
;
#BGCHANGES:;
#KEYSOUNDS:;
#ATTACKS:;

//---------------dance-single - ----------------
#NOTES:
     dance-single:
     :
     Beginner:
     2:
     0.138906,0.201671,0.000000,0.000000,0.000000,108.000000,108.000000,0.000000,0.000000,0.000000,0.000000,0.138906,0.201671,0.000000,0.000000,0.000000,108.000000,108.000000,0.000000,0.000000,0.000000,0.000000:
0000
0000
0000
0000
,
0000
0000
0000
0000
,
0000
0000
0000
0000
,
0010
0000
0010
0000
,
1000
0000
1000
0000
,
0001
0000
0001
0000
,
0100
0000
0100
0000
,
0010
0000
0010
0000
,
1000
0000
1000
0000
,
0001
0000
0001
0000
,
0100
0000
0100
0000
,
0010
0000
0010
0000
,
1000
0000
1000
0000
,
0001
0001
0001
0000
,
0100
0000
0100
0000
,
0010
0000
0000
0000
,
0010
0000
1000
0000
,
0001
0000
0000
0000
,
1000
0000
0001
0000
,
1000
0000
0000
0000
,
0010
0000
0000
0000
,
0100
0000
0000
0000
,
0010
0000
0000
0000
,
1000
0000
0000
0000
,
0001
0000
1000
0000
,
0001
0000
0000
0000
,
0100
0000
0000
0000
,
0010
0000
0000
0000
,
0100
0000
0000
0000
,
0001
0000
0000
0000
,
1000
0000
0000
0000
,
0001
0000
0000
0000
,
1000
0000
0000
0000
,
0010
0000
0000
0000
,
1000
0000
0000
0000
,
0001
0000
0100
0000
,
0001
0000
0010
0000
,
0001
0000
1000
0000
,
0010
0000
0000
0000
,
1000
0000
0001
0000
,
1000
0000
0100
0000
,
1000
0000
0000
0000
,
0010
0000
0100
0000
,
0010
0000
0000
0000
,
1000
0000
0001
0000
,
1000
0000
0100
0000
,
1000
0000
0010
0000
,
0100
0000
0100
0000
,
0100
0000
0001
0000
,
0001
0000
0001
0000
,
0010
0010
0010
0000
,
0100
0000
1000
0000
,
0100
0000
1000
0000
,
0001
0001
0001
0000
,
0100
0000
0010
0010
,
0010
0000
0100
0000
,
0001
0001
0001
0000
,
1000
0000
1000
0000
,
0010
0000
0010
0000
,
0100
0000
0100
0000
,
0001
0000
1000
0000
,
0001
0000
0010
0000
,
0001
0000
0100
0000
,
0010
0000
0100
0000
,
0010
0000
0000
0000
;

//---------------dance-single - ----------------
#NOTES:
     dance-single:
     :
     Easy:
     5:
     0.249516,0.259291,0.009003,0.000000,0.000000,194.000000,193.000000,1.000000,0.000000,0.000000,0.000000,0.249516,0.259291,0.009003,0.000000,0.000000,194.000000,193.000000,1.000000,0.000000,0.000000,0.000000:
0000
0000
0000
0000
,
0000
0000
0000
0000
,
0000
0000
0000
0000
,
1000
0001
1000
0000
,
0001
0010
0001
0000
,
0010
0100
0010
0000
,
0100
1000
0100
1000
,
0001
1000
0001
0010
,
0001
0100
0010
0000
,
0100
0100
0010
0010
,
1000
1000
0001
0001
,
0100
0100
0010
0010
,
1000
0001
1000
0000
,
0001
0000
0000
0000
,
1000
0001
1000
0000
,
0010
0100
0010
0000
,
0100
0000
0001
0100
,
0001
0000
0000
1000
,
0010
0100
0000
0010
,
1000
0001
0000
0000
,
0100
0001
0010
0000
,
0001
1000
0100
0000
,
1000
0010
0100
0000
,
0001
0010
0001
1000
,
0100
0000
1000
0100
,
1000
0000
0010
0100
,
0010
0000
0100
0001
,
0100
0000
0001
0010
,
0001
0000
1000
0100
,
1000
0000
0000
0000
,
0001
1000
0001
0000
,
1000
1000
0010
0010
,
0100
0100
0001
0001
,
1000
0010
1000
0000
,
0010
0100
0010
0000
,
0100
0001
0100
0000
,
0001
0000
0001
0000
,
1000
0000
1000
0000
,
0010
0100
0010
0000
,
1000
0100
1000
0100
,
0010
0001
0010
0001
,
0100
0010
0100
0010
,
1000
0001
1000
0001
,
1000
1000
0010
0010
,
0100
0100
0001
0001
,
1000
0000
1000
0000
,
0001
0000
0001
0000
,
0010
0000
0010
0000
,
0001
0001
0001
0000
,
1000
1000
1000
0000
,
0010
0010
0010
0000
,
0100
0100
0100
0000
,
0001
0001
0001
0000
,
1000
1000
0100
0100
,
1000
1000
0010
0010
,
0100
0100
0100
0100
,
0010
0010
0010
0010
,
1000
1000
1000
1000
,
0001
0000
0001
0000
,
0100
0100
0000
0010
,
0010
1000
1000
0001
,
0001
0100
0100
0010
,
0010
1000
1000
0001
,
0001
0000
0100
0000
,
1001
0000
0000
0000
;

//---------------dance-single - ----------------
#NOTES:
     dance-single:
     :
     Hard:
     13:
     0.592923,0.609740,0.072025,0.162057,0.427651,461.000000,453.000000,8.000000,18.000000,0.000000,0.000000,0.592923,0.609740,0.072025,0.162057,0.427651,461.000000,453.000000,8.000000,18.000000,0.000000,0.000000:
0000
0000
0000
0000
,
0000
0000
0000
0000
,
0000
0000
0000
0000
,
1000
0010
0100
0010
0001
0010
1000
0001
,
1000
0000
0000
0000
0001
0000
1000
0000
0001
0010
0001
0000
0100
0000
0010
0000
,
1000
0100
0000
1000
0001
0000
0000
0000
0100
0001
0000
1000
0001
0000
0000
0000
,
0010
1000
0000
0100
1000
0000
0000
0000
0001
0100
0001
0000
1000
0000
0010
0000
,
0100
0001
0000
0010
0001
0000
0000
0000
0010
0100
0000
1000
0100
0000
0000
0000
,
0010
0001
0000
1000
0001
0000
0000
0000
1000
0001
1000
0000
0010
0000
0100
0000
,
0001
0010
0000
0001
1000
0000
0000
0000
0010
0100
0000
0001
0100
0000
0000
0000
,
0010
1000
0000
0001
1000
0000
0000
0000
0001
0000
1000
0000
0001
0000
1000
0000
,
0010
0100
0000
0001
0100
0000
0010
0000
1000
0100
0000
1000
0010
0000
0100
0000
,
0001
0010
0000
0001
0010
0000
0100
0000
1000
0000
0001
0000
1000
0000
0010
0000
,
0200
0000
0000
0000
0301
0000
1000
0001
,
2000
0000
0010
0000
3010
0100
0001
1000
,
0002
0103
1000
0100
,
0001
0000
1000
0000
0100
1000
0001
0010
,
0002
0000
0103
0010
1000
0000
0001
0010
,
0002
0000
0100
0000
0103
0000
0010
1000
,
0002
1003
0010
0100
,
0120
0000
0130
0000
0001
1000
0001
0000
,
2001
0000
3001
0000
0010
0000
0100
0010
,
0100
0000
1000
0000
0001
0000
0010
0001
,
0020
0000
0130
0000
1000
0001
1000
0000
,
0001
0000
1000
0000
0010
0100
0001
0010
,
0002
0000
1003
0000
0100
0000
0010
0001
,
0200
0000
0301
0000
1000
0000
0001
0100
,
0002
0000
0013
0000
1000
0010
0001
0000
,
0100
0010
1000
0000
0001
1000
0010
0000
,
2001
0000
3200
0000
,
0320
0000
0032
0000
,
1003
0010
0000
0010
1000
0000
0001
0000
0100
0000
0010
0000
0100
0000
0001
0000
,
1000
0010
0000
0010
1000
0000
0001
1000
0000
1000
0001
0000
1000
0000
0010
0000
,
0100
0001
0000
1000
0001
0000
1000
0000
0001
0000
0010
0000
0001
0000
0100
0000
,
0001
1000
0000
0010
1000
0000
0010
0000
0100
0000
0001
0000
1000
0000
0001
0000
,
0100
0010
0000
0010
1000
0000
0001
0000
1000
0000
0010
0000
0100
0000
0001
0000
,
0010
1000
0000
1000
0010
0000
0001
0000
0100
0000
1000
0000
0100
0000
0001
0000
,
1000
0010
0000
1000
0010
0000
1000
0010
0000
1000
0010
0000
0100
0000
0001
0000
,
1000
0001
0000
1000
0001
0000
0010
0001
0000
0010
0001
0000
1000
0000
0100
0000
,
1000
0000
0010
0100
0001
0010
0001
0000
,
0100
0000
0010
0000
1000
0100
0000
0100
1000
0000
0001
0000
0100
0000
0001
0000
,
0010
0001
0000
0001
1000
0000
0010
0000
1000
0000
0001
0000
0100
0000
0010
0000
,
1000
0001
0000
0100
0001
0000
0100
0000
0010
0000
1000
0000
0001
0000
1000
0000
,
0100
0000
0010
0001
1000
0000
0001
1000
,
0010
0000
0010
0100
0001
1000
0001
0000
,
0010
1000
0010
0000
0010
0001
0100
0001
,
1000
0010
0000
1000
0010
0000
0000
0000
0100
0000
0000
0000
1000
0000
0000
0000
,
0001
0010
0001
0000
0100
0010
0100
0001
,
1000
0010
0000
0010
1000
0000
0001
0000
0100
0000
1000
0000
0100
0000
0001
0000
,
1000
0100
0000
0100
1000
0000
0001
0000
0010
0000
0001
0000
0100
0000
0010
0000
,
1000
0100
1000
0001
0100
0001
0010
1000
,
0010
0001
0000
0001
0100
0000
0100
1000
0000
1000
0100
0000
0001
0000
1000
0000
,
0001
0100
0000
0100
1000
0000
0100
0000
0001
0000
0010
0000
0001
0000
1000
0000
,
0100
0010
0000
0010
0001
0000
0100
0010
0000
0010
1000
0000
0010
0000
0100
0000
,
0001
1000
0000
1000
0010
0000
0100
0001
0000
0001
1000
0000
0010
0000
0100
0000
,
0001
0100
0000
0100
1000
0000
0100
0001
0000
0001
0010
0000
1000
0000
0010
0000
,
0001
1000
0000
1000
0100
0000
0010
1000
0000
1000
0010
0000
0001
0000
0100
0000
,
0001
1000
0000
1000
0010
0000
0100
0001
0000
0001
0100
0000
0010
0000
1000
0000
,
0001
0100
0010
0100
0001
1000
0100
1000
,
0010
1000
0000
1000
0001
0000
0100
0000
0001
0000
0010
0000
0001
0000
0000
0000
,
1000
0010
0000
0010
0100
0000
0001
0000
1000
0000
0010
0000
0100
0000
0001
0000
,
1000
0010
1000
0000
0001
0100
0001
1000
,
0010
0100
0000
0100
0001
0000
1000
0001
0000
0001
1000
0000
0010
0000
0100
0000
,
0110
1001
0110
1001
,
0220
0000
0330
0000
;

//---------------dance-single - ----------------
#NOTES:
     dance-single:
     :
     Challenge:
     15:
     0.808999,0.731507,0.117041,0.018006,1.044368,629.000000,616.000000,13.000000,2.000000,0.000000,0.000000,0.808999,0.731507,0.117041,0.018006,1.044368,629.000000,616.000000,13.000000,2.000000,0.000000,0.000000:
// measure 0
0000
0000
0000
0000
,  // measure 1
0000
0000
0000
0000
,  // measure 2
0000
0000
0000
0000
,  // measure 3
1000
0010
0000
0010
0100
0000
0100
0000
0001
1000
0000
1000
0001
0000
0010
0000
,  // measure 4
0001
0100
0000
0100
0010
0000
0010
0000
1000
0100
1000
0000
1000
0100
1000
0000
,  // measure 5
0001
0100
0000
0100
0010
0000
0010
0000
1000
0001
0000
0001
0100
0000
0100
0000
,  // measure 6
0001
1000
0000
1000
0010
0000
1000
0000
0010
0100
0010
0000
0010
1000
0010
0000
,  // measure 7
0100
0001
0000
0001
0010
0000
0100
0000
1000
0100
0000
1000
0010
0000
1000
0000
,  // measure 8
0100
0001
0000
0001
0100
0000
1000
0000
0010
1000
0001
0000
0001
1000
0010
0000
,  // measure 9
0010
0100
0000
0100
0001
0000
1000
0000
0001
0100
0000
0100
0010
0000
1000
0000
,  // measure 10
0001
0010
0000
0010
0001
0000
0100
0000
0010
1000
0010
0000
1000
0010
1000
0000
,  // measure 11
0001
0010
0000
0010
0100
0000
1000
0100
1000
0001
0000
0001
0100
0000
0010
1000
,  // measure 12
0010
1000
0000
1000
0001
0000
0010
0000
0001
0010
0001
0000
0010
0100
1000
0000
,  // measure 13
0001
0000
0100
0000
1000
0100
0000
0000
0001
0010
0001
0000
0010
0000
0100
0000
,  // measure 14
1000
0000
0001
0000
0100
0010
0100
0000
0010
0000
1000
0000
0100
0000
0001
0000
,  // measure 15
0100
0000
1000
0000
0001
0000
1000
0000
0010
0100
0000
0100
0001
1000
0001
0000
,  // measure 16
1000
0010
0000
0010
0100
0000
0001
0000
1000
0001
1000
0000
0001
1000
0001
0000
,  // measure 17
0100
0010
1000
0010
0100
0000
0001
0010
,  // measure 18
1000
0010
0001
1000
0001
1000
0010
0100
,  // measure 19
0001
0000
0100
0000
0010
1000
0010
0000
1000
0001
0000
0001
0000
0001
0100
0000
,  // measure 20
0100
0000
0010
0000
1000
0001
0000
0000
0100
0001
0100
0000
0001
1000
0000
0000
,  // measure 21
0010
0000
1000
0000
0100
0010
0000
0000
0001
0000
0100
0000
0010
1000
0000
0010
,  // measure 22
0000
1000
0001
1000
0001
0000
0100
0000
0010
0000
1000
0000
0010
0000
0100
0000
,  // measure 23
0001
0010
0000
0010
0001
0000
0100
0000
0010
1000
0000
1000
0001
0000
0100
0000
,  // measure 24
0010
1000
0000
1000
0100
0000
1000
0000
0001
0010
0001
0010
0001
0000
0100
0000
,  // measure 25
0010
1000
0000
1000
0100
0000
1000
0000
0001
0010
0000
0010
0100
0000
1000
0000
,  // measure 26
0001
1000
0100
0010
0001
0000
1000
0010
,  // measure 27
0100
0000
0010
0000
1000
0000
0001
0000
0100
0010
0000
0010
1000
0000
0000
0000
,  // measure 28
1100
0000
0000
0000
1000
0000
0000
0000
0001
1000
0000
1000
0001
0000
0100
0000
,  // measure 29
0001
1000
0001
0000
1000
0000
0010
0000
0100
0001
0000
0001
0010
0000
0100
0000
,  // measure 30
1000
0010
1000
0010
0100
0000
0001
0000
0100
0001
0100
0001
1000
0000
0001
0000
,  // measure 31
1000
0100
0000
0100
0010
0000
0010
0001
0000
0001
1000
0000
0010
1000
0010
0000
,  // measure 32
0100
0001
0000
0001
0010
0000
0100
1000
0000
1000
0001
0000
1000
0010
1000
0000
,  // measure 33
0001
0100
0000
0100
1000
0000
1000
0100
0000
0100
0001
0000
0001
1000
0001
0000
,  // measure 34
0100
0010
0000
0010
1000
0000
1000
0001
0000
0001
0100
0000
0010
0000
1000
0000
,  // measure 35
0010
0100
0000
0100
0001
0000
0001
0010
0000
0010
0100
0000
1000
0100
1000
0000
,  // measure 36
0100
0010
0000
0010
0001
0000
0001
0100
0000
0100
0010
0000
1000
0001
1000
0000
,  // measure 37
0001
0010
0000
0010
0001
0000
0001
0100
0000
0100
0010
0000
1000
0100
1000
0000
,  // measure 38
0001
0010
0000
0010
1000
0000
1000
0010
0000
0010
0001
0000
0100
0010
0100
0000
,  // measure 39
0000
0010
1000
0000
1000
0010
0000
0010
0100
0000
0100
0000
0001
0010
0001
0000
,  // measure 40
0000
1000
0010
0000
0010
0100
0000
0100
0001
0000
0001
0000
1000
0000
0010
0000
,  // measure 41
0000
1000
0100
0000
0100
0010
0000
0010
0001
0000
0001
0000
1000
0010
1000
0000
,  // measure 42
0000
0100
0010
0000
0010
0001
0000
0001
1000
0000
0100
0000
1000
0000
0001
0000
,  // measure 43
0000
0010
1000
0000
1000
0010
0000
0010
0001
0000
0010
0000
0100
0000
0010
0000
,  // measure 44
0000
0001
1000
0000
0001
1000
0000
1000
0100
0000
0100
0000
0010
0000
0001
0000
,  // measure 45
0000
1000
0010
0000
0010
0100
0000
0100
0001
0000
0001
0000
1000
0010
1000
0000
,  // measure 46
0000
0001
0010
0000
0010
0100
0000
0100
1000
0000
1000
0000
0001
1000
0001
1000
,  // measure 47
0010
0100
0001
0000
0001
1000
0000
1000
0010
0000
0100
0000
0001
0100
0001
0100
,  // measure 48
0010
1000
0100
0000
0100
1000
0000
1000
0001
0000
0001
0000
1000
0010
1000
0010
,  // measure 49
0100
0001
1000
0000
1000
0010
0000
0010
0100
0000
0100
0001
0000
1000
0000
0001
,  // measure 50
0000
0100
0010
0000
0010
1000
0000
1000
0100
0000
1000
0001
1000
0001
0100
0000
,  // measure 51
0010
1000
0000
1000
0001
0000
0001
0010
0000
0010
0100
0000
0100
1000
0100
1000
,  // measure 52
0010
0100
0000
0100
0001
0000
0001
1000
0000
1000
0010
0000
0100
0010
0100
0000
,  // measure 53
0001
0010
0000
0010
0100
0000
0100
1000
0000
1000
0001
0000
1000
0001
1000
0000
,  // measure 54
0010
1000
0000
1000
0010
0000
1000
0100
0000
0100
0001
0000
0100
1000
0001
0000
,  // measure 55
0001
0010
0000
0010
0100
0000
0100
0010
0000
0010
0001
0000
1000
0001
1000
0000
,  // measure 56
0010
0100
0000
0100
0010
0000
0010
1000
0000
1000
0100
0000
0100
0000
0110
0000
,  // measure 57
0010
0001
0000
0001
0100
0000
0100
0010
0000
0010
1000
0000
1001
0000
0001
0000
,  // measure 58
0100
0001
0000
0001
1000
0000
1000
0100
0000
0100
0010
0000
0011
0000
0001
0000
,  // measure 59
1000
0010
0000
0010
0100
0000
0100
0001
0000
0001
1000
0000
1010
0000
0110
0000
,  // measure 60
0100
0010
0000
0010
1000
0000
0100
0010
0000
0010
1000
0000
0011
0000
1001
0000
,  // measure 61
0100
0001
0000
0001
0010
0000
0010
0100
0000
0100
1000
0000
0001
1000
0001
0000
,  // measure 62
0010
0100
0000
0100
1000
0000
1000
0001
0000
0001
0100
0000
0010
0100
0010
0000
,  // measure 63
1001
0110
0011
1100
,  // measure 64
2002
0000
0000
0000
,  // measure 65
3003
0000
0000
0000
;

//---------------dance-single - ----------------
#NOTES:
     dance-single:
     :
     Medium:
     11:
     0.447586,0.460962,0.261092,0.135048,0.000000,348.000000,319.000000,29.000000,15.000000,0.000000,0.000000,0.447586,0.460962,0.261092,0.135048,0.000000,348.000000,319.000000,29.000000,15.000000,0.000000,0.000000:
0000
0000
0000
0000
,
0000
0000
0000
0000
,
0000
0000
0000
0000
,
0001
1000
0001
0000
1000
0010
1000
0000
,
0010
0100
0010
0000
1001
0000
1001
0000
,
0100
0010
0100
0000
0010
0100
0010
0000
,
1000
0001
1000
0000
1001
0000
1001
0000
,
0001
0100
0001
0000
0100
0001
0100
0000
,
1000
0010
1000
0000
1010
0000
1010
0000
,
0010
0100
0010
0000
0100
0010
0100
0000
,
0001
1000
0001
0000
1001
0000
1001
0000
,
1000
1010
0001
0101
,
1000
0000
1001
0000
0001
0100
1000
0000
,
0100
0001
0010
0001
,
2000
0000
0001
0000
3010
0100
0001
1000
,
0002
0103
0010
1000
,
0001
0000
0010
0000
0001
1000
0010
1000
,
0002
0000
0103
1000
0100
0000
0001
0010
,
0002
0000
1000
0000
1003
0000
0010
0100
,
0020
0130
0001
1000
,
0102
0000
0013
0000
0100
1000
0001
0000
,
0021
0000
0031
0000
0100
0000
0010
1000
,
0001
0000
1000
0000
0001
0000
0010
0001
,
0020
0000
0031
0000
0100
1000
0100
0000
,
0001
0000
1000
0000
0100
0010
0100
0001
,
0200
0000
1300
0000
0100
0000
1000
0001
,
0020
0000
0031
0000
0100
0000
0010
1000
,
0200
0000
1300
0000
0001
0100
0010
0000
,
0010
1000
0001
0000
1000
0001
0010
0000
,
0002
0000
0023
0000
,
0230
0000
2300
0000
,
3001
0000
0001
0000
0100
0001
0100
0000
,
0010
0000
0010
0000
1000
0010
1000
0000
,
0001
0000
0100
0000
1000
0100
0001
0000
,
1000
0000
0010
0000
0001
0010
1000
0000
,
0001
0000
1001
0000
1000
0100
1000
0000
,
0001
0000
0101
0000
0100
0001
0100
0000
,
0010
0000
0110
0000
0100
0010
0100
0000
,
0010
0000
1010
0000
1000
0100
0001
0100
,
1000
0000
0001
0000
0010
1000
0010
0000
,
0001
0000
0100
0000
0010
1000
0010
1000
,
0001
0000
0100
0000
0001
0100
0001
0100
,
0010
0000
1000
0000
0100
1000
0100
1000
,
0001
0100
0101
0001
,
0011
0010
1010
1000
,
1001
0001
0101
0100
,
0110
0010
1010
1000
,
0001
1000
0001
0000
0100
1000
0100
0000
,
0001
0010
1000
0000
0010
0001
0100
0000
,
1000
0100
0001
0000
0010
1000
0010
0000
,
0001
1000
0001
0000
1000
0100
0001
0000
,
0100
1000
0010
0000
0010
0100
0010
0000
,
0100
0001
0100
0000
1000
0100
0001
0000
,
0010
0001
0010
0000
0001
0100
0001
0000
,
1000
0010
1000
0000
0001
0100
1000
0000
,
1000
0100
0001
0000
0001
0010
1000
0000
,
1000
0010
0001
0000
1000
0100
0001
0000
,
1000
0010
0001
0000
0001
0100
0001
0000
,
1000
0010
1000
0000
0001
0100
0001
0100
,
0010
0000
1000
0000
1000
0100
0001
0000
,
1000
0000
1000
0000
1000
0100
0001
0100
,
1000
0000
0001
0000
0100
1000
0100
0000
,
0001
0010
1000
0000
0010
0001
0100
0000
,
0110
1001
0110
1001
,
0110
0000
0000
0000
;
