#TITLE:See it Coming;
#SUBTITLE:;
#ARTIST:JAKAZiD;
#TITLETRANSLIT:;
#SUBTITLETRANSLIT:;
#ARTISTTRANSLIT:;
#GENRE:;
#CREDIT:;
#BANNER:See it Coming.png;
#BACKGROUND:See it Coming-bg.png;
#LYRICSPATH:;
#CDTITLE:;
#MUSIC:See it Coming.ogg;
#OFFSET:-1.487000;
#SAMPLESTART:85.695915;
#SAMPLELENGTH:14.999998;
#SELECTABLE:YES;
#BPMS:0.000000=170.000000
,78.000000=172.500000
,90.000000=170.000000
,212.000000=172.500000
,224.000000=170.000000
;
#STOPS:
;
#BGCHANGES:;
#KEYSOUNDS:;
#ATTACKS:;

//---------------dance-single - ----------------
#NOTES:
     dance-single:
     :
     Beginner:
     4:
     0.187797,0.241234,0.000000,0.000000,0.000000,144.000000,144.000000,0.000000,0.000000,0.000000,0.000000,0.187797,0.241234,0.000000,0.000000,0.000000,144.000000,144.000000,0.000000,0.000000,0.000000,0.000000:
0000
0000
0000
0000
,
0000
0000
0000
0000
,
0000
0000
0000
0000
,
1000
0000
0000
0000
,
0010
0000
0000
0000
,
1000
0000
0000
0000
,
0001
0000
0000
0000
,
1000
0000
0100
0000
,
1000
0000
0000
0000
,
0010
0000
0000
0000
,
0100
0000
0000
0000
,
0001
0000
0000
0000
,
1000
0000
0000
0000
,
0001
0000
0000
0000
,
1000
0000
0000
0000
,
0010
0000
0000
0000
,
1000
0000
0000
0000
,
0001
0000
1000
0000
,
0001
0000
0000
0000
,
0100
0000
0100
0000
,
0010
0000
0000
0000
,
0010
0000
0000
0000
,
1000
0000
0000
0000
,
0001
0000
0001
0000
,
1000
0000
0000
0000
,
0010
0000
0000
0000
,
0100
0000
0001
0000
,
0100
0000
0000
0000
,
0001
0000
0000
0000
,
1000
0000
0001
0000
,
1000
0000
0010
0000
,
1000
0000
0100
0000
,
1000
0000
0001
0000
,
1000
0000
0000
0000
,
0010
0000
0010
0010
,
0010
0000
1000
0000
,
0001
0000
1000
0000
,
0100
0000
0010
0000
,
0001
0000
1000
0000
,
0001
0000
1000
0000
,
0100
0000
1000
0000
,
0010
0000
0100
0000
,
0001
0000
1000
0000
,
0010
0000
0100
0000
,
0010
0000
1000
0000
,
0001
0000
1000
0000
,
0010
0000
1000
0000
,
0100
0000
0010
0000
,
0001
0000
1000
0000
,
0100
0000
1000
0000
,
0010
0000
0100
0000
,
0001
0000
1000
0000
,
0010
0000
1000
0000
,
0100
0000
1000
0100
,
1000
0000
0001
0010
,
0001
0000
0100
0100
,
0100
0000
0010
1000
,
0010
0000
0100
0001
,
0100
0000
0001
1000
,
0001
0000
1000
0000
,
0010
0000
1000
0000
,
0010
0000
0100
0000
,
1000
0000
1000
0000
,
0100
0000
0010
0001
,
0010
0001
0000
1000
,
0100
1000
0000
0010
,
0100
0010
0000
1000
,
0001
1000
0010
0000
,
1000
0010
0000
1000
,
0100
1000
0000
0001
,
0010
0001
0000
1000
,
0100
1000
0000
0010
,
0100
0010
0000
1000
,
0001
1000
0000
0001
,
1000
0001
0000
0010
,
0001
0010
0100
0000
;

//---------------dance-single - ----------------
#NOTES:
     dance-single:
     :
     Easy:
     7:
     0.357335,0.413544,0.091290,0.018258,0.000000,274.000000,264.000000,10.000000,2.000000,0.000000,0.000000,0.357335,0.413544,0.091290,0.018258,0.000000,274.000000,264.000000,10.000000,2.000000,0.000000,0.000000:
0000
0000
0000
0000
,
0000
0000
0000
0000
,
0000
0000
0000
0000
,
1000
0100
1000
0001
,
0010
0001
0100
1000
,
0100
0001
0010
1000
,
0010
0001
0100
0010
,
1000
0010
1000
0010
,
0100
0001
0100
0001
,
0011
0010
0100
1000
,
1001
0001
0100
0010
,
0110
0100
0001
1000
,
0001
0010
0001
0100
,
0010
1000
0100
0010
,
0001
1000
0002
0000
,
0013
0100
1000
0100
,
0010
0001
1000
0001
,
1000
0010
1000
0010
,
0200
0000
0000
0000
,
0301
0000
0000
0000
,
1000
0000
0000
0000
,
0010
0000
0000
0000
,
1000
0000
0100
0000
,
1000
0000
0001
0000
,
0010
0000
0001
0000
,
1000
0000
0100
0000
,
1000
0000
0010
0100
,
0001
0010
0001
1000
,
0100
1000
0000
0010
,
0100
0001
0100
0010
,
1000
0001
1000
0010
,
0100
0000
0001
0010
,
0001
1000
0001
0000
,
0100
0010
1000
0010
,
0100
0000
0010
1000
,
0001
1000
0010
0100
,
0001
0100
0010
0000
,
1000
0010
0100
0001
,
0100
0010
1000
1100
,
0100
0010
0001
0010
,
0001
0010
0100
1000
,
0100
1000
0010
0100
,
0001
0100
0010
1000
,
0010
0100
0101
0001
,
0010
0100
1000
0100
,
0010
0001
0010
1000
,
0010
0001
0100
1000
,
0100
0001
0010
0100
,
1000
0100
0010
0001
,
1000
0001
1000
0010
,
1000
0001
0100
0001
,
0010
0001
0100
1000
,
1100
0100
0001
0010
,
0011
0010
0100
1000
,
1100
0100
0010
0001
,
1000
0001
0100
0010
,
1000
0010
0100
0001
,
0010
0001
1000
0100
,
1000
1010
0010
0100
,
0001
0010
0011
0010
,
0100
1000
0100
0010
,
0001
0010
0100
1000
,
0100
0010
0001
1000
,
0001
0100
0010
1000
,
0010
0100
0001
0010
,
0001
1000
0100
1000
,
0010
0100
0001
0010
,
1000
0010
0001
0100
,
1000
0100
0001
0010
,
1000
0010
0001
0100
,
1000
0100
0001
0010
,
0001
0100
0010
1000
,
0010
0100
0001
0010
,
0001
1000
0010
0100
,
0010
1000
0001
0100
,
0010
1000
0100
0000
;

//---------------dance-single - ----------------
#NOTES:
     dance-single:
     :
     Medium:
     11:
     0.468187,0.482468,0.182580,0.054774,0.031952,359.000000,339.000000,20.000000,6.000000,0.000000,0.000000,0.468187,0.482468,0.182580,0.054774,0.031952,359.000000,339.000000,20.000000,6.000000,0.000000,0.000000:
0000
0000
0000
0000
,
0000
0000
0000
0000
,
0000
0000
0000
0000
,
0001
0000
1000
0010
1000
0000
0100
0000
,
1000
0001
0010
0001
,
0101
0000
0100
0010
1000
0000
0010
0000
,
0100
0001
0010
0100
,
1000
0001
1000
0001
,
0010
0001
0100
0010
,
1000
0000
0010
1000
0010
0000
0100
0000
,
0001
0000
0010
0000
0001
0010
0001
0000
,
0110
0010
0100
0010
,
1100
0100
1000
0100
,
0011
0001
0010
0001
,
0110
0010
0100
0100
,
0110
0010
0110
0010
,
1010
1000
1001
1000
,
1001
0100
0010
0001
,
1000
0010
1000
0001
0100
0000
0001
1000
,
0020
0000
0000
0000
,
0230
0000
0000
0000
,
0302
0000
0000
0000
,
0000
0000
2003
0000
,
3000
0000
0000
0000
0001
1000
0000
0000
,
0000
0000
1000
0000
0000
0010
0000
0000
1000
0000
0001
0000
0000
0000
0000
0000
,
0000
0100
0001
0010
0001
0001
0000
0000
,
0000
0000
1000
0000
0000
0010
0000
0000
0100
0000
0100
0000
0001
0000
0010
0000
,
0001
0100
1000
0100
0001
0001
0000
0000
,
0000
0000
1000
0000
0000
0001
0000
0000
1000
0000
0001
0000
0000
0000
0000
0000
,
0000
0010
0001
0100
0010
0010
0000
0000
,
0000
0000
1000
0000
0000
1000
0000
0000
0001
0000
0001
0000
0000
0000
0000
0000
,
0000
0000
0100
0000
0000
0010
0000
0000
0100
0000
0001
0000
1000
0000
0010
0000
,
1000
0001
0100
0001
,
0010
0000
0001
0100
0010
0000
0010
0000
,
1000
0000
0001
1000
0010
1000
0001
0100
,
0010
0100
0001
0000
0100
0000
0010
0000
,
1000
1000
0001
0000
0100
0100
0000
0010
,
0000
0000
1000
0000
0100
0000
0010
0000
0001
0000
0001
0000
0000
0000
0000
1000
,
0000
0000
0010
0000
0000
0100
0000
0000
2002
0000
0000
0000
0000
0000
0000
0000
,
3003
0000
1000
0001
1000
0000
0100
0000
,
0010
1000
0010
0000
0001
0000
0100
0000
,
0010
1000
0001
0000
0100
0000
0010
0000
,
1000
0100
1000
0000
0001
0000
0010
0000
,
0001
1000
0100
0010
,
0101
0010
1100
0001
,
0101
0100
1000
0100
,
0001
0100
1000
0100
,
0001
0100
1000
0100
0001
0000
0010
0000
,
1010
0000
0010
0000
0001
0000
1000
0010
,
0001
0000
0001
0010
1000
0000
0100
1000
,
0010
0000
0010
0100
0001
0000
0100
0000
,
0010
1000
0001
0001
,
0010
0000
0001
0000
0110
0000
0010
1000
,
0001
0000
0010
0001
0100
0000
0001
0100
,
1000
0000
1000
0100
0001
0000
1000
0010
,
1000
0001
0010
0000
0001
0000
0100
0000
,
0010
1000
0001
0000
1000
0000
0001
1000
,
0100
0010
0001
0000
0100
0000
0001
1000
,
0010
1000
0001
0000
1000
0000
0100
1000
,
0100
0010
1001
0000
,
0001
1000
0001
1000
,
0010
0100
0010
0000
0010
1000
0010
0000
,
1000
0100
1000
0000
0001
1000
0001
1000
,
0001
0000
1000
0000
0010
1000
0010
1000
,
0001
1000
0100
0010
,
1001
0010
0100
1000
,
0001
0000
0010
0000
0100
0001
0100
0000
,
1000
0100
0010
0001
0100
0000
0001
0000
,
1000
0001
1000
0000
0010
1000
0010
1000
,
0010
0000
1000
0000
0100
0000
0010
0001
,
0010
0001
1000
0100
,
1000
0000
0010
0000
0100
0000
0001
1000
,
0010
1000
0001
0000
1000
0000
0100
0000
,
1000
0010
0100
0001
,
1000
0100
1000
0001
0010
0001
0100
0000
,
0010
0110
1001
0000
;

//---------------dance-single - ----------------
#NOTES:
     dance-single:
     :
     Hard:
     15:
     0.798136,0.896012,0.255612,0.374289,0.616208,612.000000,584.000000,28.000000,41.000000,0.000000,0.000000,0.798136,0.896012,0.255612,0.374289,0.616208,612.000000,584.000000,28.000000,41.000000,0.000000,0.000000:
// measure 0
0000
0000
0000
0000
,  // measure 1
0000
0000
0000
0000
,  // measure 2
0000
0000
0000
0000
,  // measure 3
1001
0000
1000
0100
0010
0001
1000
0000
,  // measure 4
0001
0000
0010
0001
0010
0100
1000
0000
,  // measure 5
1001
0000
0000
0000
0010
0000
0001
0000
0010
0000
0100
0010
0100
0000
0000
0000
,  // measure 6
1000
0000
0010
0100
0000
0001
0100
0000
0000
0000
0010
0000
1000
0001
1000
0001
,  // measure 7
1000
0000
0001
0000
0010
0000
0100
0000
0001
0000
0100
0010
0100
0000
1000
0000
,  // measure 8
0100
0010
0001
1000
0001
0100
0110
0000
,  // measure 9
0001
0000
0100
0000
1000
0000
0100
0001
0100
0000
0010
0000
1000
0010
0000
0010
,  // measure 10
0100
0000
0010
1000
0000
1000
0001
0000
0100
0000
0001
0000
1000
0010
1000
0000
,  // measure 11
0001
0000
0010
0100
0001
0100
1000
0001
,  // measure 12
1000
0000
0010
0100
0000
0100
0001
0000
0010
0000
0001
0000
2002
0000
3003
0000
,  // measure 13
0100
0000
0001
0000
0010
0000
0001
0000
1000
0000
0010
0000
1000
0100
1000
0000
,  // measure 14
0001
0010
0000
0010
0001
0000
0100
0000
0010
0000
1000
0000
2200
0000
3300
0000
,  // measure 15
0110
0000
0022
0033
0001
1000
2200
3300
,  // measure 16
0100
0001
0202
0303
1000
0010
0220
0330
,  // measure 17
0100
0001
0100
0000
0001
1000
0001
0000
1000
0010
1000
0000
0010
0100
0010
0000
,  // measure 18
0100
0000
0001
1000
0000
0001
1000
0000
0000
0000
0001
0000
0100
0010
0100
0010
,  // measure 19
0200
0000
0000
0000
,  // measure 20
0320
0000
0000
0000
,  // measure 21
2030
0000
0000
0000
,  // measure 22
0000
0000
3002
0000
,  // measure 23
0000
0000
0000
0000
0003
0000
0000
0000
0100
0000
0100
0000
0010
1000
0010
0000
,  // measure 24
1000
0100
0010
0001
0100
0101
0000
0000
,  // measure 25
0000
0000
0001
0000
1000
0100
1000
0000
0001
0000
0011
0000
0000
0000
0000
0000
,  // measure 26
0000
0000
1001
0000
0000
0110
0000
0000
0010
0000
1000
0000
1010
0000
1000
0000
,  // measure 27
0100
0000
0010
0000
0001
0100
0001
0000
0010
0000
0010
0000
0100
1000
0100
0000
,  // measure 28
1000
0001
0100
0010
1000
1020
0000
0000
,  // measure 29
0000
0130
0001
0010
0100
2000
0000
0000
,  // measure 30
3010
1000
0010
0000
1000
0000
0001
0000
0010
0000
0001
0000
0000
0000
0100
0000
,  // measure 31
0010
0000
1000
0000
0010
0000
0000
0000
0100
0000
0001
0000
0010
0001
0010
0000
,  // measure 32
0100
1000
0010
1000
0001
0011
0000
0000
,  // measure 33
0100
0000
0010
0000
1000
0010
1000
0000
0100
0000
0010
0000
0000
0000
0000
1001
,  // measure 34
0000
0000
0001
0000
1000
0000
0100
0010
0001
0000
1000
0000
0001
0000
0010
0000
,  // measure 35
0100
0000
1000
0000
0010
0100
0010
0000
1000
0000
0001
0000
0100
0010
0100
0000
,  // measure 36
0001
0000
1000
0000
0010
0000
0100
0000
0001
0000
0011
0000
0000
0000
0000
0001
,  // measure 37
0000
0000
0200
0000
0010
0000
0310
0000
1000
0000
0101
0000
0000
0000
0000
1001
,  // measure 38
0000
0000
0101
0000
0000
0110
0000
0000
2020
0000
0000
0000
3030
0000
0000
0000
,  // measure 39
1000
0000
0001
0100
0001
0100
0001
0000
1000
0000
0010
0000
1000
0100
1000
0000
,  // measure 40
0001
0000
0100
0000
0010
0100
0010
0000
1000
0000
0001
0000
0100
0010
0100
0000
,  // measure 41
0001
0000
1000
0000
0100
0010
0100
0000
1000
0000
0001
0000
0010
0001
0010
0000
,  // measure 42
0100
0000
1000
0000
0001
0100
0001
0000
1000
0000
0100
0000
1000
0100
0000
1000
,  // measure 43
0010
0100
0002
0013
0001
1000
0020
0130
,  // measure 44
0010
1000
0002
0013
0001
0100
0020
1030
,  // measure 45
0001
0010
0002
0103
0010
1000
0001
1000
,  // measure 46
0001
0000
1000
0001
1000
0001
0200
0000
0000
0000
0000
0000
0000
0000
0000
0000
,  // measure 47
0300
0000
0010
0100
0010
0100
0010
0100
0001
1000
0000
0100
0010
0100
0000
0010
,  // measure 48
0001
0010
0001
0000
1000
0000
0100
0000
1000
0010
0000
0010
0100
0001
0000
1000
,  // measure 49
0001
0100
0001
1000
0000
1000
0001
0000
1000
0010
0000
0010
1000
0001
0000
0010
,  // measure 50
0001
0010
0001
0000
0100
0000
0010
0000
2000
0000
0000
0000
3010
0100
0000
0100
,  // measure 51
0001
1000
0001
0000
1000
0000
0010
0000
0200
0000
0000
0000
0301
0010
0000
0001
,  // measure 52
1000
0001
1000
0000
0010
0000
0100
0000
0001
1000
0000
1000
0100
0010
0000
0010
,  // measure 53
0001
0100
0001
0000
1000
0001
1000
0000
2010
0000
0000
0000
3010
0100
0000
0100
,  // measure 54
0001
0010
0001
0000
1000
0000
0001
0000
1000
0001
0000
0010
0001
0010
0000
0001
,  // measure 55
1000
0100
1000
0000
0001
0000
0010
0000
0001
0000
0000
1000
0001
1000
0000
0010
,  // measure 56
1000
0100
0010
0001
0100
0000
0010
0000
1000
0000
0100
0000
0010
0100
0010
0000
,  // measure 57
0001
1000
0001
1000
0001
0000
0100
0000
0010
1000
0000
1000
0100
0001
0000
0000
,  // measure 58
0001
0100
1000
0000
0010
0000
1000
0000
0002
0000
0000
0000
1003
0010
0000
0000
,  // measure 59
0010
0100
0001
0000
0000
1001
0000
0000
0100
0000
0100
0000
0010
1000
0001
0000
,  // measure 60
1000
0000
0010
0000
0100
0000
0001
0000
0020
0000
0000
0000
0031
1000
0001
0000
,  // measure 61
1000
0100
1000
0000
0010
0000
0100
0000
0002
0000
0000
0000
0013
0100
0010
0000
,  // measure 62
0100
1000
0100
0000
1000
0001
1000
0000
0100
0000
0010
0000
1000
0000
0100
0000
,  // measure 63
0010
0000
0001
0000
1000
0000
0010
0000
2000
0000
0000
0000
3001
0100
0001
0000
,  // measure 64
0001
0010
0001
0000
0100
0000
0010
0000
2000
0000
0000
0000
3010
0100
0010
0000
,  // measure 65
0100
0001
0100
0000
0001
0000
0010
0000
0200
0000
0000
0000
0310
0001
0010
0000
,  // measure 66
0001
1000
0001
0000
1000
0000
0001
0000
0010
0000
0001
0000
0200
0000
0000
0000
,  // measure 67
0310
1000
0010
0000
1000
0000
0100
0000
2000
0000
0000
0000
3001
1000
0001
0000
,  // measure 68
1000
0000
0100
0000
1000
0000
0010
0000
0100
0000
0100
0000
0001
1000
0000
0000
,  // measure 69
1000
0001
1000
0000
0100
0000
0010
0000
0002
0000
0000
0000
0013
0100
0000
0010
,  // measure 70
0100
1000
0100
0000
0010
1000
0010
0000
0001
0000
0010
0000
0100
0000
1000
0000
,  // measure 71
0100
0000
0010
0000
0001
0000
1000
0000
0100
0000
0000
0000
1000
0001
1000
0000
,  // measure 72
0001
0100
0001
0000
1000
0000
0010
0000
0200
0000
0000
0000
0301
1000
0001
0000
,  // measure 73
0010
0001
0100
0000
0001
0000
1000
0000
0002
0000
0000
0000
1003
0010
1000
0000
,  // measure 74
0001
1000
0001
0000
0010
0000
0100
0000
0101
0000
0000
0000
0100
0000
1100
0000
,  // measure 75
0000
0000
0010
0000
1000
0001
1000
0001
1000
0000
0000
0000
0000
0000
0000
0000
;
