#TITLE:Sakura Reflection (P*Light Slayer Remix);
#SUBTITLE:;
#ARTIST:Ryu*;
#TITLETRANSLIT:;
#SUBTITLETRANSLIT:;
#ARTISTTRANSLIT:;
#GENRE:;
#CREDIT:;
#BANNER:Sakura Reflection (P_Light Slayer Remix).png;
#BACKGROUND:Sakura Reflection (P_Light Slayer Remix)-bg.png;
#LYRICSPATH:;
#CDTITLE:;
#MUSIC:Sakura Reflection (P_Light Slayer Remix).ogg;
#OFFSET:-5.142000;
#SAMPLESTART:14.158051;
#SAMPLELENGTH:14.020000;
#SELECTABLE:YES;
#BPMS:0.000000=186.000000
,92.000000=93.000000
,96.000000=186.000000
;
#STOPS:
;
#BGCHANGES:;
#KEYSOUNDS:;
#ATTACKS:;

//---------------dance-single - ----------------
#NOTES:
     dance-single:
     :
     Beginner:
     5:
     0.301421,0.324280,0.000000,0.041534,0.000000,254.000000,254.000000,0.000000,5.000000,0.000000,0.000000,0.301421,0.324280,0.000000,0.041534,0.000000,254.000000,254.000000,0.000000,5.000000,0.000000,0.000000:
0000
0000
0000
0000
,
0000
0000
0000
0000
,
0000
0000
0000
0000
,
1000
0000
1000
0100
,
1000
0000
0001
0000
,
0010
0000
0001
0000
,
0010
0010
0010
0000
,
0100
1000
0100
0000
,
1000
0001
1000
0000
,
0001
0010
0001
0000
,
0100
0010
1000
0000
,
0010
0100
0001
0000
,
1000
0001
0100
0000
,
0001
0010
1000
0000
,
0010
0001
0100
0000
,
0010
1000
0010
1000
,
0001
0100
0001
0100
,
0010
0000
1000
0000
,
0001
1000
0001
0000
,
1000
0100
1000
0000
,
0010
1000
0010
0000
,
1000
0000
0001
0000
,
1000
0100
1000
0000
,
0010
0010
0100
0100
,
0001
0001
1000
0000
,
0100
0100
0010
0010
,
0001
0000
1000
0000
,
0001
0001
0100
0010
,
0000
0010
0000
0000
,
0010
1000
0010
1000
,
0001
0000
1000
0000
,
0001
0100
0001
0100
,
0010
0000
0010
0000
,
1000
0000
1000
0000
,
0001
0000
0001
0000
,
0100
0000
0100
0000
,
0010
0010
0010
0000
,
1000
1000
1000
0000
,
0001
0001
0001
0000
,
0200
0000
0000
0000
,
0310
0010
0010
0010
,
1000
0001
1000
0001
,
0100
0100
0100
0100
,
0020
0000
0000
0000
,
1030
0001
1000
0001
,
0200
0000
0000
0000
,
0310
1000
0010
1000
,
0002
0000
0000
0000
,
0103
0000
0001
0010
,
0100
1000
0100
0010
,
0001
0000
1000
0000
,
0001
1000
0001
1000
,
0001
0000
0001
0000
,
0100
0000
0100
0000
,
0010
0000
0010
0000
,
1000
1000
1000
1000
,
0002
0000
0000
0000
,
0103
0000
0100
0000
,
0010
1000
0010
1000
,
0100
0010
0001
0000
,
1000
0001
0100
0001
,
0010
0100
1000
0000
,
0010
0001
0010
1000
,
0010
0001
0010
0000
,
1000
0100
0001
0100
,
1000
0010
0100
0001
,
1000
0001
1000
0001
,
1000
0010
1000
0010
,
0100
0010
0100
0010
,
0000
1000
0001
0000
,
1000
0001
1000
0000
,
0001
0010
0001
0010
,
0001
0100
0001
0100
,
0001
0000
0001
1000
,
0001
1000
0001
0000
,
1000
0010
1000
0010
,
1000
0100
1000
0100
,
1000
0010
0100
0010
,
0100
0010
1000
0000
,
0001
1000
0001
1000
,
0001
0000
1000
0000
,
0100
1000
0100
1000
,
0100
0000
0010
0000
,
0001
0010
0001
0010
,
0001
0000
0100
0000
,
0010
1000
0010
1000
,
0010
0100
0010
1000
;

//---------------dance-single - ----------------
#NOTES:
     dance-single:
     :
     Easy:
     10:
     0.421278,0.468405,0.083069,0.033228,0.000000,355.000000,345.000000,10.000000,4.000000,0.000000,0.000000,0.421278,0.468405,0.083069,0.033228,0.000000,355.000000,345.000000,10.000000,4.000000,0.000000,0.000000:
0000
0000
0000
0000
,
0000
0000
0000
0000
,
0000
0000
0000
0000
,
0001
1000
0001
1000
,
0010
0100
0010
1000
,
0100
0010
0001
0010
,
0001
0010
0001
0010
0001
0000
1000
0000
,
0100
1000
0010
0100
,
0001
0010
0001
1000
,
0100
0010
0001
0010
,
0001
0010
0001
0000
0010
0000
0100
0000
,
0010
0001
1000
0001
,
1000
0000
0100
0000
1000
0100
1000
0000
,
0010
0100
0001
0010
,
0000
0001
1000
0001
,
0100
0010
0100
0001
,
1001
1000
1010
0010
,
0100
0001
0010
0001
,
0020
0000
0000
2030
0000
0000
3100
0000
,
0010
0001
0010
0100
,
1000
0001
1000
0010
,
0100
0010
0100
0000
0001
0000
0010
0000
,
0001
1000
0001
1000
,
0010
0000
0010
0000
0100
0100
0100
0100
,
0001
1000
0001
0010
,
0001
0100
0010
1000
,
0010
1000
0100
0010
,
0001
0000
0010
0001
0010
0000
0011
0000
,
0010
0100
1000
0001
,
1000
0000
0001
1000
0001
0000
1001
0000
,
1000
0100
0010
0100
,
1000
0010
0001
0010
,
1000
0100
0000
1000
0000
0100
0000
1000
,
0000
0100
0000
1000
0000
0100
1000
0100
,
1000
0100
0000
0010
0000
0001
0000
0010
,
0000
0001
0000
0010
0000
0001
0010
0000
,
0100
0010
0001
1000
,
0001
0000
1000
0000
0100
1000
0100
0000
,
0010
0000
0001
0000
0010
0001
0010
0000
,
0001
0000
0000
0000
,
0100
0010
1000
0010
,
0200
0301
2000
3001
,
0010
0100
1000
0001
,
0010
0000
0001
0000
0100
0010
0100
0000
,
0010
1000
0100
1000
,
0001
0010
0001
0000
0100
0010
0100
0000
,
0010
1000
0100
1000
,
1001
0001
0101
0100
,
0110
0010
1000
0100
,
0010
0000
0001
0000
1000
0000
0001
1000
,
0001
0010
0001
0010
,
0001
0010
0001
0100
,
0010
1000
0100
1000
,
0010
0100
0001
0010
,
0001
1000
0001
1000
,
0010
0100
0010
0000
0100
0000
0010
0000
,
1000
0000
0000
0000
,
0001
0000
1000
0000
,
0001
0010
0001
0100
,
0010
1000
0010
0000
1000
0000
0000
0000
,
0100
0010
0001
0010
,
0100
1000
0001
0000
,
1000
0010
1000
0001
,
0100
0001
0010
0000
,
0100
1000
0010
1000
,
0100
0010
0011
0011
,
0100
0000
1000
0100
1000
0000
0001
0000
,
0010
0000
0001
0010
0001
0000
0100
0000
,
0010
1000
0010
1000
,
0000
0100
0000
0000
,
1000
0001
1000
0001
1000
0000
0000
0000
,
0010
0000
0100
0000
0001
0010
0001
0000
,
1000
0000
0100
0000
1000
0100
1000
0000
,
0010
0100
0001
0010
,
0011
0010
0010
0010
,
0001
1000
0100
1000
,
0001
0010
0001
0100
,
0010
1000
0010
0100
,
0000
0001
0000
0010
0000
0000
0000
0000
,
0001
1000
0100
1000
,
0010
0100
0001
0010
,
0100
1000
0100
0010
,
0001
1000
0001
1000
,
0100
1000
0100
1000
,
0100
0010
0001
0010
,
0001
0010
0100
1000
,
0001
1000
0001
1000
0001
0000
0100
0000
;

//---------------dance-single - ----------------
#NOTES:
     dance-single:
     :
     Medium:
     14:
     0.671671,0.792685,0.224286,0.024921,0.137064,566.000000,539.000000,27.000000,3.000000,0.000000,0.000000,0.671671,0.792685,0.224286,0.024921,0.137064,566.000000,539.000000,27.000000,3.000000,0.000000,0.000000:
// measure 0
0000
0000
0000
0000
,  // measure 1
0000
0000
0000
0000
,  // measure 2
0000
0000
0000
0000
,  // measure 3
1000
0000
0100
0010
0100
1000
0100
0000
,  // measure 4
0010
0001
0010
0100
0010
0000
0001
0010
,  // measure 5
0001
0100
0010
1000
,  // measure 6
0000
0010
0010
0010
0010
0000
0100
0000
,  // measure 7
1001
0000
0001
0010
0001
0010
0001
0000
,  // measure 8
0101
0000
1010
0000
1000
0100
1000
0000
,  // measure 9
0001
0000
0010
0000
0001
0010
0001
0000
,  // measure 10
0100
0010
0100
0001
0010
0100
1000
0000
,  // measure 11
1001
0000
0101
0000
0010
1000
0010
1000
,  // measure 12
0001
0000
1000
0100
1000
0100
0010
0000
,  // measure 13
0001
1000
0001
0000
1000
0010
1000
0010
,  // measure 14
0000
0000
1000
0000
0010
0100
0000
0001
0100
0000
0000
0000
0100
0000
0001
0000
,  // measure 15
1001
1000
0100
1000
,  // measure 16
1100
0100
0110
0010
,  // measure 17
0001
0000
0010
0000
0001
0010
0001
0000
,  // measure 18
0100
1000
0100
0000
1000
0000
0000
0000
0001
0010
0001
0000
0010
0000
0000
0000
,  // measure 19
0001
1000
0001
1000
0010
0100
0010
0000
,  // measure 20
0010
0100
0010
0000
1000
0001
1000
0001
,  // measure 21
1000
0100
0010
0001
,  // measure 22
1000
0000
0001
0000
1000
0001
0000
0001
1000
0000
0000
0000
0000
0000
0000
0000
,  // measure 23
0010
0010
0100
0001
0010
0001
0010
0100
,  // measure 24
1000
0001
1000
0001
1000
0010
0000
0100
,  // measure 25
0000
0010
0100
0010
0100
0000
0010
0000
,  // measure 26
1000
0000
0100
1000
0000
0001
0000
0010
,  // measure 27
0000
0001
0010
0001
0010
0001
0010
0001
,  // measure 28
1000
0000
0100
0010
0000
0011
0000
0101
,  // measure 29
0000
0010
1000
0100
1000
0000
1010
0000
,  // measure 30
0001
0000
0100
0010
0000
0100
0000
0001
,  // measure 31
0000
0010
1000
0010
0001
1000
0010
0000
,  // measure 32
0100
0001
0000
0010
0000
0001
0000
0010
,  // measure 33
0000
1000
0000
0010
0000
0001
0010
0001
,  // measure 34
0010
0001
0000
0100
0000
1000
0000
0100
,  // measure 35
0000
0001
0000
0100
0000
1000
0100
0001
,  // measure 36
0010
0000
0100
0000
1000
0010
1000
0000
,  // measure 37
0001
0100
0001
0000
0100
0010
0100
0000
,  // measure 38
0010
1000
0010
0000
1000
0100
1000
0000
,  // measure 39
0000
0000
0010
0000
0010
0000
0010
0000
0010
0000
1000
0000
0001
1000
0001
0000
,  // measure 40
0100
0000
0001
0100
0001
0000
1000
0000
0010
0000
0100
0000
0010
0000
1000
0000
,  // measure 41
0001
0000
0001
0000
0001
0000
0001
1000
0001
0000
1000
0000
0100
0000
0000
0000
,  // measure 42
0010
0001
0010
0001
0010
0001
0010
0001
,  // measure 43
0010
0010
0100
0100
1000
1000
1100
0000
,  // measure 44
0100
0100
0010
0010
0001
0001
1000
1000
,  // measure 45
0001
1000
0001
1000
0001
1000
0001
0000
,  // measure 46
0100
0100
0100
0000
0010
0010
0010
0000
,  // measure 47
1000
0100
1000
0100
1000
0100
1000
0000
,  // measure 48
0001
1000
1001
0000
0001
0010
0001
0000
,  // measure 49
0010
0010
0001
0001
0010
0010
0100
0000
,  // measure 50
0100
1000
0100
0000
1000
0001
1000
0000
,  // measure 51
0001
0010
1000
0010
0001
0010
1000
0010
,  // measure 52
0001
0000
0000
0101
0000
0000
0110
0000
0000
1010
0000
0000
1000
0100
1000
0000
,  // measure 53
0001
0000
0000
0011
0000
0000
0010
0000
0000
0100
0000
0000
1000
0001
1000
0001
,  // measure 54
1000
0010
0100
0010
1000
0001
0100
0001
,  // measure 55
0010
0001
0010
0000
0001
1000
0001
0000
1000
0100
1000
0000
0001
1000
0001
0000
,  // measure 56
0200
0000
0000
0000
,  // measure 57
0302
0000
2003
0000
,  // measure 58
3010
0000
0100
0001
0100
0000
0010
0000
,  // measure 59
1000
0100
1000
0100
1000
0000
0001
0010
,  // measure 60
0001
0000
0100
0010
0100
0000
0001
0000
,  // measure 61
1000
0000
0100
1000
0100
0000
1000
0010
,  // measure 62
0100
0000
0001
0010
0100
0010
0001
1000
,  // measure 63
0100
0100
1000
1000
0010
0000
1000
0001
,  // measure 64
0100
0000
0000
0000
0001
0000
0010
0000
0100
0000
1000
0001
1000
0000
0001
0000
,  // measure 65
0100
0100
0010
0010
1001
0000
0101
0000
,  // measure 66
0011
0000
0001
0010
0100
1000
0001
0000
,  // measure 67
1001
0000
1000
0100
0010
0001
1000
0000
,  // measure 68
0110
1001
0110
1001
,  // measure 69
0000
0001
1000
0001
1000
0000
0000
0000
,  // measure 70
0000
0010
0100
0010
0100
0000
0000
0000
,  // measure 71
0001
0000
0100
0000
0010
0000
1000
0000
0010
0000
0100
0000
0001
0010
0001
0000
,  // measure 72
1000
0000
0010
0100
0010
0100
0010
0000
,  // measure 73
1000
0001
1000
0001
0100
0010
0100
0010
,  // measure 74
1000
0001
1000
0000
0000
0000
0010
1000
0010
0000
1000
0000
0000
0000
0000
0000
,  // measure 75
0001
0100
0001
0100
0001
0100
0001
0000
,  // measure 76
1000
0010
1000
0010
1000
0010
1000
0000
,  // measure 77
1000
0100
0010
0001
1000
0100
0010
0001
,  // measure 78
0000
0000
1000
0000
0001
0100
0000
0001
1000
0000
0000
0000
0100
0000
0100
0000
,  // measure 79
1000
0001
0010
0001
0010
1000
0010
1000
,  // measure 80
0010
0001
0010
0001
0010
1000
0010
0100
,  // measure 81
0001
0100
1000
0100
0001
0100
1000
0100
,  // measure 82
0001
0100
0010
0001
1000
0010
0001
1000
,  // measure 83
0100
0000
0001
1000
0000
0001
0100
0000
0010
0000
0001
0000
0010
0000
1000
0000
,  // measure 84
0100
0010
0001
0010
1000
0010
0001
0010
,  // measure 85
0100
0000
1000
0100
1000
0000
0100
0010
0100
0000
0010
0001
0010
0000
0001
0000
,  // measure 86
1000
0000
0001
0000
1000
0001
0000
1001
0000
0000
0000
0000
0110
0000
0000
0000
;

//---------------dance-single - ----------------
#NOTES:
     dance-single:
     :
     Hard:
     17:
     1.011067,1.011779,0.755927,0.224286,0.913758,852.000000,761.000000,91.000000,27.000000,0.000000,0.000000,1.011067,1.011779,0.755927,0.224286,0.913758,852.000000,761.000000,91.000000,27.000000,0.000000,0.000000:
// measure 0
0000
0000
0000
0000
,  // measure 1
0000
0000
0000
0000
,  // measure 2
0000
0000
0000
0000
,  // measure 3
1001
0000
0000
0000
0100
0000
0001
0000
0010
0001
1000
0100
0010
0000
0100
0000
,  // measure 4
1000
0001
0100
0010
0110
0000
0010
0100
,  // measure 5
0001
0000
0001
0000
1000
0000
0010
0000
0100
0001
0100
0001
0010
0001
0010
0000
,  // measure 6
0000
0001
1001
0100
0110
0010
1000
0001
,  // measure 7
0010
0000
0001
0100
0000
0010
0000
1000
0000
0100
0010
0100
1000
0001
1000
0000
,  // measure 8
0001
0000
0010
0001
0000
0010
0000
0100
0000
1000
0100
0010
0100
0010
0001
0000
,  // measure 9
0010
0000
0001
1000
0000
0010
0000
1000
0000
0001
0010
0100
1000
0010
1000
0000
,  // measure 10
0010
0100
0001
1000
0001
0000
0100
0010
1000
0001
1000
0000
1001
0000
0001
0100
,  // measure 11
0010
0000
0100
0001
1000
0001
0000
0100
0000
0001
0010
0100
1000
0001
1000
0000
,  // measure 12
1010
0000
0010
0100
0000
0001
0000
0100
0000
0001
1000
0010
1000
0001
1000
0000
,  // measure 13
0001
0000
0100
0000
0001
0000
0100
0000
0010
1000
0010
1000
0001
0100
0001
0000
,  // measure 14
0000
0000
1001
0000
0100
0010
0000
0110
0000
0000
0010
0000
1000
0100
1000
0000
,  // measure 15
0001
0000
0010
0001
0000
0101
0000
0100
0000
0010
1000
0100
1000
0000
0001
0000
,  // measure 16
0100
0000
0010
0100
0010
0100
0000
0010
1000
0100
0010
0001
1000
0001
1000
0000
,  // measure 17
0100
0000
1000
0010
0000
1010
0000
1000
0000
0001
0010
0001
1000
0100
1000
0000
,  // measure 18
0001
0010
0100
1000
0001
0000
1000
0100
0010
0001
1000
0000
0001
0000
0100
0010
,  // measure 19
1000
0000
0010
1000
0000
1001
0000
0001
0000
0100
0001
0100
0010
0100
0010
0000
,  // measure 20
1000
0100
0010
0001
0100
0000
0001
0010
0100
1000
0010
0000
0110
0000
0010
1000
,  // measure 21
0100
0000
0010
0000
0001
0000
1000
0000
0100
0010
0100
0010
0001
1000
0001
0000
,  // measure 22
0101
0000
0100
0000
0001
0010
0000
0011
0000
0000
0000
0000
1001
0000
0000
0000
,  // measure 23
1001
0000
0001
0101
0000
1010
0000
1100
0000
0100
0100
0100
0100
0000
0110
0000
,  // measure 24
1001
0000
0001
0010
1000
0010
0001
0100
,  // measure 25
0010
0000
1000
0010
1000
0000
0001
0000
0100
0000
0000
0000
0101
0000
0000
0000
,  // measure 26
0011
0000
0010
1000
0010
0001
0100
1000
,  // measure 27
0100
0000
0001
0000
0010
0000
0100
0000
1000
0010
0100
0000
0001
0100
0010
0000
,  // measure 28
1010
0000
1000
0100
0010
0001
0100
0002
,  // measure 29
0000
1003
0010
0010
0110
0000
2002
3003
,  // measure 30
0101
0000
0100
0010
1000
1020
0000
0130
,  // measure 31
0001
0010
0100
1000
0001
0010
0001
0100
,  // measure 32
0010
0110
0000
1010
0000
1100
0000
0110
,  // measure 33
0000
0011
0000
0101
0000
0100
0100
0010
,  // measure 34
1000
1100
0000
0110
0000
0011
0000
0101
,  // measure 35
0000
0000
1100
0000
0000
0000
0101
0000
0000
0000
0001
0000
0010
0100
0010
0000
,  // measure 36
1000
0000
0010
0000
0001
0000
0100
0001
0100
0000
0010
0000
1000
0000
0100
0000
,  // measure 37
0010
0000
0010
0000
0001
0000
0001
0000
1000
0000
1000
0000
0100
0001
0100
0000
,  // measure 38
1000
0000
1000
0000
0001
0000
0100
0010
1000
0000
0010
0000
0100
0001
0100
0001
,  // measure 39
0000
0000
1001
0000
1001
0000
0001
0000
0001
0000
1000
0000
0010
0100
0001
0000
,  // measure 40
1000
0000
0010
0000
1000
0000
0100
0010
0001
0000
0010
0000
1000
0010
0001
0000
,  // measure 41
0010
0010
0110
0100
0100
0100
2200
3300
,  // measure 42
1001
0000
1000
0000
1000
0000
1000
0000
0010
0000
0010
0000
0010
0000
0010
0100
,  // measure 43
0001
0000
0001
0000
0001
0000
0001
0000
1000
0100
0010
0001
0200
0000
0300
0000
,  // measure 44
0101
0000
0001
0000
1001
0000
1000
0010
0100
0000
0001
0000
0100
0010
1000
0000
,  // measure 45
1010
0000
0000
0110
0000
0000
0101
0000
1001
0000
0001
0000
0202
0000
0303
0000
,  // measure 46
0010
0000
0010
0000
1000
0000
0100
0010
0100
0000
0010
0000
0001
1000
0001
0000
,  // measure 47
0101
0000
0101
0000
0110
0000
0110
0000
0010
1000
0001
0010
0100
1000
0010
0000
,  // measure 48
0110
0000
0100
0001
0010
0000
0100
0000
1000
0000
0010
0000
0001
0000
0010
0000
,  // measure 49
1000
0000
1000
0000
0001
0000
0001
0000
0100
0000
0010
0000
1000
0000
0010
0100
,  // measure 50
0001
0000
0001
0000
1000
0000
0010
0100
1000
0000
0100
0000
0001
0000
0010
0100
,  // measure 51
0001
0100
0011
0010
0100
1000
1001
0001
,  // measure 52
0101
0000
0000
0110
0000
0000
1010
0000
0000
1100
0000
0000
0100
0010
0001
1000
,  // measure 53
0010
0000
0000
0110
0000
0000
0101
0000
0000
1001
0000
0000
1000
0010
0100
0010
,  // measure 54
1000
0000
0001
0000
0100
0000
0001
0010
1000
0000
0010
0000
0001
0000
0100
0010
,  // measure 55
1000
0100
1000
0000
0001
0010
0001
0000
0100
0010
1000
0010
0100
0010
1000
0010
,  // measure 56
0200
0000
0300
0000
,  // measure 57
0101
0000
1001
0000
,  // measure 58
2010
0000
0000
0000
3100
0000
0010
0000
0001
0000
1000
0001
0010
0000
0001
0000
,  // measure 59
0100
0010
1000
0010
0200
0000
0301
0010
,  // measure 60
0200
0000
0000
0000
0310
0000
0001
0000
0100
0000
0010
1000
0001
0000
1000
0000
,  // measure 61
0020
0000
0000
0000
0130
0001
0100
0001
2000
0000
0000
0000
3010
0000
0100
0000
,  // measure 62
0101
0000
0000
0000
0001
0000
0010
0000
0100
1000
0010
1000
0100
0000
0010
0000
,  // measure 63
0001
0100
0010
1000
1100
0000
0100
0001
,  // measure 64
0201
0000
0000
0000
1300
0000
0010
0000
0100
0000
0001
0010
0001
0000
1000
0000
,  // measure 65
0100
0010
0100
0010
0001
1000
0001
1000
0010
0000
0100
0000
0101
0000
0000
0000
,  // measure 66
0011
0000
0000
0000
1000
0000
0010
0000
0001
0000
0010
1000
0100
0000
0010
0000
,  // measure 67
0022
0000
0033
0000
0001
0000
0100
0000
1000
0000
0100
0001
0010
0000
0100
0000
,  // measure 68
2200
3300
2002
3003
0022
0033
0220
0330
,  // measure 69
0000
1001
1001
1001
1001
0001
0100
0000
,  // measure 70
0000
0110
0110
0110
0110
0010
1000
0001
,  // measure 71
0100
0000
0010
1000
0000
0100
0000
0010
0000
0001
1000
0001
0100
0010
0100
0000
,  // measure 72
0010
0000
1000
0100
0000
0001
0000
0100
0000
1000
0010
0100
0010
1000
0001
0000
,  // measure 73
0010
0000
0001
0100
0000
1000
0000
0100
0000
0001
0010
0100
1000
0010
1000
0000
,  // measure 74
0001
0100
0010
0100
0001
0000
1000
0010
0100
0010
1000
0000
0100
0000
0010
0001
,  // measure 75
0100
0000
0010
1000
0000
0100
0000
0010
0000
0100
1000
0001
0010
0001
1000
0000
,  // measure 76
0010
0000
0100
0001
0000
0001
0000
1000
0000
0010
1000
0100
0010
0000
0001
0000
,  // measure 77
0100
0000
0001
0010
0000
0010
0000
0010
0100
1000
0001
0010
0001
0100
0010
0000
,  // measure 78
0000
0000
1010
0000
1000
0001
0000
1001
0000
0000
0100
0000
0010
1000
0001
0000
,  // measure 79
1000
0000
0010
0100
0000
0001
0000
0010
0000
0001
1000
0010
1000
0100
0010
0000
,  // measure 80
0001
0000
1000
0000
0010
1000
0100
0000
0010
0000
0001
0100
0010
0100
0001
0000
,  // measure 81
1000
0010
0100
0010
1000
0100
0010
0001
,  // measure 82
0100
0010
1000
0100
0010
0000
0001
0010
0100
1000
0010
0000
0100
0000
0001
1000
,  // measure 83
0010
0000
1000
0100
0000
0110
0000
0010
0000
0001
1000
0010
1000
0000
0100
0000
,  // measure 84
0010
0001
1000
0001
0100
0000
0010
1000
0100
0010
0001
0000
1001
0000
1000
0000
,  // measure 85
0010
0000
0100
0001
0010
0000
0100
1000
0010
0000
0100
0001
0010
0000
0100
0000
,  // measure 86
1000
0001
1000
0001
1000
0010
1000
0010
1000
0100
1000
0100
2000
0000
0000
0000
,  // measure 87
3000
0000
0000
0000
;
