#TITLE:SUMIDAGAWA KARENKA -IO Angel Mix-;
#SUBTITLE:;
#ARTIST:Seiya-Murai feat.ALT;
#TITLETRANSLIT:C;
#SUBTITLETRANSLIT:;
#ARTISTTRANSLIT:;
#GENRE:;
#CREDIT:;
#BANNER:SUMIDAGAWA KARENKA (IO Angel Mix).png;
#BACKGROUND:SUMIDAGAWA KARENKA (IO Angel Mix)-bg.png;
#LYRICSPATH:;
#CDTITLE:;
#MUSIC:SUMIDAGAWA KARENKA (IO Angel Mix).mp3;
#OFFSET:-1.800000;
#SAMPLESTART:67.459854;
#SAMPLELENGTH:12.000000;
#SELECTABLE:YES;
#BPMS:0.000000=178.000000
;
#STOPS:
;
#BGCHANGES:;
#KEYSOUNDS:;
#ATTACKS:;

//---------------dance-single - ----------------
#NOTES:
     dance-single:
     :
     Easy:
     5:
     0.290241,0.481857,0.071287,0.017822,0.000000,228.000000,220.000000,8.000000,2.000000,0.000000,0.000000,0.290241,0.481857,0.071287,0.017822,0.000000,228.000000,220.000000,8.000000,2.000000,0.000000,0.000000:
0000
0000
0000
0000
,
0000
0000
0000
0000
,
0000
0000
0000
0000
,
1000
0000
0001
0000
,
1000
0000
0010
0000
,
1000
0000
0001
0000
,
0100
0000
0010
0000
,
0100
0000
0001
0000
,
1000
0000
0001
0000
,
1000
0100
1000
0000
,
0001
1000
0001
0000
,
0010
0001
0010
0000
,
0001
1000
0001
0000
,
1000
0100
1000
0000
,
0010
1000
0010
0000
,
1000
0001
1000
0000
,
0001
0100
0001
0000
,
1000
0010
1000
0000
,
0001
0100
0010
0000
,
0100
0000
0010
0000
,
1000
0001
1000
0000
,
0001
0000
0100
0000
,
0010
0100
0010
0000
,
1000
0000
0001
0000
,
0100
1000
0100
0000
,
0001
0000
0010
0000
,
1000
0000
0010
0000
,
0001
0000
0100
0000
,
1000
0000
0100
0000
,
0001
0000
0010
0000
,
1000
0010
0001
0000
,
1000
0001
1000
0001
,
0100
0010
0100
0000
,
0001
0000
1000
0000
,
0010
1000
0010
0000
,
1000
0000
0001
0000
,
0100
0010
0100
0001
,
1000
0000
0001
0000
,
0010
0001
0010
0001
,
0100
0000
0010
0000
,
0100
0010
1000
0010
,
0100
0000
0001
0000
,
1000
0000
0001
0100
,
0020
0000
2030
0000
,
3001
0000
0100
0010
,
0100
0000
0010
0000
,
1000
0000
0001
0000
,
0100
0010
0100
0010
,
1000
0010
1000
0001
,
0100
0000
0100
0000
,
0010
0010
0010
0000
,
1000
0001
1000
0000
,
0001
0000
0100
0000
,
0001
0010
0001
0010
,
0100
1000
0100
1000
,
0001
0000
0100
0000
,
0001
0000
1000
0010
,
1000
0010
0100
0010
,
0100
0010
1000
0010
,
1000
0001
1000
0001
,
0100
0000
0010
0000
,
0100
0010
0100
0010
,
1000
0010
1000
0001
,
0100
0001
1001
1000
,
1010
0010
0110
0100
,
0101
0001
1001
1000
,
1010
0010
0110
0100
,
0101
0001
1000
0001
,
1000
0100
0010
0001
,
0010
1000
0010
0001
,
0100
1000
0001
1000
,
0001
0000
0100
0000
,
0010
1000
0010
1000
,
0000
0001
0100
0000
,
0001
1000
0001
1000
,
0010
0100
0001
0100
,
0010
1000
0010
0100
,
0000
0001
0000
0000
;

//---------------dance-single - ----------------
#NOTES:
     dance-single:
     :
     Beginner:
     1:
     0.104385,0.130990,0.000000,0.000000,0.000000,82.000000,82.000000,0.000000,0.000000,0.000000,0.000000,0.104385,0.130990,0.000000,0.000000,0.000000,82.000000,82.000000,0.000000,0.000000,0.000000,0.000000:
0000
0000
0000
0000
,
0000
0000
0000
0000
,
0000
0000
0000
0000
,
1000
0000
1000
0000
,
0001
0000
0001
0000
,
0100
0100
0100
0000
,
0010
0000
1000
0000
,
0001
0000
0000
0000
,
1000
0000
0001
0000
,
1000
0000
1000
0000
,
0001
0000
0001
0000
,
0100
0000
0100
0000
,
0010
0000
0010
0000
,
1000
0000
1000
0000
,
0001
0000
0001
0000
,
0100
0100
0100
0000
,
0010
0010
0010
0000
,
1000
0000
0001
0000
,
1000
0000
0100
0000
,
1000
0000
0010
0000
,
0100
0000
0010
0000
,
1000
0000
0000
0000
,
0001
0000
0100
0000
,
0010
0000
0000
0000
,
0100
0000
0100
0000
,
0100
0000
0000
0000
,
0010
0000
0010
0000
,
0010
0000
1000
0000
,
1000
0000
0001
0000
,
0001
0000
0100
0000
,
0100
0000
0010
0000
,
1000
1000
1000
0000
,
0001
0001
0001
0000
,
0100
0000
0100
0000
,
0010
0000
0010
0000
,
1000
0000
1000
0000
,
0001
0001
0001
0000
,
1000
0000
0010
0000
,
1000
0000
0001
0001
,
0001
0000
0100
0000
,
0010
0000
0100
0000
,
0010
0000
1000
0000
,
0010
0000
0000
0000
;

//---------------dance-single - ----------------
#NOTES:
     dance-single:
     :
     Medium:
     9:
     0.388261,0.444543,0.098020,0.008911,0.000000,305.000000,294.000000,11.000000,1.000000,0.000000,0.000000,0.388261,0.444543,0.098020,0.008911,0.000000,305.000000,294.000000,11.000000,1.000000,0.000000,0.000000:
0000
0000
0000
0000
,
0000
0000
0000
0000
,
0000
0000
0000
0000
,
1000
0001
0010
0001
,
0100
0010
1000
0010
,
0101
0001
1000
0010
,
1010
0000
1000
0010
1000
0000
0001
0000
,
0100
0010
0100
0001
,
1000
0001
1000
0000
0001
1000
0001
0000
,
0100
0010
1000
0010
,
0100
0001
0010
0001
,
1000
0100
1000
0010
,
0100
0010
0100
0000
0010
0000
1000
0000
,
0001
0100
0010
0100
,
0001
1000
0001
0000
1000
0000
0100
0000
,
0010
0001
1000
0001
,
1000
0001
1000
0000
0001
1000
0001
0000
,
1000
0000
0100
0000
,
0010
0001
0100
0010
,
0100
0000
0010
0000
,
1000
0001
1000
0001
,
0100
0000
0010
0000
,
0100
0010
1000
0001
,
1000
0000
0001
0000
,
0100
0010
0100
0001
,
2000
0000
3001
0100
,
0010
0100
0010
0100
,
0001
0000
1000
0000
,
0010
0000
1000
0001
,
1000
0000
0001
0000
,
0100
0010
0100
0001
,
1000
0001
1001
1000
,
1010
0010
0110
0100
,
0001
0010
0100
1000
,
0001
0010
1000
0010
,
0001
0100
1000
0100
,
0001
1000
0001
0000
1000
0000
0100
0000
,
1000
0000
0010
0000
,
0100
0001
0010
0001
,
1000
0000
0010
0100
,
0001
0100
0001
0000
1000
0000
0001
0000
,
0100
0010
0100
0001
,
1000
0001
0010
0001
,
0100
0000
0001
0000
,
1000
0001
1000
0010
,
1000
0001
0100
0010
,
0100
0001
0010
0001
,
1000
0000
0100
1000
0100
0000
1000
0000
,
0010
0100
0010
0100
0010
0000
1000
0000
,
0001
0010
0001
1000
,
0100
1000
0010
0100
,
0010
0000
1000
0001
1000
0000
0001
0000
,
0100
0000
0010
0100
,
0001
0100
0010
1000
,
0010
0100
0001
0010
,
0001
1000
0100
1000
,
0010
0000
0100
0001
,
0010
0001
0010
0000
0001
0000
0100
0000
,
0010
0100
0010
0000
0100
0000
0001
0000
,
1000
0000
0001
0000
1000
0100
1000
0000
,
0010
0100
0010
0100
,
0001
0010
0001
1000
,
0100
1000
0010
1000
,
1001
0001
0101
0100
,
0110
0000
0010
0000
1000
0000
0010
1000
,
0010
0000
1000
0001
1000
0000
0001
0100
,
0001
0100
0010
1000
,
1100
0100
0010
0001
,
0100
0010
0100
0010
,
1000
0100
0010
0001
,
1000
0001
1000
0100
,
1000
0010
0100
0001
,
0010
0001
1000
0100
,
1000
0010
0100
0010
,
1000
1000
0001
0001
,
0101
0100
0100
0100
,
0010
0010
1000
1001
;

//---------------dance-single - ----------------
#NOTES:
     dance-single:
     :
     Hard:
     15:
     0.822350,0.932304,0.472278,0.196040,0.298515,646.000000,593.000000,53.000000,22.000000,0.000000,0.000000,0.822350,0.932304,0.472278,0.196040,0.298515,646.000000,593.000000,53.000000,22.000000,0.000000,0.000000:
// measure 0
0000
0000
0000
0000
,  // measure 1
0000
0000
0000
0000
,  // measure 2
0000
0000
0000
0000
,  // measure 3
1000
0010
0100
0010
1000
0010
0100
0001
,  // measure 4
0010
0000
0001
0000
1000
0000
0001
0000
0100
0000
0010
1000
0010
0000
0100
0000
,  // measure 5
0101
0000
1000
0100
0011
0000
0100
0010
,  // measure 6
1002
0000
0000
0000
1003
0000
0010
0100
0001
0000
0100
0000
0010
0000
1000
0000
,  // measure 7
0020
0230
0302
2003
,  // measure 8
3001
0100
0001
0000
1000
0001
1000
0000
0001
0000
0000
0000
0101
0000
0000
0000
,  // measure 9
1000
0010
0001
0010
1000
0100
0001
0000
,  // measure 10
0010
0000
0001
0000
0100
0000
1000
0000
0001
0000
1000
0000
0010
0100
0010
0100
,  // measure 11
0010
1001
1001
0000
0100
0110
0010
0000
,  // measure 12
0100
0000
0001
0000
0010
0000
0100
0000
1000
0010
1000
0001
1000
0000
0000
0000
,  // measure 13
0101
0010
0100
0001
1001
1000
1010
0000
,  // measure 14
0110
0000
0100
0000
0001
0000
0010
0000
0001
1000
0001
0100
0001
0000
0000
0000
,  // measure 15
0100
0000
0000
0010
0000
0000
0100
0000
0000
1000
0000
0000
0100
0000
0000
0000
0000
0000
0000
0000
0000
0000
0000
0000
0010
0000
0000
0000
1000
0000
0000
0000
0001
0000
0000
0000
0100
0000
0000
0000
0000
0000
0000
0000
0000
0000
0000
0000
,  // measure 16
0010
1000
0100
0010
0101
0000
1010
0000
,  // measure 17
0001
0000
0000
0000
0100
0000
0010
1000
0010
0000
0100
0000
0001
0000
0010
0000
,  // measure 18
0001
1000
0010
1000
0000
0001
0100
0010
,  // measure 19
0100
0000
0001
0000
1000
0000
0010
0100
0010
0100
0010
0000
1000
0000
0001
0000
,  // measure 20
0010
0000
0001
0000
0100
0000
0010
0000
0100
0000
0001
1000
0001
0000
1000
0000
,  // measure 21
0010
0000
0100
0000
0001
0000
0010
0001
0010
0000
0000
0000
1000
0000
0010
0000
,  // measure 22
0100
0010
1000
0001
0000
0100
0010
1000
,  // measure 23
0020
0000
0100
0000
0130
0000
0001
1000
0001
0000
1000
0000
0100
0000
0010
0001
,  // measure 24
0010
0000
0001
1000
0001
0000
1000
0000
0100
0000
0000
0000
1000
0000
0010
0000
,  // measure 25
0200
0000
0000
0000
0301
0000
0010
0000
0000
0000
0001
0000
0010
0000
0100
1000
,  // measure 26
0100
1000
0010
0100
0010
1000
0001
0100
,  // measure 27
0020
0000
0000
0000
0130
0000
0001
1000
0001
0000
1000
0000
0010
0000
0100
0000
,  // measure 28
0001
0000
0100
0000
0010
0000
1000
0001
1000
0000
0001
0100
0001
0000
0100
0000
,  // measure 29
0010
0000
1000
0000
0010
0000
0100
0000
0001
0000
0010
0000
0001
0000
1000
0100
,  // measure 30
1000
0000
0010
0000
0100
0000
0010
0000
1000
0000
0001
0100
0001
0000
0100
0000
,  // measure 31
0010
0000
1010
0000
1000
0000
0001
0000
0100
0010
0100
0000
0010
0000
1000
0000
,  // measure 32
0001
0100
0010
1000
0200
0000
0310
0100
,  // measure 33
0020
0000
0000
0000
0130
0000
1000
0001
1000
0000
0010
0000
0100
0000
0001
0000
,  // measure 34
0010
0000
0001
0100
0001
0000
1000
0000
0010
0000
0100
0000
0010
0000
1000
0000
,  // measure 35
0002
0000
0000
0000
0103
0000
0010
1000
0010
0000
1000
0000
0001
0000
1000
0001
,  // measure 36
1000
0000
0010
0000
1000
0000
0010
0000
0100
0000
0000
0000
0001
0010
0001
0000
,  // measure 37
0010
0001
0100
0010
0100
0010
1000
0000
,  // measure 38
0001
0100
0010
0100
0001
1000
0001
1000
,  // measure 39
0010
0010
0110
0001
0001
1000
1000
1001
,  // measure 40
0010
0000
0100
0001
0100
0000
0001
0000
1000
0000
0000
0000
0010
0000
0100
0000
,  // measure 41
0010
0000
1000
0000
0100
0000
0010
0000
0001
0100
0001
0000
1000
0000
0010
0000
,  // measure 42
0100
0000
0010
0000
1000
0000
0001
0000
1000
0100
1000
0000
0010
0000
0100
0000
,  // measure 43
0020
0000
0000
0000
1030
0000
0001
0100
0001
0000
1000
0000
0010
0000
0100
0000
,  // measure 44
0020
0000
0030
0000
2000
0001
3200
0010
,  // measure 45
2300
0000
3001
0100
0000
0100
0101
0000
,  // measure 46
0001
1000
0010
0001
0010
1000
0001
0100
,  // measure 47
0010
0000
0110
0000
0100
0000
0001
0000
1000
0001
1000
0000
0001
0000
0010
0000
,  // measure 48
1000
0010
0001
0100
1000
0000
0001
0010
,  // measure 49
1000
0010
0001
0100
1000
0010
1000
0100
,  // measure 50
0001
0010
1000
0100
1000
0010
0001
0100
,  // measure 51
0010
0000
0010
0000
1000
0000
0001
0000
0100
0010
0100
0010
0100
0000
0001
0000
,  // measure 52
2000
0000
3200
0000
0320
0000
0031
1000
,  // measure 53
0010
1000
0100
0001
0100
1000
0010
0100
,  // measure 54
0010
0000
1000
0000
0001
0000
0100
0000
0010
0000
0100
0001
0100
0000
0001
0000
,  // measure 55
1000
0010
1000
0000
0001
0000
0100
0000
0001
1000
0001
0000
1000
0000
0010
0000
,  // measure 56
0201
0000
0000
0000
0300
0000
0010
1000
0010
0000
0000
0000
1001
0000
0000
0000
,  // measure 57
1100
1000
1001
0001
0101
0100
0110
0010
,  // measure 58
1010
0000
1000
0000
1001
0000
0001
0000
0100
0010
0100
0000
1010
0000
1000
0000
,  // measure 59
0001
0100
0001
0000
1001
0000
1000
0000
0010
0100
0010
0000
0101
0000
0001
0000
,  // measure 60
1001
1000
1010
0000
0110
0000
0001
0100
,  // measure 61
1001
1000
1010
0010
0110
0100
0101
0001
,  // measure 62
0001
1000
0001
0100
0001
0000
1001
0000
1000
0010
1000
0100
1000
0000
0010
0000
,  // measure 63
0110
0000
0100
0001
1010
0000
0100
0001
,  // measure 64
0010
0100
0010
0000
0100
0000
1000
0000
0001
0000
0010
0000
0001
0000
0100
0000
,  // measure 65
0011
0000
0000
0000
0100
0010
0100
0000
1001
0000
0000
0000
0001
0100
0001
0000
,  // measure 66
0110
0000
0000
0000
1000
0000
0001
1000
0001
0000
0100
0000
0010
0000
1000
0000
,  // measure 67
0010
0100
0001
0010
1000
0010
0001
0100
,  // measure 68
1000
0000
0100
0001
0100
0000
1000
0100
0001
0000
0010
1000
0010
0000
0001
0000
,  // measure 69
1001
1000
0100
0010
0001
0100
0001
1000
,  // measure 70
1010
0000
0100
0001
0100
0000
0010
1000
0010
0000
1000
0000
0001
0000
0100
0000
,  // measure 71
0010
1000
0010
0000
1000
0001
1000
0000
,  // measure 72
0001
0000
0100
0010
0100
0000
0010
1000
0010
0000
1000
0001
1000
0000
0010
0000
,  // measure 73
0101
0010
0100
1000
0001
0100
0010
0100
,  // measure 74
1000
0000
0001
0100
0001
0000
0100
0010
0100
0000
0010
1000
0010
0000
0100
0000
,  // measure 75
0011
0110
1100
1001
,  // measure 76
0101
0110
1010
2002
,  // measure 77
0000
0000
3003
0000
;

//---------------dance-single - ----------------
#NOTES:
     dance-single:
     :
     Challenge:
     16:
     0.936918,0.966834,0.712873,0.187129,0.507922,736.000000,656.000000,80.000000,21.000000,0.000000,0.000000,0.936918,0.966834,0.712873,0.187129,0.507922,736.000000,656.000000,80.000000,21.000000,0.000000,0.000000:
// measure 0
0000
0000
0000
0000
,  // measure 1
0000
0000
0000
0000
,  // measure 2
0000
0000
0000
0000
,  // measure 3
0001
0100
0010
0100
1000
0100
0010
1000
,  // measure 4
0001
0000
0010
0000
0001
0000
1000
0000
0010
0000
1000
0001
0100
0000
0001
0000
,  // measure 5
0011
0000
1000
0010
0110
0000
0100
0001
,  // measure 6
0012
0000
0000
0000
1003
0000
0010
0100
0001
0000
0010
0000
1000
0000
0010
0000
,  // measure 7
0012
2003
3002
0203
,  // measure 8
0310
1000
0100
0000
0010
0001
0100
0000
0110
0000
0000
0000
1001
0000
0000
0000
,  // measure 9
0001
0010
0100
1000
0001
0010
1000
0000
,  // measure 10
0010
0000
0001
0000
0100
0000
0010
0000
1000
0000
0010
0000
0100
0001
0010
0001
,  // measure 11
1000
1100
1100
0000
0110
0010
0110
0000
,  // measure 12
0100
0000
0001
0000
0010
0000
0100
0000
1000
0001
0100
0001
0010
0000
0000
0000
,  // measure 13
0110
0100
1000
0001
0010
0010
0110
0100
,  // measure 14
1100
0000
1000
0000
0001
0000
0100
0000
0010
1000
0100
0010
0001
0000
0000
0000
,  // measure 15
0100
0000
0000
0010
0000
0000
1000
0000
0000
0010
0000
0000
0100
0000
0000
0000
0000
0000
0001
0000
0000
0000
0000
0000
0010
0000
0000
0000
0100
0000
0000
0000
1000
0000
0000
0000
1002
0000
0000
0000
0000
0000
0000
0000
0000
0000
0000
0000
,  // measure 16
0103
0100
0110
0010
1001
0000
0101
0000
,  // measure 17
0011
0000
0000
0000
0010
0000
0100
1000
0100
0000
1000
0000
0001
0000
0010
0001
,  // measure 18
0010
0000
0100
1000
0100
0000
1000
0000
0001
0000
0010
0000
0001
0000
0100
0001
,  // measure 19
0200
0000
0000
0000
0310
0000
1000
0001
0100
0001
0010
0000
0100
0000
1000
0010
,  // measure 20
0100
0000
0010
0000
0001
0000
0010
1000
0100
0000
0010
0001
0010
0001
0100
0000
,  // measure 21
0010
0000
1000
0000
0001
0000
1000
0010
1000
0000
0001
0000
0100
0000
0001
0010
,  // measure 22
0001
0000
1000
0000
0100
0000
1000
0010
1000
0000
0001
0000
0100
0000
0001
0000
,  // measure 23
0021
0000
0100
0000
0130
0000
1000
0001
1000
0000
0100
0000
0110
0000
0010
0001
,  // measure 24
1000
0000
0001
1000
0010
0000
0100
0010
1000
0000
0000
0000
0001
0000
0100
0000
,  // measure 25
0120
0000
0000
0000
1030
0000
0100
0010
0100
0000
0010
0000
0001
0000
1000
0001
,  // measure 26
1000
0000
0100
0000
0010
0000
0001
0100
0001
0000
0100
0000
0010
1000
0010
0000
,  // measure 27
2000
0000
0000
0000
3001
0000
0100
0001
0010
0000
0001
0000
1000
0000
0010
1000
,  // measure 28
0010
0000
0100
0000
0001
0000
0010
0100
0010
0000
0100
1000
0100
1000
0001
0000
,  // measure 29
1000
0000
0010
0000
0100
0000
0010
0000
0001
0010
0001
0000
0010
0000
1000
0001
,  // measure 30
1000
0000
0100
0000
0010
0000
0001
0000
1000
0000
0001
0100
0010
0000
0100
0000
,  // measure 31
0110
0000
0010
0000
1010
0000
1000
0000
0001
0100
0001
0100
0010
0000
1000
0000
,  // measure 32
0100
0010
0001
0010
0100
0010
0001
0010
0100
1000
0001
0000
0100
0000
0001
0000
,  // measure 33
0020
0000
0000
0000
0130
0000
1000
0001
1000
0000
0100
0000
0010
0000
0001
0000
,  // measure 34
0100
0000
0001
0010
0001
0000
1000
0000
0100
0000
1000
0000
0010
0000
0100
0000
,  // measure 35
0002
0000
0000
0000
1003
0000
0010
1000
0010
0000
0100
0000
0001
0000
0010
0001
,  // measure 36
0010
0000
0001
1000
0001
0000
1000
0100
1000
0000
0010
0100
0010
0100
0001
0000
,  // measure 37
0010
0000
0000
0000
0001
0000
1000
0100
1000
0000
0010
0000
1000
0000
0100
0010
,  // measure 38
0100
0010
0001
1000
0001
0100
0010
1000
,  // measure 39
1010
0000
0010
0000
0110
0000
0100
0001
0100
0000
0101
0000
1001
0000
1010
0000
,  // measure 40
0010
0000
0010
0100
0001
0000
0010
0100
1000
0000
0001
1000
0100
0010
0100
1000
,  // measure 41
0001
0000
0100
0000
0001
0000
0010
0000
0100
1000
0100
0000
2100
0000
0000
0000
,  // measure 42
3002
0000
0010
0000
0013
0000
0100
0000
1000
0000
0001
1000
0001
0000
0100
0000
,  // measure 43
0120
0000
0000
0000
1030
0000
0100
0001
0100
0000
0100
0000
1000
0000
1000
0000
,  // measure 44
0010
0000
0010
0000
0200
0000
0000
0000
0301
0010
0001
0000
0100
0000
0010
0000
,  // measure 45
2000
0000
0000
0000
3001
0000
0100
0000
0001
0010
0001
0000
1001
0000
0000
0000
,  // measure 46
1000
0000
0010
0000
0100
0000
0010
0000
1000
0000
0001
1000
0001
0000
0100
0000
,  // measure 47
0110
0000
0010
0000
1010
0000
1000
0000
0001
0100
0001
0100
0010
0000
1000
0000
,  // measure 48
1001
0001
0101
0100
0110
0000
1010
1000
,  // measure 49
1001
0001
0010
0001
0100
0010
1000
0001
,  // measure 50
0101
0100
0010
1000
0001
1000
0010
0100
,  // measure 51
0001
0000
1001
0000
1000
0000
0010
0000
0100
0001
0100
0001
0100
0000
0010
0000
,  // measure 52
1010
0000
1001
0000
0101
0000
0100
0001
,  // measure 53
0010
0100
1000
0010
0001
0010
1000
0001
,  // measure 54
0100
0000
0001
0000
0010
0000
0100
0000
1000
0000
0001
0100
0001
0000
1000
0000
,  // measure 55
0010
1000
0010
1000
0001
0000
0100
0000
0001
0100
0001
0000
1000
0000
0010
0000
,  // measure 56
1000
0000
0100
0000
0010
0000
0001
1000
0002
0000
0000
0000
1003
0000
0001
0000
,  // measure 57
1001
1000
1010
0010
0110
0100
0101
0001
,  // measure 58
0011
0000
0010
0000
0110
0000
0100
0000
1000
0100
0010
0001
0100
0000
0110
0000
,  // measure 59
0100
0001
0010
0100
1000
0000
1010
0000
0010
1000
0100
0010
0001
0000
0100
0000
,  // measure 60
0110
0010
1010
1000
1001
0000
0101
0100
,  // measure 61
0110
0010
1010
1000
1001
0001
0101
0100
,  // measure 62
0010
1000
0001
0100
0001
0000
1001
0000
1000
0010
0100
0010
0001
0000
0011
0000
,  // measure 63
1010
1000
0100
0010
0011
0001
0100
0010
,  // measure 64
1000
0100
1000
0100
0010
0000
0001
0100
0001
0000
1000
0000
1010
0000
0010
0000
,  // measure 65
0110
0000
0000
0000
0100
0001
1000
0000
1001
0000
0000
0000
1010
0000
0010
0000
,  // measure 66
0110
0000
0000
0000
0101
0000
0001
1000
0001
0000
1000
0000
0100
0000
0010
0000
,  // measure 67
0100
0000
0001
0000
0100
0000
1000
0000
0010
1000
0010
0000
0100
0000
0001
0000
,  // measure 68
0010
0000
0001
1000
0100
0000
1000
0001
0010
0000
0001
0100
0010
0100
0001
0000
,  // measure 69
1000
0100
0010
0001
0100
0010
1000
0001
,  // measure 70
0101
0000
0100
0010
1000
0010
0100
0001
0100
0010
1000
0010
0100
0001
0010
0000
,  // measure 71
0100
1000
1001
0000
0001
0100
0120
0000
,  // measure 72
0130
0000
0001
1000
0001
0000
1000
0010
1000
0000
0100
0010
0001
0000
0100
0001
,  // measure 73
0010
1000
0010
0001
0010
1000
0010
0001
,  // measure 74
0100
0000
0010
1000
0010
0000
1000
0100
1000
0000
0001
1000
0001
0000
0100
0000
,  // measure 75
0101
0011
0110
1100
,  // measure 76
1001
0110
1001
0220
,  // measure 77
0000
0000
0330
0000
;
