#TITLE:SCHWARZSCHILD FIELD;
#SUBTITLE:;
#ARTIST:L.E.D.;
#TITLETRANSLIT:C;
#SUBTITLETRANSLIT:;
#ARTISTTRANSLIT:;
#GENRE:;
#CREDIT:;
#BANNER:SCHWARZSCHILD FIELD.png;
#BACKGROUND:SCHWARZSCHILD FIELD-bg.png;
#LYRICSPATH:;
#CDTITLE:;
#MUSIC:SCHWARZSCHILD FIELD.mp3;
#OFFSET:-3.760001;
#SAMPLESTART:22.940037;
#SAMPLELENGTH:15.000000;
#SELECTABLE:YES;
#DISPLAYBPM:150.000000;
#BPMS:0.000000=150.000000
;
#STOPS:
;
#BGCHANGES:;
#KEYSOUNDS:;
#ATTACKS:;

//---------------dance-single - ----------------
#NOTES:
     dance-single:
     :
     Easy:
     5:
     0.220586,0.292479,0.123149,0.009473,0.000000,163.000000,150.000000,13.000000,1.000000,0.000000,0.000000,0.220586,0.292479,0.123149,0.009473,0.000000,163.000000,150.000000,13.000000,1.000000,0.000000,0.000000:
0000
0000
0000
0000
,
0000
0000
0000
0000
,
1001
0000
0000
1000
,
0000
0000
0000
0000
,
0010
0000
1000
0000
,
0010
0000
0000
0000
,
0100
0000
0000
0000
,
0001
0000
1000
0000
,
0001
0000
1000
0000
,
0010
0000
0100
0000
,
0010
0000
1000
0000
,
0010
0000
0000
0000
,
0100
0001
0010
0000
,
0100
1000
0001
0000
,
1000
0001
1000
0000
,
0001
0100
0001
0000
,
1000
0000
1000
0000
,
0010
0000
0010
0000
,
0100
0100
0100
0000
,
0001
0010
0001
1000
,
0001
0000
1000
0000
,
0100
0010
0001
0000
,
0010
0100
1000
0100
,
0010
0001
1000
0001
,
1000
0000
0100
0000
,
0010
0000
0001
0000
,
1000
0000
0100
0000
,
0001
0000
0100
0000
,
1000
0001
1000
0001
,
1000
0000
0100
0000
,
0001
0000
0100
0000
,
1000
0010
0001
0000
,
1000
0100
0001
0000
,
0001
1000
0001
0000
,
1000
0010
1000
0000
,
0010
0100
0010
0100
,
0010
1000
0010
1000
,
0001
0000
1000
0000
,
0001
0000
0100
0010
,
0100
0000
0010
0000
,
1000
0010
1000
0010
,
1000
0001
0100
0000
,
0001
0010
0001
0000
,
1000
0100
1000
0100
,
0010
0001
0010
0001
,
0100
0000
0000
0000
,
0000
0000
0000
0000
,
0000
0000
0000
0000
,
0000
0000
0000
0000
,
0001
0001
0001
0100
,
0100
0100
0010
0010
,
0010
1000
0010
1000
,
0001
0100
0001
0100
,
0010
0000
1010
0000
,
1001
0000
0101
0000
,
0110
0000
1010
0000
,
1001
0000
0101
0000
,
0101
0000
0110
0000
,
0110
0000
1010
0000
,
1010
1000
0100
0010
,
0001
0010
0001
0010
,
0200
0000
0000
0300
;

//---------------dance-single - ----------------
#NOTES:
     dance-single:
     :
     Beginner:
     2:
     0.104203,0.144463,0.000000,0.000000,0.000000,77.000000,77.000000,0.000000,0.000000,0.000000,0.000000,0.104203,0.144463,0.000000,0.000000,0.000000,77.000000,77.000000,0.000000,0.000000,0.000000,0.000000:
0000
0000
0000
0000
,
0000
0000
0000
0000
,
1000
0000
0000
0000
,
0001
0000
0000
0000
,
1000
0000
0000
0000
,
0010
0000
0000
0000
,
0100
0000
0000
0000
,
0010
0000
0000
0000
,
1000
0000
0000
0000
,
1000
0000
0000
0000
,
0001
0000
0000
0000
,
0001
0000
0000
0000
,
0100
0000
0000
0000
,
0001
0000
0001
0000
,
1000
0000
0000
0000
,
1000
0000
0010
0000
,
0000
0000
1000
0000
,
0001
0000
0000
0000
,
0001
0000
0000
0000
,
0100
0000
0000
0000
,
0100
0000
0000
0000
,
0010
0000
0000
0000
,
0010
0000
0000
0000
,
1000
0000
0000
0000
,
0001
0000
0000
0000
,
1000
0000
0000
0000
,
0001
0000
0000
0000
,
0100
0000
0000
0000
,
0010
0000
0000
0000
,
0100
0000
0000
0000
,
0001
0000
0000
0000
,
1000
0000
0000
0000
,
0001
0000
0000
0000
,
0010
0000
0010
0000
,
0010
0000
0100
0000
,
0100
0000
0100
0000
,
1000
0000
1000
0000
,
1000
0000
0000
0000
,
0001
0000
0001
0000
,
0001
0000
0000
0000
,
0100
0000
0100
0000
,
0100
0000
0010
0000
,
0010
0000
0000
0000
,
1000
0000
0001
0000
,
1000
0000
0001
0000
,
1000
0000
0000
0000
,
0000
0000
0000
0000
,
0000
0000
0000
0000
,
0000
0000
0000
0000
,
0001
0000
1000
0000
,
0001
0000
0000
0000
,
1000
0000
0010
0000
,
1000
0000
0100
0000
,
1000
0000
1000
0000
,
0001
0000
0001
0000
,
0100
0000
0100
0000
,
0010
0000
0010
0000
,
1000
0000
0000
0000
,
0001
0000
1000
0000
,
0001
0000
0000
0000
,
0100
0000
0010
0000
,
0100
0000
0000
0000
;

//---------------dance-single - ----------------
#NOTES:
     dance-single:
     :
     Medium:
     9:
     0.347795,0.440495,0.009473,0.009473,0.000000,257.000000,256.000000,1.000000,1.000000,0.000000,0.000000,0.347795,0.440495,0.009473,0.009473,0.000000,257.000000,256.000000,1.000000,1.000000,0.000000,0.000000:
0000
0000
0000
0000
,
0000
0000
0000
0000
,
1001
0000
0000
0001
,
1000
0000
0000
0001
,
1000
0000
0000
0000
,
0001
1000
0001
1000
,
0100
0000
0000
0000
,
0100
0010
0100
0010
,
0001
1000
0001
1000
,
0100
0010
0100
0010
,
1000
0010
1000
0001
,
0100
0001
0100
0000
0010
0000
1000
0000
,
0010
0000
0100
0000
0010
0100
0010
0000
,
1000
0000
0100
0000
0010
0001
0010
0000
,
0001
0000
0100
0000
0010
0100
0010
0000
,
1000
0000
0100
0000
1000
0001
1000
0000
,
0001
0000
0100
0000
0010
0100
0010
0000
,
1000
0000
0100
0000
0001
0100
1000
0000
,
0001
0000
0010
0000
1000
0010
0001
0000
,
1000
0001
1000
0001
,
1000
0010
0100
0010
,
1000
0100
0001
0100
,
1000
0010
0001
0010
,
1000
0001
0100
0010
,
0100
0010
0100
0010
,
1000
0001
0100
0001
,
0010
0001
0100
0010
,
0100
0001
0010
0100
,
1000
0000
0001
0000
0100
0010
0100
0000
,
0010
0000
1000
0000
0100
1000
0100
0000
,
0100
0000
0010
0000
0001
0010
0001
0000
,
1000
0000
0001
0100
0001
0000
0100
0010
,
0100
0000
0010
1000
0010
0000
1000
0000
,
0100
0000
0010
0001
0010
0000
0010
0001
,
0010
0000
0100
0010
0100
0000
0010
0100
,
0010
0000
1000
0100
1000
0000
0100
1000
,
0100
0001
0100
0010
,
0100
0010
0100
0000
0010
0100
0010
0000
,
1000
0000
0100
0000
1000
0001
1000
0000
,
0001
0000
0100
0000
0010
0100
0010
0000
,
1000
0001
0100
0001
,
1000
0000
0100
0000
0010
0001
0010
0000
,
0001
0000
0100
0000
0010
0100
0010
0000
,
1000
0100
0010
0001
,
1000
0100
0001
0100
,
1000
0000
0000
0000
,
0000
0000
0000
0000
,
0000
0000
0000
0000
,
0000
0000
0000
0000
,
1000
0100
1000
0100
,
0010
0001
0010
0001
,
1000
0001
1000
0000
0001
1000
0001
0000
,
1000
0001
1000
0001
1000
0001
1000
0001
,
1000
0000
0100
0000
0010
0001
0010
0000
,
0001
0100
0001
0000
1000
0010
1000
0000
,
0010
0100
0010
0000
0100
0000
0001
0000
,
0010
0100
0010
0100
0010
0100
0010
0100
,
0010
1000
0001
1000
,
0001
0100
0010
0100
,
0010
1000
0010
0000
1000
0001
1000
0000
,
0001
0100
0001
0000
0100
0010
0100
0000
,
0020
0000
0000
0000
,
0030
0000
0000
0000
;

//---------------dance-single - ----------------
#NOTES:
     dance-single:
     :
     Hard:
     14:
     0.683410,0.792891,0.341029,0.132622,0.663111,505.000000,469.000000,36.000000,14.000000,0.000000,0.000000,0.683410,0.792891,0.341029,0.132622,0.663111,505.000000,469.000000,36.000000,14.000000,0.000000,0.000000:
// measure 0
0000
0000
0000
0000
,  // measure 1
0000
0000
0000
0000
,  // measure 2
1000
1001
0000
0000
0000
0000
0101
0000
,  // measure 3
0110
0000
0000
1010
0000
1000
1000
0001
,  // measure 4
0001
0000
0000
0100
,  // measure 5
0010
1000
0010
1000
0010
0000
0100
0000
0001
0000
0010
0000
0001
1000
0001
0000
,  // measure 6
0100
0000
0000
0000
,  // measure 7
0010
0000
1000
0000
0001
0000
1000
0000
0010
0100
0001
0000
0100
0000
0010
0000
,  // measure 8
1000
0000
0100
0000
0001
0000
0100
0000
1000
0001
1000
0010
0000
0010
0100
0000
,  // measure 9
1100
0000
0000
1001
0000
0000
0101
0000
0000
0110
0000
0000
0010
1000
0001
1000
,  // measure 10
0100
0000
0100
0000
0010
0000
0000
1001
0000
0001
0000
0100
0000
0010
0100
0000
,  // measure 11
0001
1000
0001
1000
0001
0000
0000
0000
0000
0000
1000
0010
1000
0000
0100
0000
,  // measure 12
0010
0000
0000
0101
0000
0000
0010
0000
0000
0000
1000
0000
0010
0001
0010
0000
,  // measure 13
1000
0000
0001
0000
0100
0000
0001
0000
1000
0100
0000
0100
0001
0000
0100
0000
,  // measure 14
1000
0001
0000
0001
0010
0000
0001
0000
0100
0010
0000
0010
1000
0000
0001
0000
,  // measure 15
1000
0000
0100
0000
0001
0000
0000
0000
0100
0000
1000
0000
0010
0000
0100
0001
,  // measure 16
0100
0000
0000
0110
0000
0000
1000
0000
0001
0000
0100
0000
0010
1000
0010
0000
,  // measure 17
0100
0001
0000
0001
0010
0000
0100
0000
1000
0010
0000
0010
0100
0000
0001
0000
,  // measure 18
0100
0000
0010
0000
1000
0000
0000
0000
1000
0000
1000
0000
0001
0100
0001
0100
,  // measure 19
0010
0000
0000
1010
0000
0000
1001
0000
0000
0001
0100
0001
0000
0100
0010
0000
,  // measure 20
1010
0000
1000
0100
0000
0100
0010
0000
0001
0100
0000
0100
1000
0100
0001
0000
,  // measure 21
1000
0010
0000
0010
0001
0000
0010
0000
1000
0000
1000
0000
0001
0100
0010
0100
,  // measure 22
0001
0000
0000
1001
0000
0000
1010
0000
0000
0110
0000
0000
0100
0001
1000
0001
,  // measure 23
0100
0001
0000
0001
1000
0000
0010
0100
0000
0100
0001
0000
1000
0010
1000
0010
,  // measure 24
1000
0000
0001
0000
0000
0100
0010
0100
,  // measure 25
0001
0000
1000
0000
0100
1000
0100
0000
,  // measure 26
0010
0001
0010
0000
0001
1000
0001
0000
,  // measure 27
1000
0010
1000
0010
0100
0010
0100
0001
0100
0001
0100
0010
0100
0010
0100
0000
,  // measure 28
1001
0000
0000
0011
0000
0000
0110
0000
0000
1100
0000
0000
1001
0000
0000
0000
,  // measure 29
0102
0000
0103
0010
2000
0000
3001
0200
,  // measure 30
0000
0310
0100
0001
2000
0000
0001
0000
,  // measure 31
3001
0100
1000
0100
0002
0000
1003
0020
,  // measure 32
0000
0130
0001
1000
0001
0100
0010
1000
,  // measure 33
1020
0000
0130
0001
0020
0000
0031
0100
,  // measure 34
2000
0000
3100
0001
0200
0000
0310
1000
,  // measure 35
0100
0010
0001
0010
0200
0000
1300
0001
,  // measure 36
1000
0010
1000
0001
0100
0001
0010
0000
0001
0000
0100
0010
1000
0010
0100
0001
,  // measure 37
0100
0000
0010
0000
1000
0000
0001
0000
0011
0000
0000
1001
0000
0000
1100
0000
,  // measure 38
0000
0100
0010
0000
0001
0000
1000
0001
1000
0000
0000
1010
0000
0000
0110
0000
,  // measure 39
0100
0000
0001
0000
1000
0000
0001
0000
0100
0000
0000
0010
0000
0000
1000
0001
,  // measure 40
1000
0000
0000
1010
0000
0000
0110
0000
0100
0001
0010
0100
1000
0001
1000
0000
,  // measure 41
0001
0000
0100
0000
0010
0000
0100
0000
0001
0000
0000
1000
0000
0000
1010
0000
,  // measure 42
0100
0001
0000
0001
0010
0000
0001
0100
0010
0000
0000
1010
0000
0000
1100
0000
,  // measure 43
0100
0000
0001
0000
0100
0000
1000
0000
0010
0000
0100
0001
0100
0000
0010
1000
,  // measure 44
0000
0010
0100
0001
0010
0001
1000
0010
1000
0001
1000
0001
1000
0001
1000
0000
,  // measure 45
1001
0000
0000
0000
,  // measure 46
0000
0000
0000
0000
,  // measure 47
0000
0000
0000
0000
,  // measure 48
0000
0000
0000
0000
,  // measure 49
1000
0001
0000
0001
0100
0000
0010
0000
0100
0001
0000
0001
1000
0000
0010
0000
,  // measure 50
0100
0010
0000
0010
1000
0000
0001
0000
0100
0000
0100
0000
0010
0000
0010
0000
,  // measure 51
1000
0001
1000
0000
0010
0100
0010
0000
1000
0001
1000
0000
0010
0100
0010
0000
,  // measure 52
1000
0000
0000
0000
0100
0000
0000
0000
0010
0000
0000
0000
0001
0000
0000
0000
1000
0000
0000
0000
0100
0000
0000
0000
0010
0000
0000
0001
0000
0000
0010
0000
0000
0001
0000
0000
2000
0000
0000
0000
0000
0000
0000
0000
0000
0000
0000
0000
,  // measure 53
3010
0000
0100
0000
0001
0000
0100
0000
0010
0000
1000
0001
0000
0000
1000
0000
,  // measure 54
0000
0010
0000
0100
0000
0000
0000
0001
0010
0000
0001
1000
0010
1000
0100
0000
,  // measure 55
0010
0000
0001
0000
1000
0000
0001
0000
0100
0000
0010
1000
0000
1000
0001
0000
,  // measure 56
0100
0000
0100
0000
0010
1000
0010
0000
1000
0001
0010
0001
0100
0001
1000
0001
,  // measure 57
0100
0000
0010
0000
1000
0000
0010
0000
0100
0000
0001
1000
0000
0010
1000
0000
,  // measure 58
0001
0000
0010
0000
1000
0010
0000
0010
0001
0000
0100
0010
0000
1000
0010
0000
,  // measure 59
0100
0001
0010
0000
0001
0100
0010
0000
1000
0000
1000
0000
0010
0000
0100
0000
,  // measure 60
0001
0100
0001
1000
0001
0100
0010
0100
0001
0000
1000
0010
0000
0010
0100
0000
,  // measure 61
2002
0000
0000
0000
,  // measure 62
3003
0000
0000
0000
;
