#TITLE:SANA MOLLETE NE ENTE -B.L.T.STYLE-;
#SUBTITLE:;
#ARTIST:Togo Project feat. Sana;
#TITLETRANSLIT:Ba;
#SUBTITLETRANSLIT:;
#ARTISTTRANSLIT:;
#GENRE:;
#CREDIT:;
#BANNER:SANA MOLLETE NE ENTE (B.L.T.STYLE).png;
#BACKGROUND:SANA MOLLETE NE ENTE (B.L.T.STYLE)-bg.png;
#LYRICSPATH:;
#CDTITLE:;
#MUSIC:SANA MOLLETE NE ENTE (B.L.T.STYLE).mp3;
#OFFSET:-2.527000;
#SAMPLESTART:39.820000;
#SAMPLELENGTH:12.000000;
#SELECTABLE:YES;
#DISPLAYBPM:90.000000:180.000000;
#BPMS:0.000000=90.000000
,32.000000=180.000000
;
#STOPS:
;
#BGCHANGES:;
#KEYSOUNDS:;
#ATTACKS:;

//---------------dance-single - ----------------
#NOTES:
     dance-single:
     :
     Beginner:
     1:
     0.081845,0.150390,0.000000,0.000000,0.000000,60.000000,60.000000,0.000000,0.000000,0.000000,0.000000,0.081845,0.150390,0.000000,0.000000,0.000000,60.000000,60.000000,0.000000,0.000000,0.000000,0.000000:
0000
0000
0000
0000
,
0000
0000
0000
0000
,
0000
0000
0000
0000
,
0000
0000
0000
0000
,
0001
0000
1000
0000
,
0010
0000
0010
0000
,
0100
0000
0001
0000
,
1000
0000
0000
0000
,
0000
0000
0000
0000
,
1000
0000
0000
0000
,
0001
0000
0000
0000
,
1000
0000
0000
0000
,
0010
0000
0000
0000
,
0000
0000
0000
0000
,
0010
0000
0000
0000
,
0100
0000
0000
0000
,
0100
0000
0000
0000
,
0001
0000
0000
0000
,
0001
0000
0000
0000
,
0001
0000
0000
0000
,
1000
0000
0000
0000
,
0010
0000
0000
0000
,
0100
0000
0000
0000
,
0001
0000
0000
0000
,
1000
0000
0000
0000
,
0000
0000
0000
0000
,
0001
0000
0001
0000
,
0100
0000
0000
0000
,
0100
0000
0000
0000
,
0010
0000
0000
0000
,
1000
0000
0000
0000
,
0001
0000
0000
0000
,
1000
0000
0000
0000
,
0001
0000
0000
0000
,
0000
0000
0100
0000
,
0000
0000
0010
0000
,
0000
0000
0000
0000
,
1000
0000
0000
0000
,
0001
0000
0000
0000
,
1000
0000
0000
0000
,
0010
0000
0000
0000
,
1000
0000
0000
0000
,
0001
0000
0000
0000
,
0100
0000
0000
0000
,
0001
0000
0000
0000
,
0010
0000
0000
0000
,
0001
0000
0000
0000
,
0100
0000
0000
0000
,
0010
0000
0000
0000
,
0100
0000
0000
0000
,
0001
0000
0000
0000
,
0010
0000
0000
0000
,
0001
0000
0000
0000
,
0000
0000
1000
0000
,
0000
0000
0000
0000
,
0001
0000
0000
0000
,
0100
0000
0000
0000
,
0000
0000
0000
0000
,
0010
0000
0000
0000
,
1000
0000
0000
0000
,
0001
0000
0000
0000
,
1000
0000
0001
0000
,
1000
0000
0001
0000
,
1000
0000
0000
0000
;

//---------------dance-single - ----------------
#NOTES:
     dance-single:
     :
     Easy:
     3:
     0.169146,0.278221,0.000000,0.057291,0.000000,124.000000,124.000000,0.000000,6.000000,0.000000,0.000000,0.169146,0.278221,0.000000,0.057291,0.000000,124.000000,124.000000,0.000000,6.000000,0.000000,0.000000:
0000
0000
0000
0000
,
0000
0000
0000
0000
,
1000
1000
0001
0001
,
0100
0100
0010
0010
,
1000
1000
0100
0100
,
0010
0010
0001
0000
,
0001
0100
0010
0100
,
0001
0000
1000
0000
,
0010
0000
0000
0000
,
0010
0000
0000
0000
,
0100
0000
0000
0000
,
0100
0000
0000
0000
,
0001
0000
0000
0000
,
0001
0000
0000
0000
,
1000
0000
1000
0000
,
0010
0000
0010
0000
,
0100
0000
0001
0000
,
1000
0000
0001
0000
,
0100
0000
0010
0000
,
2000
0000
0000
0000
,
3001
0000
0001
0000
,
0100
0000
0100
0000
,
0010
0000
0010
0000
,
1000
0000
0000
0000
,
0001
0000
0100
0000
,
0001
0000
1000
0000
,
0010
0000
1000
1000
,
1000
0000
0001
0000
,
0100
0000
0001
0000
,
0010
0000
0100
0000
,
1000
0000
0001
0000
,
0100
0100
0100
0000
,
0010
0000
1000
0000
,
0010
0000
0100
0000
,
0001
0000
1000
1000
,
0000
0000
0010
0000
,
0100
0000
0010
0000
,
1000
0000
0010
0000
,
0100
0000
0001
0000
,
0100
0000
0010
0000
,
1000
0000
0001
0000
,
0100
0000
0001
0000
,
0010
0000
0001
0000
,
1000
0010
0010
0000
,
0100
0000
0100
0000
,
0001
0000
0001
0000
,
1000
0000
1000
0000
,
0010
0000
0010
0000
,
0100
0000
0100
0000
,
0001
0000
0001
0000
,
1000
0000
1000
0000
,
0020
0000
0000
0000
,
0130
0000
0100
0000
,
0001
0000
0001
0000
,
1000
0000
1000
1000
,
2000
0000
3000
0000
,
0020
0000
0030
0000
,
0100
0000
0010
0000
,
1000
0000
0010
0000
,
0200
0000
0300
0000
,
0001
0000
1000
0000
,
0001
0000
1000
0000
,
0001
0000
1000
0000
,
0000
0002
0000
0000
,
0000
0000
0000
0003
;

//---------------dance-single - ----------------
#NOTES:
     dance-single:
     :
     Medium:
     6:
     0.270087,0.330201,0.143228,0.362845,0.000000,198.000000,183.000000,15.000000,38.000000,0.000000,0.000000,0.270087,0.330201,0.143228,0.362845,0.000000,198.000000,183.000000,15.000000,38.000000,0.000000,0.000000:
0000
0000
0000
0000
,
0000
0000
0000
0000
,
1000
0100
0010
0011
,
0100
1000
0001
1010
,
1000
1000
1000
0100
,
0010
0100
0020
0000
,
0001
0001
0031
0010
,
0100
1000
0002
0000
,
1003
0000
0010
0000
,
1001
0000
0000
0000
,
1010
0000
0100
0000
,
2002
0000
3003
0000
,
1000
0001
1000
0001
0000
1000
0000
0001
,
0000
1000
0000
0000
0100
0000
0000
0000
,
0100
0001
0100
0001
0000
1000
0000
2002
,
0000
0000
0000
3003
,
0001
0100
0010
0100
0000
0001
0000
1000
,
0000
0001
0000
0000
0100
0000
0000
0000
,
0010
1000
0010
1000
0000
0001
0000
2002
,
0000
0000
0000
3003
,
0001
0010
0001
1000
,
0010
1000
0100
0010
,
1001
0010
0100
0001
,
2020
0000
0000
3030
,
1000
0100
1000
0001
,
0100
0001
0010
0100
,
1001
0100
0010
0001
,
0022
0000
0000
0033
,
0200
0000
2300
0000
,
0001
0000
3001
0000
,
0020
0000
0032
0000
,
1000
0000
1003
0000
,
2000
0000
3020
0000
,
0100
0000
0130
0000
,
0002
0000
0023
0000
,
0100
0000
0130
0000
,
0100
0001
0010
0001
0000
1000
0000
0001
,
0000
1000
0000
0000
0100
0000
0000
0000
,
1000
0010
0100
0010
0000
0100
0000
0220
,
0000
0000
0000
0330
,
0001
0010
0001
1000
0000
0001
0000
1000
,
0000
0001
0000
0000
0100
0000
0000
0000
,
0010
0100
0010
1000
0000
0100
0000
0220
,
0000
0000
0000
0330
,
0001
0010
0001
0000
,
1000
0010
1000
0000
,
0001
0000
0100
0000
0001
0000
2000
0002
,
0000
3003
1001
0000
,
1000
0100
0010
0000
,
0001
0010
0100
0000
,
1000
0000
0001
1000
0001
0000
2000
0002
,
0000
3003
0000
0000
0000
0000
0000
0000
,
0001
0100
0010
1000
,
0100
0010
0002
0000
,
1003
0010
0100
0001
,
0010
0100
2000
0000
,
3020
0100
0000
1030
,
0200
0000
0000
0300
,
2000
0001
0010
3000
,
0200
0000
0000
0300
,
1000
0100
0020
0000
,
0032
0010
0203
0000
,
1300
0000
0002
0000
1000
0013
0000
1001
;

//---------------dance-single - ----------------
#NOTES:
     dance-single:
     :
     Hard:
     10:
     0.499252,0.649182,0.257811,0.792529,0.038194,366.000000,339.000000,27.000000,83.000000,0.000000,0.000000,0.499252,0.649182,0.257811,0.792529,0.038194,366.000000,339.000000,27.000000,83.000000,0.000000,0.000000:
// measure 0
0000
0000
0000
0000
,  // measure 1
0000
0000
0000
0000
,  // measure 2
1000
0000
0000
0000
0100
0000
0000
0000
0001
0000
0000
0000
0010
0000
0000
0000
0001
0000
0000
0000
0100
0000
0000
0000
1000
0000
0000
1000
0000
0001
0000
0000
,  // measure 3
0001
0100
1000
0100
0001
1000
1010
0000
,  // measure 4
0100
0000
0001
0000
0010
0000
0001
0000
1000
0100
0010
0000
0001
0000
0100
0010
,  // measure 5
0100
0000
0001
0000
0010
0000
0100
1000
0000
0001
0000
0100
0001
0000
1001
0000
,  // measure 6
1000
0010
0100
0010
1000
0001
0100
0001
,  // measure 7
1000
0000
1010
0000
0110
0000
0000
2002
0000
0000
0000
0000
0000
0000
3003
0000
,  // measure 8
0010
0000
0100
0001
0000
1000
0001
0000
,  // measure 9
0101
0000
0000
1010
0000
0000
0100
0010
,  // measure 10
0100
0000
0001
0100
0000
0110
0000
0000
,  // measure 11
2020
0000
0000
0000
0000
0000
0000
3030
,  // measure 12
0001
0100
0010
0100
0001
1000
0001
0000
,  // measure 13
1000
0010
0100
0000
0010
1000
0001
0000
,  // measure 14
0100
0010
1000
0010
0100
0001
0010
0002
,  // measure 15
0000
0000
0003
0000
1000
0010
1000
0000
,  // measure 16
0001
0100
0010
0100
0001
0010
0100
1000
,  // measure 17
0001
1000
0001
0000
0110
0000
1001
0000
,  // measure 18
0100
0001
0010
0001
1000
0010
1000
0001
,  // measure 19
2000
0000
0000
0000
0002
0000
0000
3003
,  // measure 20
0100
0010
1000
0010
0200
0000
0301
1000
,  // measure 21
0002
0000
1003
0010
1000
0001
0000
0100
,  // measure 22
0020
0000
1030
0100
0001
0200
0000
1300
,  // measure 23
0001
0100
0001
0010
0000
0011
0000
0001
,  // measure 24
2000
0000
3200
0000
0310
0001
0010
0001
,  // measure 25
0200
0000
0310
1000
0010
0100
0001
0010
,  // measure 26
0200
0000
1300
0001
1000
0001
0000
0101
,  // measure 27
0000
0100
0010
1000
0010
0100
0001
1000
,  // measure 28
0002
0000
0103
0010
1000
0020
0000
0230
,  // measure 29
0000
0302
0000
0203
0000
0320
0000
1030
,  // measure 30
0002
0000
0103
0010
0100
0002
0000
2003
,  // measure 31
0000
3020
0000
0230
0000
0310
1000
0001
,  // measure 32
2000
0000
3010
0100
0001
0200
0000
0320
,  // measure 33
0000
2030
0000
3002
0000
1003
0010
1000
,  // measure 34
0200
0000
1300
0001
0010
0002
0000
0203
,  // measure 35
0000
0320
0000
0230
0000
0310
1000
0010
,  // measure 36
0100
0001
0010
0001
1000
0010
0100
0010
,  // measure 37
1000
0001
0010
0001
0100
0020
2030
3002
,  // measure 38
0000
0003
0200
0000
0320
0000
1030
0001
,  // measure 39
1000
1001
1001
0001
,  // measure 40
0100
0010
1000
0010
0100
0001
0010
0000
,  // measure 41
0001
1000
0001
0000
0100
0000
0100
0000
,  // measure 42
0010
1000
0100
1000
0001
1000
0000
2002
,  // measure 43
0000
3003
0100
0000
0110
0000
0010
1000
,  // measure 44
0002
0023
0230
2300
,  // measure 45
3002
0000
0103
0010
0200
0000
0310
1000
,  // measure 46
0020
0000
1030
0001
2000
0000
3001
0100
,  // measure 47
0001
0000
1000
0000
0010
0100
0010
0000
,  // measure 48
2000
3200
0302
0023
,  // measure 49
0032
0000
0103
1000
0000
0010
0100
0001
,  // measure 50
0200
0000
0320
0000
1030
0001
1000
0001
,  // measure 51
0000
2001
0000
3020
0000
0000
0130
0001
,  // measure 52
0200
0000
0010
0000
0310
0000
1000
0001
,  // measure 53
0000
1000
0010
1000
0000
0001
0100
0001
,  // measure 54
0000
1000
0100
2000
0000
3020
0000
0230
,  // measure 55
0000
0000
0000
0000
0301
0000
1000
0001
,  // measure 56
2000
0001
0010
3001
,  // measure 57
0200
0000
0000
0310
1000
0100
1000
0000
,  // measure 58
0001
0010
0001
1000
0002
0000
0203
0000
,  // measure 59
0320
0000
1030
0001
,  // measure 60
1000
0000
0110
0000
0202
0000
0303
2002
,  // measure 61
0000
3003
1010
0000
0220
0000
0330
0202
,  // measure 62
0000
0303
1001
0000
2020
0000
3030
0220
,  // measure 63
0000
0330
0002
0000
2000
0000
0000
0000
,  // measure 64
0000
0000
0000
3003
;

//---------------dance-double - ----------------
#NOTES:
     dance-double:
     :
     Easy:
     2:
     0.128223,0.150390,0.000000,0.028646,0.000000,94.000000,94.000000,0.000000,3.000000,0.000000,0.000000,0.128223,0.150390,0.000000,0.028646,0.000000,94.000000,94.000000,0.000000,3.000000,0.000000,0.000000:
00000000
00000000
00000000
00000000
,
00000000
00000000
00000000
00000000
,
01000000
00000000
01000000
00000000
,
00001000
00000000
00010000
00000000
,
00000100
00000000
00000100
00000000
,
00010000
00000000
00001000
00000000
,
00100000
00000000
00010000
00000000
,
00100000
00000000
01000000
00000000
,
10000000
00000000
00000000
00000000
,
00010000
00000000
00000000
00000000
,
00100000
00000000
00000000
00000000
,
00001000
00000000
00000000
00000000
,
00010000
00000000
00000000
00000000
,
00000010
00000000
00000000
00000000
,
00000100
00000000
00000000
00000000
,
00000001
00000000
00000000
00000000
,
00000100
00000000
00000000
00000000
,
00000010
00000000
00000000
00000000
,
00010000
00000000
00000000
00000000
,
00001000
00000000
00000000
00000000
,
00100000
00000000
01000000
00000000
,
00100000
00000000
00010000
00000000
,
00100000
00000000
00001000
00000000
,
00010000
00000000
00000000
00000000
,
00000010
00000000
00001000
00000000
,
00000010
00000000
00000100
00000000
,
00000001
00000000
00001000
00000000
,
00000100
00000000
00000000
00000000
,
00010000
00000000
00001000
00000000
,
00000000
00000000
00100000
00000000
,
00010000
00000000
01000000
00000000
,
00000000
00000000
00010000
00000000
,
00100000
00000000
01000000
00000000
,
00000000
00000000
10000000
00000000
,
00100000
00000000
01000000
00000000
,
00000000
00000000
00001000
00000000
,
00010000
00000000
00000100
00000000
,
00001000
00000000
00000001
00000000
,
00000010
00000000
00000001
00000000
,
00001000
00000000
00000000
00000000
,
00000100
00000000
00010000
00000000
,
00001000
00000000
00100000
00000000
,
01000000
00000000
10000000
00000000
,
00010000
00000000
00000000
00000000
,
10000000
00000000
10000000
00000000
,
00000000
00000000
00000000
00000000
,
01000000
00000000
01000000
00000000
,
00000000
00000000
00000000
00000000
,
00100000
00000000
00100000
00000000
,
00001000
00000000
00010000
00000000
,
00000010
00000000
00000100
00000000
,
00000001
00000000
00000000
00000000
,
00000100
00000000
00000100
00000000
,
00000100
00000000
00000000
00000000
,
00000001
00000000
00000010
00000000
,
00000100
00000000
00000000
00000000
,
00002000
00000000
00000100
00000000
,
00003200
00000000
00000000
00000300
,
00010000
00000000
00001000
00000000
,
00020000
00000000
00000000
00030000
,
00001000
00000000
01000000
00000000
,
00010000
00000000
01000000
00000000
,
00010000
00000000
00010000
00000000
,
10000000
00000000
00000000
00000000
;

//---------------dance-double - ----------------
#NOTES:
     dance-double:
     :
     Medium:
     5:
     0.270087,0.330201,0.143228,0.362845,0.000000,198.000000,183.000000,15.000000,38.000000,0.000000,0.000000,0.270087,0.330201,0.143228,0.362845,0.000000,198.000000,183.000000,15.000000,38.000000,0.000000,0.000000:
00000000
00000000
00000000
00000000
,
00000000
00000000
00000000
00000000
,
10000000
01000000
00100000
00110000
,
01000000
00001000
00010000
00011000
,
00010000
00010000
00010000
00000100
,
00000010
00000100
00000020
00000000
,
00000001
00000001
00000031
00000010
,
00000100
00010000
00002000
00000000
,
00013000
00000000
00001000
00000000
,
00110000
00000000
00000000
00000000
,
10100000
00000000
01000000
00000000
,
00022000
00000000
00033000
00000000
,
00000010
00000100
00000010
00000100
00000000
00000001
00000000
00001000
,
00000000
00000001
00000000
00000000
00000100
00000000
00000000
00000000
,
00000001
00000010
00000100
00001000
00000000
00000001
00000000
00002002
,
00000000
00000000
00000000
00003003
,
00000001
00000010
00000100
00001000
00000000
00000100
00000000
00010000
,
00000000
00001000
00000000
00000000
01000000
00000000
00000000
00000000
,
00010000
00100000
01000000
10000000
00000000
00010000
00000000
20020000
,
00000000
00000000
00000000
30030000
,
00010000
00100000
00010000
00100000
,
00001000
00010000
00000100
00000010
,
00001001
00000010
00000100
00000001
,
00002020
00000000
00000000
00003030
,
00000100
00010000
00001000
00100000
,
00010000
00100000
01000000
00100000
,
10010000
01000000
00100000
00010000
,
00220000
00000000
00000000
00330000
,
00002000
00000000
00023000
00000000
,
00001000
00000000
00031000
00000000
,
00000020
00000000
00002030
00000000
,
00000001
00000000
00003001
00000000
,
00000020
00000000
00020030
00000000
,
00001000
00000000
00031000
00000000
,
00002000
00000000
00203000
00000000
,
01000000
00000000
01300000
00000000
,
10000000
01000000
00100000
00010000
00000000
00100000
00000000
00001000
,
00000000
00010000
00000000
00000000
00000100
00000000
00000000
00000000
,
00001000
00000100
00000010
00000001
00000000
00000100
00000000
00000220
,
00000000
00000000
00000000
00000330
,
00000001
00000010
00000100
00001000
00000000
00000100
00000000
00010000
,
00000000
00001000
00000000
00000000
01000000
00000000
00000000
00000000
,
00010000
00100000
01000000
10000000
00000000
01000000
00000000
02200000
,
00000000
00000000
00000000
03300000
,
00001000
00010000
00000100
00000000
,
00001000
00000010
00001000
00000000
,
00000001
00000000
00000100
00000000
00000001
00000000
00002000
00000002
,
00000000
00003003
00001001
00000000
,
00000100
00010000
00001000
00000000
,
01000000
00100000
01000000
00000000
,
00010000
00000000
10000000
00010000
10000000
00000000
00020000
20000000
,
00000000
30030000
00000000
00000000
00000000
00000000
00000000
00000000
,
00100000
00001000
00010000
00000010
,
00000100
00000010
00002000
00000000
,
00003001
00000010
00000100
00001000
,
00000010
00010000
00002000
00000000
,
00203000
01000000
00000000
00310000
,
02000000
00000000
00000000
03000000
,
00020000
10000000
00100000
00030000
,
02000000
00000000
00000000
03000000
,
10000000
01000000
00200000
00000000
,
00302000
00010000
00003200
00000000
,
00001300
00000000
00000002
00000000
00001000
00001003
00000000
00001001
;

//---------------dance-double - ----------------
#NOTES:
     dance-double:
     :
     Hard:
     8:
     0.428320,0.510310,0.114583,0.276908,0.000000,314.000000,302.000000,12.000000,29.000000,0.000000,0.000000,0.428320,0.510310,0.114583,0.276908,0.000000,314.000000,302.000000,12.000000,29.000000,0.000000,0.000000:
00000000
00000000
00000000
00000000
,
00000000
00000000
00000000
00000000
,
00010000
00000000
00100000
01000000
10000000
00000000
11000000
00000000
,
01010000
00000000
10000000
01000000
00100000
00000000
00110000
00000000
,
10000000
00010000
10000000
00000000
00010000
00100000
00001000
00000000
,
00010000
00000010
00000100
00000010
00001000
00000000
00000000
00000000
,
00000001
00001000
00000001
00000000
00001000
00000100
00010000
00000000
,
00001000
00100000
01000000
00000000
20000000
00000000
00000000
00000000
,
30010000
00000000
00100000
01000000
00000000
10000000
00010000
00000000
,
10000000
00000000
01000000
00100000
00000000
00010000
10000000
00000000
,
01000000
00000000
00100000
00010000
00000000
00100000
00000000
00000000
,
00022000
00000000
00033000
00000000
,
00000100
00000010
00000100
00001000
00000100
00001000
00000010
00000100
,
00000010
00001000
00000100
00000010
00000001
00000100
00000001
00000000
,
00000010
00000100
00010000
00001000
00000000
01000000
00000000
02020000
,
00000000
03000000
10000000
10030000
,
10000000
01000000
00100000
00010000
10000000
00010000
01000000
00100000
,
01000000
00001000
00010000
00000010
00001000
00000100
00001000
00000000
,
00000010
00000100
00000001
00001000
00000000
00000001
00000000
00002002
,
00000000
00000003
00000100
00003100
,
00010000
00000000
00001000
00000000
01000000
00000000
00010000
10000000
,
01000000
00100000
00010000
00100000
00000000
00001000
00010000
00001000
,
00000000
00000010
00001000
00000010
00000000
00001000
00000001
00002002
,
00000000
00000000
00000000
00003003
,
00000100
00000000
00010000
00000000
00001000
00000000
00100000
00010000
,
00100000
01000000
10000000
00010000
00000000
10000000
01000000
10000000
,
00000000
00010000
00100000
01000000
10000000
00010000
10000000
00010000
,
00000000
10000000
01000000
00100000
00010000
01000000
00001000
00000000
,
00000000
00000000
00010000
00000100
00000010
00000001
00000000
00001000
,
00000000
00000001
00000000
00000100
00000000
00000020
00000000
00000000
,
00000000
00000030
00010000
00001000
00100000
01000000
00000000
10000000
,
00020000
02000000
00000000
03030000
,
00000000
00000000
10000000
01000000
00100000
00010000
00000000
00100000
,
00000000
00001000
00000000
00010000
00000000
00000020
00000000
00000000
,
00000000
00000030
00001000
00000100
00000010
00000001
00000000
00001000
,
00000001
00000000
00000200
00000000
00000300
00000001
00001000
00000000
,
00000100
00010000
00001000
00100000
00010000
10000000
00100000
01000000
,
00100000
10000000
01000000
00100000
00010000
01000000
00001000
00000000
,
00010000
00000100
00001000
00000001
00000000
00001000
00000000
00000220
,
00000000
00000300
00001000
00001030
,
00001000
00000100
00000010
00000001
00001000
00000001
00000100
00000010
,
00000100
00000001
00000100
00000010
00001000
00000100
00010000
00000000
,
00001000
01000000
00100000
10000000
00000000
00010000
00000000
02100000
,
00000000
00010000
00010000
03000000
,
00010000
00000000
00100000
00000000
01000000
00000000
10000000
00010000
,
00100000
01000000
10000000
00010000
00000000
10000000
01000000
10000000
,
00000000
00100000
00010000
00100000
00000000
00001000
00010000
00022000
,
00000000
00000000
00000000
00033000
,
00000100
00000000
00001000
00000000
00000100
00000000
00001000
00000001
,
00000010
00000100
00001000
00000100
00000000
00010000
00001000
00010000
,
00000000
00001000
00010000
00001000
00000000
01000000
00010000
02020000
,
00000000
00000000
00000000
03030000
,
00000000
10000000
01000000
00100000
00010000
00100000
01000000
10000000
,
01000000
00100000
00010000
00100000
01000000
10000000
00100000
10000000
,
00010000
00100000
00001000
00020000
00000000
00000200
00030000
00002000
,
00000300
00000000
00000000
00000000
00003000
00000100
00000010
00000001
,
00002000
00000010
00000100
00003001
,
00000200
00000000
00000000
00000000
00000300
00000001
00000010
00000001
,
00000010
00000100
00001000
00000100
,
00020000
00000000
00000000
00000000
00030000
00001000
00010000
00001000
,
00100000
00000000
00010000
00000000
10000000
20000000
00000000
00010000
,
30000000
00000000
01000000
00000000
00100000
00200000
00000000
10000000
,
00300000
00000000
00100000
00000000
00100000
00100000
00000000
10010000
;

//---------------dance-single - ----------------
#NOTES:
     dance-single:
     :
     Challenge:
     14:
     0.639753,0.803749,0.324651,0.458330,0.229165,469.000000,435.000000,34.000000,48.000000,0.000000,0.000000,0.639753,0.803749,0.324651,0.458330,0.229165,469.000000,435.000000,34.000000,48.000000,0.000000,0.000000:
// measure 0
0000
0000
0000
0000
,  // measure 1
0000
0000
0000
0000
,  // measure 2
1000
0000
0010
0000
0100
0000
0010
0000
0000
0000
1010
0000
0000
0000
0001
0000
0100
0000
0010
0000
0100
0000
0000
0000
0001
0000
0000
1000
0000
0010
0000
0000
,  // measure 3
0100
0001
0010
0001
0100
0010
1000
0010
0100
0000
0001
0000
1001
0000
0000
0000
,  // measure 4
1000
0000
0010
0000
0001
0000
0010
1000
0001
0000
0100
1000
0100
0000
0001
0010
,  // measure 5
0100
0000
1000
0000
0001
0000
0100
0001
0000
0000
1000
0000
1020
0000
0000
0000
,  // measure 6
0130
0000
0001
0000
1000
0000
0001
0100
0010
0100
0001
0000
1000
0000
0010
0000
,  // measure 7
1001
0000
0100
0000
1010
0000
0000
2001
0000
0000
0000
0000
0000
0000
0000
0000
,  // measure 8
3010
0100
0001
0100
0000
0010
1000
0001
,  // measure 9
1000
0000
0010
0000
0100
0000
0010
0000
0000
0000
0000
0000
1000
0010
1000
0000
,  // measure 10
0100
0010
0100
1000
0001
1000
0000
0000
,  // measure 11
2020
0000
0000
0000
0000
0000
3030
0000
0101
0000
0000
0000
0010
1000
0010
0000
,  // measure 12
1000
0100
0010
0001
0010
0100
1000
0010
,  // measure 13
0001
0010
1000
0100
0010
0001
0010
0000
,  // measure 14
0001
0010
0100
1000
0100
0010
0001
0020
,  // measure 15
0100
0000
0000
0000
0030
0000
1000
0001
1000
0000
0001
0000
1000
0001
1000
0001
,  // measure 16
0100
0010
1000
0010
0001
0010
1000
0100
,  // measure 17
0001
0100
1000
0001
0010
1000
0010
0000
,  // measure 18
0001
0100
0010
0100
0001
1000
0010
1000
,  // measure 19
2002
0000
0000
0000
3003
0000
0010
0100
0010
0100
0010
0100
0010
0100
0010
0000
,  // measure 20
1000
0000
0010
0000
0001
0000
0010
0000
0100
0000
0010
0000
0001
0000
0010
1000
,  // measure 21
0001
1000
0001
0100
0010
0100
0001
0000
,  // measure 22
1000
0010
0100
0010
1000
0001
1000
0002
,  // measure 23
0000
0000
0100
0000
0000
0000
0100
0000
0000
0000
0100
0000
0013
1000
0010
0000
,  // measure 24
1000
0100
0001
0100
1000
0001
0100
0000
,  // measure 25
0001
0010
1000
0010
0001
0100
0010
0100
,  // measure 26
0001
1000
0010
1000
0001
1001
0000
0110
,  // measure 27
0000
1001
0010
0100
0010
1000
0100
0010
,  // measure 28
0002
0000
0103
0010
1000
0020
0000
0230
,  // measure 29
0000
0302
0000
2003
0000
3010
0100
0001
,  // measure 30
0200
0000
0310
1000
0100
0020
0000
0032
,  // measure 31
0000
2003
0000
3020
0000
0130
0001
0010
,  // measure 32
0002
0000
1003
0010
0100
0010
0000
1010
,  // measure 33
0000
1001
0000
0101
0000
0100
0010
1000
,  // measure 34
0010
0000
0100
0001
0010
0001
0000
1000
,  // measure 35
0100
0000
0001
0000
0100
0000
2000
0000
0000
0000
3010
0100
0010
0000
1000
0000
,  // measure 36
0001
0100
0010
0100
0001
1000
0100
1000
,  // measure 37
0010
0000
0100
0000
0001
0000
0100
0010
0000
0000
1000
0000
0010
0000
0200
0000
,  // measure 38
0000
0310
1000
0001
1000
0010
0100
1001
,  // measure 39
0000
0000
0000
0000
0110
0000
0000
0000
0110
0000
0000
0000
0010
0100
0010
0000
,  // measure 40
1000
0000
0001
0000
0010
0000
0100
0000
0001
0000
0100
0000
1000
0000
0100
0010
,  // measure 41
0100
0000
0010
0000
0001
0000
1000
0000
0100
0010
0001
0000
0100
0000
0010
0000
,  // measure 42
1000
0010
0001
0010
1000
0001
0100
1001
,  // measure 43
0000
0000
0000
0000
0110
0000
0000
0000
1001
0000
0000
0000
0100
0010
0100
0000
,  // measure 44
0002
0023
0230
2300
,  // measure 45
3001
0100
0010
0100
0001
1000
0001
1000
,  // measure 46
0010
0100
0010
1000
0100
0010
0001
0100
,  // measure 47
0202
0000
0000
0000
0000
0000
0000
0000
0000
0000
0303
0000
0010
1000
0010
0000
,  // measure 48
2000
3020
0230
0320
,  // measure 49
1030
0000
0001
0000
0100
0000
0001
0000
0010
0000
0001
0000
0100
0010
0100
0000
,  // measure 50
0010
1000
0100
1000
0001
0100
0010
0110
,  // measure 51
0000
2010
0000
3002
0000
0000
0103
0010
,  // measure 52
1000
0000
0001
0010
0001
0000
1000
0000
0010
0100
0010
0000
0100
0000
0001
0010
,  // measure 53
0001
0000
1000
0000
0100
1000
0100
0000
0010
0000
0001
0100
0001
0000
1000
0000
,  // measure 54
0010
1000
0010
0000
0100
0000
0120
0000
0000
0000
0230
0000
0000
0000
0002
0000
,  // measure 55
0300
0000
0000
0000
0003
1000
0010
0100
,  // measure 56
0020
0000
1000
0000
0100
0000
1030
0001
,  // measure 57
0200
0000
0000
0000
0310
1000
0010
0000
1000
0100
1000
0000
0001
0010
0001
0000
,  // measure 58
0010
0001
0010
0000
0100
0000
1000
0000
0200
0000
0000
0000
1300
0001
1000
0000
,  // measure 59
0002
0000
1003
0000
0001
0100
0010
1000
,  // measure 60
0010
0000
0101
0000
1010
0100
0000
0022
,  // measure 61
0000
0033
1100
0000
0110
0001
0000
2002
,  // measure 62
0000
3003
1010
0000
0110
1000
0000
2002
,  // measure 63
0000
3003
0200
0000
0020
0000
0000
0000
,  // measure 64
0000
0000
0000
0330
;
