#TITLE:Ring;
#SUBTITLE:;
#ARTIST:Kozo Nakamura;
#TITLETRANSLIT:;
#SUBTITLETRANSLIT:;
#ARTISTTRANSLIT:;
#GENRE:;
#CREDIT:;
#BANNER:Ring.png;
#BACKGROUND:Ring-bg.png;
#LYRICSPATH:;
#CDTITLE:;
#MUSIC:Ring.mp3;
#OFFSET:-0.220000;
#SAMPLESTART:58.200001;
#SAMPLELENGTH:18.020000;
#SELECTABLE:YES;
#BPMS:0.000000=240.001007
;
#STOPS:
;
#BGCHANGES:0.000=bg.avi=1.000=0=0=1=====,
99999=-nosongbg-=1.000=0=0=0 // don't automatically add -songbackground-
;
#KEYSOUNDS:;
#ATTACKS:;

//---------------dance-single - ----------------
#NOTES:
     dance-single:
     :
     Hard:
     13:
     0.683570,0.809611,0.171537,0.099311,0.036113,530.000000,511.000000,19.000000,11.000000,0.000000,0.000000,0.683570,0.809611,0.171537,0.099311,0.036113,530.000000,511.000000,19.000000,11.000000,0.000000,0.000000:
// measure 0
0000
0000
0000
0000
,  // measure 1
0000
0000
0000
0000
,  // measure 2
0000
0000
0000
0000
,  // measure 3
0000
0000
0000
0000
,  // measure 4
1000
0000
0010
1000
0000
1000
0100
0000
,  // measure 5
0010
0000
0001
0000
0100
0001
0100
0000
,  // measure 6
0010
0000
1000
0001
0000
0001
0010
0000
,  // measure 7
0001
0000
0100
0000
0010
1000
0010
0000
,  // measure 8
0100
0000
0001
1000
0000
0100
1000
0000
,  // measure 9
0010
0000
1000
0000
0001
0010
0001
0000
,  // measure 10
0100
0010
1000
0100
,  // measure 11
0010
0001
1000
0010
,  // measure 12
0220
0000
0000
0330
,  // measure 13
0100
0001
0010
0000
0100
2000
0000
3000
,  // measure 14
0001
0000
0100
0000
0010
1000
0010
0000
,  // measure 15
1000
0000
0100
0000
0010
0001
0010
0000
,  // measure 16
0001
0000
0100
0000
0010
1000
0010
0000
,  // measure 17
0100
0000
0001
0000
1000
0010
1000
0000
,  // measure 18
0001
0000
0010
0000
0001
0100
0010
1000
,  // measure 19
0100
0010
0001
1000
,  // measure 20
0010
1000
0100
0000
0010
0001
0100
0000
,  // measure 21
0110
0000
0000
1010
0000
1000
0010
1000
,  // measure 22
0010
0000
0100
0000
0001
0100
0010
0000
,  // measure 23
1000
0000
0100
0000
0010
0001
1000
0000
,  // measure 24
0010
0000
1000
0000
0100
0010
0001
0000
,  // measure 25
0011
0000
0001
0100
0000
0010
1000
0100
,  // measure 26
1000
0000
0100
0000
0010
0001
0010
0000
,  // measure 27
0001
0000
0100
0000
0010
1000
0010
0000
,  // measure 28
1000
0100
1000
0000
0001
0100
0001
0000
,  // measure 29
1000
0010
1000
0001
0010
0002
0000
0003
,  // measure 30
1001
0000
1000
0000
0010
0100
0000
0101
,  // measure 31
0000
0001
0010
0100
,  // measure 32
1000
0000
0010
1000
0000
0000
0001
0000
,  // measure 33
0010
0000
0001
0010
0000
0000
0001
0000
,  // measure 34
1001
0000
1000
0000
0010
0100
0000
0101
,  // measure 35
0000
0001
0010
0100
,  // measure 36
1000
0010
1000
0000
0001
0010
0001
0000
,  // measure 37
1000
0100
1000
0000
0001
0100
0001
1000
,  // measure 38
0010
0000
1000
0000
0001
0010
0000
0011
,  // measure 39
0000
0001
0010
0100
,  // measure 40
1000
0000
0010
0100
0000
0000
0001
0000
,  // measure 41
0100
0000
0010
1000
0000
0000
0010
0000
,  // measure 42
0110
0000
0100
0000
0001
0010
0000
0110
,  // measure 43
0000
0100
1000
0010
,  // measure 44
1000
0001
0010
0000
0001
1000
0010
0000
,  // measure 45
1000
0001
0100
0000
0010
1000
0000
0000
,  // measure 46
2002
0000
0000
3003
,  // measure 47
1000
0000
0100
0000
1000
0000
0001
0000
0100
0000
0001
0000
,  // measure 48
1000
0000
0000
0000
0001
0010
0001
0000
,  // measure 49
1000
0000
0010
1000
0010
0000
0100
0000
,  // measure 50
0001
0010
0001
0000
0000
1000
0010
1000
,  // measure 51
0000
0000
0001
0100
0010
0000
1000
0000
,  // measure 52
0100
0010
0100
0000
0000
0010
0001
0010
,  // measure 53
0000
0000
0001
0100
0010
0000
1000
0000
,  // measure 54
0100
1000
0010
0000
0000
0100
0001
0010
,  // measure 55
0000
0000
0100
1000
0001
0000
0010
0000
,  // measure 56
0001
0100
0010
0000
0000
1000
0100
0010
,  // measure 57
0002
0000
0000
0003
,  // measure 58
1001
0000
0001
0000
0010
0001
0010
0000
,  // measure 59
0001
0000
0100
0000
0010
0100
0010
0000
,  // measure 60
1000
0000
0100
0000
1000
0100
1000
0000
,  // measure 61
0100
0000
0010
0000
0001
0010
0001
1000
,  // measure 62
0001
0000
0100
0000
0010
1000
0010
0000
,  // measure 63
0100
0000
0001
0000
0010
0100
0010
0000
,  // measure 64
0100
0000
1000
0000
0010
1000
0010
0100
,  // measure 65
0001
0000
0010
0000
0001
0100
0010
1000
,  // measure 66
0100
0000
0010
0000
0001
0010
0001
0000
,  // measure 67
0100
0000
0010
0000
1000
0010
1000
0000
,  // measure 68
1010
0000
0010
0100
0000
0100
0001
0000
,  // measure 69
0100
0000
0010
1000
0010
1000
0001
0100
,  // measure 70
0001
0100
0010
1000
,  // measure 71
0100
0000
0010
0001
0010
0000
0001
0100
,  // measure 72
0001
0000
0100
0010
0100
0000
0010
1000
,  // measure 73
0010
0100
0001
1000
0000
0000
0000
0000
,  // measure 74
1001
0000
0001
0000
0010
0001
0010
0000
,  // measure 75
0001
0000
0100
0000
0010
0100
0010
0000
,  // measure 76
1000
0000
0010
0000
0100
0001
0100
0000
,  // measure 77
0010
0000
1000
0000
0100
0010
0100
0010
,  // measure 78
0100
0000
0010
0000
0001
0010
0001
0000
,  // measure 79
0100
0000
0010
0000
1000
0100
1000
0000
,  // measure 80
0001
0000
0010
0001
0000
0001
0010
0000
,  // measure 81
0100
0000
1000
0010
1000
0001
0010
0000
,  // measure 82
0001
0010
0000
0000
0010
0100
0000
0000
,  // measure 83
0100
1000
0010
0000
1000
0000
0001
0000
,  // measure 84
0010
0001
0000
0000
0001
0100
0000
0000
,  // measure 85
0100
0010
1000
0010
0200
0000
0310
0000
,  // measure 86
1000
0001
0000
0000
0010
0100
0000
0000
,  // measure 87
1000
0000
0000
0010
0000
0000
0000
0000
0000
0000
0000
0000
0100
0000
0000
0000
0001
0000
0000
0000
0010
0000
0000
0000
,  // measure 88
0100
0000
1000
0100
1000
0000
0001
0000
,  // measure 89
0011
0000
0000
0000
0000
0000
0001
0000
0000
0100
0000
0000
0010
0000
0000
0000
1000
0000
0000
0000
0010
0000
0000
0000
,  // measure 90
0100
0001
0100
0000
0010
1000
0010
0000
,  // measure 91
1000
0100
1000
0000
0001
0010
0001
0000
,  // measure 92
1000
0010
1000
0000
0001
0100
0001
0000
,  // measure 93
1000
0010
1000
0001
0020
0000
0031
0000
,  // measure 94
1000
0100
1000
0100
0001
0100
0001
0100
,  // measure 95
1000
0010
1000
0010
0001
0010
0001
0010
,  // measure 96
1000
0000
0001
1000
0000
1000
0001
0000
,  // measure 97
0010
0000
0001
0100
0010
1000
0100
0000
,  // measure 98
0010
0001
0000
0000
0001
0100
0000
0000
,  // measure 99
0100
0010
0000
0000
0010
1000
0000
0000
,  // measure 100
0001
0000
1000
0010
1000
0000
0001
0010
,  // measure 101
0001
1000
2002
3003
,  // measure 102
0110
0000
0010
1000
0100
0000
0100
0010
,  // measure 103
0001
0000
0001
0100
0010
0000
0010
1000
,  // measure 104
0001
0010
0001
0100
0010
1000
0100
1000
,  // measure 105
0010
0100
0001
0000
1001
0000
0000
0000
;

//---------------dance-single - ----------------
#NOTES:
     dance-single:
     :
     Beginner:
     3:
     0.196043,0.238121,0.009028,0.460443,0.000000,152.000000,151.000000,1.000000,51.000000,0.000000,0.000000,0.196043,0.238121,0.009028,0.460443,0.000000,152.000000,151.000000,1.000000,51.000000,0.000000,0.000000:
0000
0000
0000
0000
,
0000
0000
0000
0000
,
0000
0000
0000
0000
,
0000
0000
0000
0000
,
0000
0000
2000
0000
,
0000
0000
0000
0000
,
3000
0000
0000
0002
,
0000
0000
0000
0000
,
0003
0000
0000
2000
,
0000
0000
0000
3000
,
0000
0001
0000
0000
,
0100
0000
0000
0000
,
0220
0000
0000
0330
,
0000
1000
0000
0000
,
0200
0000
0300
0000
,
0002
0000
0003
0000
,
2000
0000
3000
0000
,
0002
0000
0003
0000
,
2000
0000
0000
0000
,
3000
0000
0000
0000
,
0100
0000
0001
0000
,
1000
0000
0100
0000
,
0000
0000
0000
0000
,
1000
0000
0100
0000
,
0001
0000
1000
0000
,
0001
0000
0000
0000
,
0100
0000
0010
0000
,
0100
0000
1000
0000
,
0100
0000
0000
0000
,
1000
0000
0001
0000
,
1000
0000
0000
0000
,
0100
0000
0000
0000
,
1000
0000
0100
0000
,
1000
0000
0100
0000
,
0010
0000
0100
0000
,
0000
0000
1000
0000
,
0001
0000
1000
0000
,
0100
0000
0010
0000
,
0002
0000
0003
0000
,
1000
0000
0200
0000
,
2300
0000
3200
0000
,
0320
0000
2030
0000
,
3002
0000
0023
0000
,
0000
0000
0030
0000
,
0000
1000
0000
0001
,
0000
1000
0000
0001
,
0000
1000
0000
0000
,
0000
0000
0000
0000
,
1000
0000
0001
0000
,
0000
1000
0000
0001
,
0000
1000
0000
0001
,
0000
1000
0000
0001
,
0000
1000
0000
0001
,
0000
1000
0000
0001
,
0000
1000
0000
0001
,
0000
1000
0000
0000
,
0001
0000
1000
0000
,
0000
0002
0000
0000
,
0003
0000
0002
0000
,
2003
0000
3002
0000
,
0023
0000
0230
0000
,
2300
0000
3020
0000
,
0032
0000
0203
0000
,
0302
0000
0203
0000
,
2300
0000
3200
0000
,
2300
0000
3200
0000
,
0320
0000
0000
0030
,
0000
0000
0000
0000
,
1000
0000
0100
0000
,
0001
0000
1000
0000
,
0100
0000
1000
0000
,
0100
0000
0010
0000
,
0100
0000
0001
0000
,
0100
0000
0000
0000
,
2000
0000
3200
0000
,
0302
0000
0003
0000
,
2000
0000
3200
0000
,
0302
0000
0003
0000
,
2000
0000
3200
0000
,
0302
0000
2003
0000
,
3002
0000
0000
0003
,
2000
0000
0000
0000
,
3000
0000
0001
0000
,
1000
0000
0001
0000
,
1000
0000
0100
0000
,
1000
0000
0100
0000
,
0010
0000
0000
0000
,
1000
0000
0100
0000
,
0200
0000
0000
0000
,
2300
0000
0000
0000
,
3000
0000
0000
0000
,
0001
0000
1000
0000
,
0001
0000
1000
0000
,
0100
0000
1000
0000
,
0100
0000
0010
0000
,
0100
0000
0010
0000
,
0002
0000
0000
0000
,
2003
0000
0000
0000
,
3000
0000
0001
0000
,
1000
0000
0001
0000
,
0100
0000
0010
0000
,
0100
0000
1000
0000
,
0100
0000
0010
0000
,
0100
0000
0010
0000
,
0001
0000
1000
0000
,
0001
0000
1000
0000
;

//---------------dance-single - ----------------
#NOTES:
     dance-single:
     :
     Easy:
     7:
     0.406273,0.477371,0.090283,0.063198,0.000000,315.000000,305.000000,10.000000,7.000000,0.000000,0.000000,0.406273,0.477371,0.090283,0.063198,0.000000,315.000000,305.000000,10.000000,7.000000,0.000000,0.000000:
0000
0000
0000
0000
,
0000
0000
0000
0000
,
0000
0000
0000
0000
,
0000
0000
0000
0000
,
1000
0001
1000
0010
,
1000
0000
0000
0000
,
0100
1000
0100
0010
,
0001
0010
0100
0000
,
1000
0100
1000
0100
,
1000
0000
0000
0000
,
0001
0010
0001
0010
,
0001
0010
0001
0010
,
0002
0000
0000
0000
,
0000
0000
0000
0000
,
1003
0100
1000
0100
,
1000
0100
1000
0100
,
1000
0010
1000
0010
,
1000
0010
1000
0010
,
1000
0001
1000
0001
,
1000
0001
1000
0001
,
0010
0001
0010
0001
,
0011
0010
0000
0000
,
0100
1000
0100
1000
,
0100
0000
0010
0000
,
0001
0010
0001
0010
,
0001
0000
0100
0000
,
0010
1000
0010
1000
,
0010
0100
0010
0100
,
0010
0100
0010
0100
,
0010
0100
0010
0000
,
1001
0000
0000
1000
,
0000
0000
0000
0000
,
0010
1000
0010
0000
,
1000
0100
1000
0000
,
0001
0100
0001
0100
,
0001
0000
1000
0000
,
0100
1000
0100
0010
,
1000
0010
0100
0010
,
1000
0000
0001
1000
,
0001
0000
0100
0010
,
0100
0000
0010
0000
,
1000
0100
1000
0000
,
0001
1000
0001
1000
,
0001
0000
0000
0000
,
0100
0010
1000
0010
,
0100
0001
0010
0001
,
1000
0000
0000
0000
,
0000
0000
0000
0000
,
0010
0000
0000
0000
,
1000
0000
0000
0000
,
0001
1000
0000
0000
,
0000
0000
0000
0000
,
0001
1000
0000
1001
,
0000
0000
0000
0000
,
0000
0000
0000
1000
,
0000
0000
0001
0000
,
1000
0001
0000
1000
,
0001
0000
0000
0000
,
1000
0100
1000
0100
,
0010
0001
0010
0001
,
0100
0010
0100
0010
,
1000
0010
1000
0010
,
0100
0001
0010
0001
,
0010
0010
0010
0010
,
0100
0100
0100
0100
,
1000
1000
1000
1000
,
0002
0000
0000
0000
,
1003
0100
1000
0100
,
0001
0100
1000
0010
,
0001
0010
1000
0100
,
0001
0010
1000
0010
,
0001
0100
1000
0100
,
0001
0010
1000
0010
,
0001
0100
0000
0000
,
0010
1000
0100
1000
,
0010
0100
0001
0010
,
1000
0010
0001
0100
,
1000
0100
0001
0010
,
1000
0001
0100
1000
,
0001
0010
1000
0100
,
0001
0010
1000
0001
,
0100
1000
0001
0100
,
1000
0000
0100
0000
,
0001
0000
0010
0000
,
1000
0010
0001
0010
,
1000
0100
0001
0100
,
1000
0010
0100
0001
,
0010
0100
1000
0100
,
0020
0000
0000
0000
,
0032
0000
0000
0000
,
1003
1000
0010
0010
,
0100
0100
0001
0001
,
1000
1000
0001
0001
,
0010
0010
1000
1000
,
0010
0010
0001
0001
,
0100
0100
1000
1000
,
0200
0000
0000
0000
,
0302
0000
0000
0000
,
1003
0000
1010
0000
,
1010
0000
1100
0000
,
1100
0000
1001
0000
,
1001
0000
1010
0000
,
1000
0100
1000
0100
,
0010
0001
0010
0001
,
0010
1000
0010
0001
,
0100
1000
0200
0300
;

//---------------dance-single - ----------------
#NOTES:
     dance-single:
     :
     Medium:
     11:
     0.515902,0.666739,0.207651,0.072226,0.000000,400.000000,377.000000,23.000000,8.000000,0.000000,0.000000,0.515902,0.666739,0.207651,0.072226,0.000000,400.000000,377.000000,23.000000,8.000000,0.000000,0.000000:
0000
0000
0000
0000
,
0000
0000
0000
0000
,
0000
0000
0000
0000
,
0000
0000
0000
0000
,
1000
0001
1000
0001
,
1000
0010
0100
0010
,
1000
0100
0010
0001
,
0010
0100
1000
0100
,
0010
0001
1000
0001
,
1000
0010
0100
0010
,
1000
1000
1000
1000
,
1000
0010
0100
0010
,
0002
0000
0000
0000
,
0000
0000
0000
0000
,
0103
0010
0100
0010
,
0100
0010
1000
0010
,
1000
0010
1000
0100
,
1000
0100
1000
0100
,
0010
0001
0010
0001
,
0100
0010
0100
0010
,
1000
0100
1000
0100
,
1100
0000
0000
0000
,
1001
0001
1000
0001
,
1000
0010
1000
0010
,
0100
0010
0100
0001
,
0100
0001
0010
0100
,
1100
1000
0010
0100
,
0001
0010
0001
1000
,
1100
1100
1100
1100
,
1100
0000
0000
0000
,
1001
0000
0010
0000
,
0100
0000
1000
0001
,
1000
0000
0010
0000
,
0100
0001
0000
0000
,
1000
0001
1000
0001
,
1000
0000
0000
0000
,
0010
0100
0001
0100
,
0010
1000
0010
0000
1000
0000
0100
0000
,
0010
0000
0001
0000
0010
0001
0010
0000
,
1000
0001
1000
0001
,
1000
0010
0100
0000
,
0010
1000
0100
0000
,
1000
0000
0001
1000
0001
0000
0000
0000
,
1000
0100
0010
0001
,
0010
1000
0100
1000
,
0100
1000
0010
0001
,
0020
0000
0000
0000
,
0030
0000
0000
0000
,
1000
0000
0000
0000
0001
1000
0001
0000
,
0100
0001
0100
0000
0000
0000
0000
0000
,
0010
1000
0010
0000
0000
0100
1000
0100
,
0000
0000
0001
1000
0001
0000
1000
0000
,
0001
1000
0001
0000
0000
0100
0010
0100
,
0000
0000
0010
1000
0010
0000
1000
0000
,
0001
1000
0001
0000
0000
1000
0001
1000
,
0000
0000
0010
0100
0010
0000
0100
0000
,
0010
0100
0010
0000
0000
1000
0001
1000
,
0002
0000
0000
0003
,
0101
0100
0010
1000
,
0100
0010
0001
0010
,
0100
1000
0001
1000
,
0001
0100
0110
0010
,
1000
0100
0010
0001
,
0010
0100
1000
0100
,
0001
0100
1000
0001
,
0010
0000
0100
0000
1000
0001
1000
0001
,
1000
0010
0100
0001
,
0010
0100
1000
0001
,
1001
0000
0000
1001
0000
0000
1000
0000
,
1010
0000
0000
0110
0000
0000
0100
0000
,
0202
0000
0303
0000
,
0001
0000
1000
0010
1000
0000
0010
0100
,
0010
0000
0100
0001
0100
0000
0001
0010
,
0001
0010
0001
0010
0001
0000
0000
0000
,
1000
0100
1000
0100
,
0010
0001
0010
0001
,
0100
0010
0100
0010
,
1000
0001
1000
0001
,
0100
0010
1000
0010
,
0100
0010
0001
0010
,
1000
0010
0001
0010
,
1000
0010
0001
0010
,
1000
0010
0000
0000
0010
0001
0000
0000
,
0001
0010
0000
0000
0010
0000
1000
0000
,
0100
0001
0000
0000
0001
0100
0000
0000
,
0100
1000
0100
1000
0010
0000
0000
0000
,
0100
0001
0000
0000
0001
1000
0000
0000
,
1000
0010
0000
0000
0100
0000
0100
0000
,
0001
0000
1000
0001
1000
0000
0010
0000
,
0200
0000
0000
0300
,
0010
1000
0010
1000
,
0001
0100
0001
0100
,
0010
1000
0001
1000
,
1010
0010
0100
0001
,
0011
0110
1100
1001
,
0001
0100
1000
0100
,
0002
0000
1003
0000
,
0020
0000
1030
0000
,
0010
0001
0100
0010
,
1000
0100
0010
0001
,
0010
0100
1000
0001
,
0010
0001
0110
0000
,
1000
0010
0100
0001
,
0010
1000
0010
0001
,
0100
1000
0100
0001
,
0010
0100
1001
0000
;

//---------------dance-single - ----------------
#NOTES:
     dance-single:
     :
     Challenge:
     15:
     0.804807,0.861298,0.243764,0.117368,0.036113,624.000000,597.000000,27.000000,13.000000,0.000000,0.000000,0.804807,0.861298,0.243764,0.117368,0.036113,624.000000,597.000000,27.000000,13.000000,0.000000,0.000000:
// measure 0
0000
0000
0000
0000
,  // measure 1
0000
0000
0000
0000
,  // measure 2
0000
0000
0000
0000
,  // measure 3
0000
0000
0000
0000
,  // measure 4
0100
0000
0010
1000
0000
1000
0001
0000
,  // measure 5
0100
0000
1000
0000
0100
0001
0100
0000
,  // measure 6
0010
0000
1000
0001
0100
0001
1000
0000
,  // measure 7
0010
0000
1000
0010
1000
0001
0100
0001
,  // measure 8
0010
0000
0001
0100
0000
0100
1000
0000
,  // measure 9
0100
0000
0001
0000
0010
0100
1000
0000
,  // measure 10
0001
0100
0001
0100
0010
1000
0010
1000
,  // measure 11
0001
0010
0001
1000
0001
0010
0100
1000
,  // measure 12
2020
0000
0000
3030
,  // measure 13
0001
0100
0010
0000
0100
0010
0000
0000
,  // measure 14
1000
0000
0100
0000
0010
0100
0010
0000
,  // measure 15
0100
0000
1000
0000
0001
0100
0001
0000
,  // measure 16
0100
0000
0010
0000
1000
0001
1000
0000
,  // measure 17
0100
0000
0010
0000
0001
0100
0001
0000
,  // measure 18
0100
0000
0010
0000
1000
0001
0100
0010
,  // measure 19
1000
0100
0010
0001
1000
0001
0100
0000
,  // measure 20
0001
0100
0010
0100
0001
1000
0001
0000
,  // measure 21
1010
0000
0000
0101
0000
0000
0010
1000
,  // measure 22
0010
0100
0001
0010
,  // measure 23
0100
1000
0100
0000
1000
0001
1000
0000
,  // measure 24
0001
0010
1000
0010
,  // measure 25
0101
0000
0000
1001
0000
0010
1000
0100
,  // measure 26
1000
0000
0010
0000
0100
0000
0001
0010
,  // measure 27
0001
0100
0010
0100
0001
1000
0010
1000
,  // measure 28
0001
0100
1000
0100
0001
0010
1000
0010
,  // measure 29
0001
0001
1000
1000
0001
1001
0000
0000
,  // measure 30
0110
0000
0001
0000
1000
0001
0000
0101
,  // measure 31
0000
0000
0100
0000
0010
1000
0001
1000
,  // measure 32
0100
0000
0010
0001
0011
0000
0001
0100
,  // measure 33
0001
0000
1000
0010
1010
0000
0001
0000
,  // measure 34
0100
0000
0010
0100
0010
1000
0000
1001
,  // measure 35
0000
0000
0001
0000
0010
0100
1000
0001
,  // measure 36
1000
0100
0001
0100
1000
0010
0100
0010
,  // measure 37
0001
0010
1000
0100
0010
0001
0010
0100
,  // measure 38
0002
0000
0000
0000
0103
1000
0000
2002
,  // measure 39
0000
0000
3003
0000
0100
0010
0100
0010
,  // measure 40
1000
0001
0000
0001
0100
0000
0010
1000
,  // measure 41
0010
0100
0000
0100
0001
0000
0100
1000
,  // measure 42
0100
0000
0001
0000
0010
0100
0000
1100
,  // measure 43
0000
1000
0100
0000
0010
0001
0100
0000
,  // measure 44
0001
0100
0010
0100
0001
1000
0010
1000
,  // measure 45
0001
0100
1000
0100
0001
1000
0000
0000
,  // measure 46
2002
0000
0000
3003
,  // measure 47
1000
0000
0100
0000
0010
0000
0001
0000
0010
0000
0100
0000
,  // measure 48
1000
0000
0000
0000
0001
0100
0001
0100
,  // measure 49
0001
0000
1000
0010
1000
0010
1000
0000
,  // measure 50
0010
0100
0010
0000
0000
1000
0001
1000
,  // measure 51
0000
0000
0001
0010
1000
0010
0001
1000
,  // measure 52
0001
1000
0001
0000
0000
0100
0010
0100
,  // measure 53
0000
0000
0001
0100
1000
0100
0001
1000
,  // measure 54
0010
1000
0001
0000
0000
1000
0100
1000
,  // measure 55
0000
0000
0010
1000
0100
1000
0001
0010
,  // measure 56
0001
0100
0010
0000
0000
0100
0010
1000
,  // measure 57
0020
0000
0000
0030
,  // measure 58
0101
0000
0010
0000
0100
1000
0100
0000
,  // measure 59
1000
0001
1000
0000
0001
0010
0001
0000
,  // measure 60
0100
0010
0100
0000
0010
1000
0010
0000
,  // measure 61
1000
0001
1000
0000
0001
0100
0001
1000
,  // measure 62
0001
0010
0001
0000
0100
0010
0100
0000
,  // measure 63
0010
1000
0010
0000
1000
0001
1000
0000
,  // measure 64
0001
0100
1000
0000
0100
0001
0010
1000
,  // measure 65
0010
0000
0001
0000
1000
0010
0100
0010
,  // measure 66
1000
0000
0001
0000
1000
0000
0010
0100
,  // measure 67
0001
0100
0010
1000
0010
0100
0001
0010
,  // measure 68
1100
0000
0001
0010
0000
0010
0001
0000
,  // measure 69
0100
0000
0010
0100
0001
0100
0010
1000
,  // measure 70
0010
0000
1000
0000
0001
0100
0001
0000
,  // measure 71
1001
0000
1000
0100
0010
0000
0100
0010
,  // measure 72
0001
0000
1000
0100
0001
0000
0100
1000
,  // measure 73
0001
0010
0001
0100
0020
0000
0000
0000
,  // measure 74
0130
0000
0001
0000
0010
0001
0010
0000
,  // measure 75
0001
0000
0100
0000
1000
0100
0001
0000
,  // measure 76
1000
0000
0010
0000
0100
0001
0100
0000
,  // measure 77
0010
0000
1000
0000
0001
0100
0001
0100
,  // measure 78
0001
0000
1000
0000
0010
1000
0001
0000
,  // measure 79
0100
0000
0010
0000
1000
0010
0100
0000
,  // measure 80
1001
0000
0001
0100
0000
0100
0010
0000
,  // measure 81
1000
0000
0100
0001
0100
1000
0001
0000
,  // measure 82
0100
0010
0000
0010
1000
0001
1000
0100
,  // measure 83
0001
0100
1000
0010
0001
0010
1000
0100
,  // measure 84
0010
0100
0010
0000
0001
0010
1000
0010
,  // measure 85
0001
0010
0100
1000
0002
0000
0103
0000
,  // measure 86
0010
1000
0000
0000
1000
0001
0100
0000
,  // measure 87
0010
0000
0000
0100
0000
0000
0001
0000
0000
0100
0000
0000
0010
0000
0000
0000
1000
0000
0000
0000
0100
0000
0000
0000
,  // measure 88
0010
0000
0001
0010
0001
0000
1000
0000
,  // measure 89
1010
0000
0000
0100
0000
0000
0010
0000
1000
0000
0010
0000
,  // measure 90
0100
0001
0010
0001
0100
0010
1000
0010
,  // measure 91
0100
0001
0010
0100
1000
0010
0001
0010
,  // measure 92
1000
0100
0010
0001
0010
0100
1000
0010
,  // measure 93
0100
0010
1000
0100
1000
0001
1000
0000
,  // measure 94
1001
0110
0110
1001
,  // measure 95
0001
0010
1000
0010
0001
0100
0010
0100
,  // measure 96
0001
0000
1000
0010
0000
0010
0100
0000
,  // measure 97
0011
0000
1000
0000
0010
0100
0010
0000
,  // measure 98
1000
0100
0001
0100
1000
0001
0010
0001
,  // measure 99
0100
0010
0100
0001
1000
0010
0100
0010
,  // measure 100
1000
0100
0010
0100
0010
0001
0010
1000
,  // measure 101
0010
0001
0001
0100
0202
0000
0303
0000
,  // measure 102
1010
0100
0010
0001
0100
0010
0100
0001
,  // measure 103
0010
1000
0001
0100
1000
0100
0001
0010
,  // measure 104
0100
1000
0001
0100
0010
0100
0001
1000
,  // measure 105
0010
1000
1000
0010
0120
0000
0000
0000
,  // measure 106
0030
0000
0000
0000
;
