#TITLE:Reflux;
#SUBTITLE:;
#ARTIST:Eagle;
#TITLETRANSLIT:;
#SUBTITLETRANSLIT:;
#ARTISTTRANSLIT:;
#GENRE:;
#CREDIT:;
#BANNER:Reflux.png;
#BACKGROUND:Reflux-bg.png;
#LYRICSPATH:;
#CDTITLE:;
#MUSIC:Reflux.ogg;
#OFFSET:-1.060000;
#SAMPLESTART:77.940056;
#SAMPLELENGTH:12.899998;
#SELECTABLE:YES;
#DISPLAYBPM:75.000000:150.000000;
#BPMS:0.000000=150.000000
,64.000000=75.000000
,88.000000=150.000000
,96.000000=75.000000
,100.000000=150.000000
,196.000000=75.000000
,208.000000=150.000000
,216.000000=75.000000
,224.000000=150.000000
,244.000000=149.960007
;
#STOPS:
;
#BGCHANGES:;
#KEYSOUNDS:;
#ATTACKS:;

//---------------dance-single - ----------------
#NOTES:
     dance-single:
     :
     Beginner:
     3:
     0.121812,0.222915,0.000000,0.008121,0.000000,105.000000,105.000000,0.000000,1.000000,0.000000,0.000000,0.121812,0.222915,0.000000,0.008121,0.000000,105.000000,105.000000,0.000000,1.000000,0.000000,0.000000:
0000
0000
0000
0000
,
0000
0000
0000
0000
,
0000
0000
0000
0000
,
0000
0000
0000
0000
,
0001
0000
0000
0000
,
1000
0000
0000
0000
,
0010
0000
0000
0000
,
0010
0000
0000
0000
,
0100
0000
0100
0000
,
0001
0000
0001
0000
,
1000
0000
1000
0000
,
0010
0000
0010
0000
,
0100
0000
0000
0000
,
0100
0000
0000
0000
,
0001
0000
0000
0000
,
1000
0000
1000
0000
,
0010
0010
0100
0100
,
0001
0000
1000
0000
,
0010
0000
0100
0000
,
0001
0001
1000
1000
,
0010
0000
0100
0100
,
0001
0001
0010
0000
,
0010
0000
0000
0000
,
1000
0000
0000
0000
,
0001
0001
0001
0000
,
0100
0000
0000
0000
,
0100
0000
0000
0000
,
0010
0000
0000
0000
,
0010
0000
0000
0000
,
1000
0000
1000
0000
,
0001
0000
0001
0000
,
0010
0000
0010
0000
,
0100
0000
0000
0000
,
0100
0000
0000
0000
,
1000
0000
0000
0000
,
0001
0000
0000
0000
,
0010
0000
0000
0000
,
0001
0000
0001
0000
,
1000
0000
0000
1000
,
0000
0000
0010
0000
,
0100
0000
0000
0000
,
0010
0000
0000
0000
,
1000
0000
0000
0000
,
0010
0000
0010
0000
,
0100
0000
0000
0000
,
0001
0000
0001
0000
,
1000
0000
0000
0000
,
1000
0000
1000
0000
,
0010
0000
0000
0000
,
0100
0000
0001
0000
,
0010
0100
0010
0100
,
1000
0001
1000
0001
,
0010
0000
0010
0000
,
0100
0000
0100
0000
,
1000
1000
0001
0001
,
0100
0010
0100
0010
,
0100
0000
0001
1000
,
0001
0000
1000
1000
,
0010
0000
0100
0000
,
0010
0000
1000
0000
,
0002
0000
0000
0000
,
0003
0000
0000
0000
;

//---------------dance-single - ----------------
#NOTES:
     dance-single:
     :
     Easy:
     4:
     0.225061,0.292348,0.032483,0.211140,0.000000,194.000000,190.000000,4.000000,26.000000,0.000000,0.000000,0.225061,0.292348,0.032483,0.211140,0.000000,194.000000,190.000000,4.000000,26.000000,0.000000,0.000000:
0000
0000
0000
0000
,
0000
0000
0000
0000
,
0000
0000
0000
0000
,
0000
0000
0000
0000
,
1000
1000
0010
0000
,
0100
0100
0001
0000
,
0001
0001
1000
0000
,
0010
0010
0000
0000
,
0100
0100
0000
0001
,
0000
1000
0000
0001
,
0000
0100
0000
0010
,
0000
0100
0000
0001
,
0000
1000
0000
0001
,
0000
1000
0000
0001
,
0010
0001
0100
0001
,
0010
0001
1000
0001
,
2000
3010
0020
0130
,
0200
0301
0002
1003
,
2000
3010
0010
0100
,
0100
0101
0001
0011
,
0010
0100
1001
0001
,
0100
1000
0100
0001
,
1000
1000
0010
0010
,
0100
0100
0001
0001
,
1001
2000
3020
0230
,
0301
0001
1000
1000
,
0001
0001
1000
1000
,
0010
0010
0100
0100
,
0010
0010
0100
0100
,
0001
0010
0001
0010
,
0001
0000
1000
0100
,
1000
0000
0010
0100
,
0010
0000
0100
0001
,
0100
0001
0100
0000
,
0001
0010
0001
0000
,
1000
0100
1000
0000
,
0001
0010
0001
0000
,
0100
0010
0100
0000
,
0010
1000
0010
0000
,
1000
0001
1000
0000
,
0001
0010
0001
0000
,
0200
0300
0010
1000
,
0010
0000
0100
0000
,
0001
1000
0001
0000
,
1000
0100
1000
0000
,
0010
0010
0100
0000
,
0001
0001
0010
0000
,
1000
1000
0010
0000
,
0001
1000
0001
0100
,
0020
1030
2000
3100
,
0200
0320
0032
0203
,
0310
0010
1000
1000
,
0002
0103
0100
0010
,
1000
0100
0020
0032
,
0203
0320
2030
3200
,
0302
0203
2300
3020
,
0031
0001
0010
0010
,
1000
1000
0010
0010
,
0001
0001
0010
0010
,
1000
0100
0001
0100
,
1000
0000
0000
0000
;

//---------------dance-single - ----------------
#NOTES:
     dance-single:
     :
     Medium:
     10:
     0.402558,0.495367,0.349193,0.016242,0.097449,347.000000,304.000000,43.000000,2.000000,0.000000,0.000000,0.402558,0.495367,0.349193,0.016242,0.097449,347.000000,304.000000,43.000000,2.000000,0.000000,0.000000:
0000
0000
0000
0000
,
0000
0000
0000
0000
,
0000
0000
0000
0000
,
0000
0000
0000
0000
,
1000
0000
0000
1000
0000
0000
0010
0000
0000
0010
0000
0000
0100
0000
0000
0000
,
0001
0000
0000
0001
0000
0000
1000
0000
0000
1000
0000
0000
0001
0000
0000
0000
,
0100
0000
0000
0100
0000
0000
0010
0000
0000
0010
0000
0000
1000
0000
0000
0000
,
0010
0000
0000
0010
0000
0000
0100
0000
0000
0100
0000
0000
0001
0000
0000
0000
,
1000
0000
0000
1000
0000
0000
0010
0000
0000
0010
0000
0000
0001
0000
0000
0000
,
0010
0000
0000
0010
0000
0000
1000
0000
0000
1000
0000
0000
0001
0000
0000
0000
,
0100
0010
0100
0000
0010
1000
0010
0000
,
1000
0000
0000
1000
0000
0000
0100
0000
0000
0100
0000
0000
0010
0000
0000
0000
,
0001
0000
0000
0001
0000
0000
0100
0000
0000
0100
0000
0000
0010
0000
0000
0000
,
1000
0000
0000
1000
0000
0000
0010
0000
0000
0010
0000
0000
0100
0000
0000
0000
,
0001
0000
0000
0001
0000
0000
0100
0000
0000
0100
0000
0000
1000
0000
0000
0000
,
0100
0100
0001
0001
,
1001
1000
0010
0100
0001
0010
0001
1000
,
0001
0100
0010
0100
0001
0010
0001
1000
,
1001
0001
0110
0010
0100
0001
0010
0001
,
1000
0000
0100
1000
0100
0000
0010
0000
0001
0000
0010
0000
0001
0000
0100
0000
,
0010
1000
0100
0010
0100
1000
0010
0001
,
0010
0000
1000
0000
0001
1000
0001
0000
0100
0010
0100
0000
0010
1000
0010
0000
,
0100
0100
0110
1010
,
1001
0101
0110
1010
,
1000
0100
0001
0100
1000
0010
0001
0010
,
1000
0001
1000
0000
0001
0000
0100
0000
,
0110
0010
1010
1000
,
1100
0100
0101
0100
,
1000
1100
0001
0101
,
1100
1001
1010
0110
,
0010
0000
0100
0000
0001
0100
0001
0000
,
1000
0100
1000
0000
0100
0010
0100
0000
,
0010
0001
0010
0000
0001
0100
0001
0000
,
1000
1000
0010
0010
,
0100
0100
0001
0001
,
0010
0100
0010
0000
0100
0000
1000
0001
,
1000
0001
0100
0010
,
0100
0001
0010
0001
,
1000
0100
1000
0010
,
0100
0010
1000
0100
,
0001
0100
1000
0010
,
0011
1010
0011
1010
,
0100
0001
0100
1000
,
1001
0110
1001
0110
,
0001
0010
0001
0010
,
1100
0110
0011
1001
,
1100
0110
0011
1001
,
0001
0010
0100
1000
0001
0010
0100
1000
,
0001
0010
0001
0010
0001
0010
0001
0010
,
0100
0000
0100
0010
1000
0010
0100
0000
,
0001
0010
0001
0000
1000
0010
1000
0000
,
0010
0100
0010
0000
1000
0010
1000
0001
,
0100
0010
0100
0000
0010
1000
0010
0000
,
1000
0000
0100
0010
0001
0000
0010
0000
,
0200
0000
1300
1000
0001
0001
0100
0100
,
0010
0100
0010
1000
0100
1000
0001
0100
,
0101
0101
1010
1010
,
1001
1001
0101
0101
,
0100
0010
1000
0010
,
0100
0000
0001
0000
0010
0001
0010
0001
,
2000
0000
0000
0000
,
3000
0000
0000
0000
;

//---------------dance-single - ----------------
#NOTES:
     dance-single:
     :
     Hard:
     12:
     0.576575,0.817356,0.349193,0.024362,0.633420,497.000000,454.000000,43.000000,3.000000,0.000000,0.000000,0.576575,0.817356,0.349193,0.024362,0.633420,497.000000,454.000000,43.000000,3.000000,0.000000,0.000000:
// measure 0
0000
0000
0000
0000
,  // measure 1
0000
0000
0000
0000
,  // measure 2
0000
0000
0000
0000
,  // measure 3
0000
0000
0000
0000
,  // measure 4
1001
0000
0000
0001
0000
0000
0101
0000
0000
0100
0000
0000
0110
0000
0000
0000
,  // measure 5
1010
0000
0000
1000
0000
0000
1100
0000
0000
0100
0000
0000
0101
0000
0000
0000
,  // measure 6
1100
0000
0000
1000
0000
0000
1001
0000
0000
0001
0000
0000
0101
0000
0000
0000
,  // measure 7
0110
0000
0000
0010
0000
0000
1010
0000
0000
1000
0000
0000
1001
0000
0000
0000
,  // measure 8
0001
0100
0001
0000
0100
0010
1000
0010
,  // measure 9
0100
0000
0001
0010
0100
0010
0001
0000
,  // measure 10
1000
0000
0000
1000
0000
0000
0010
0000
0000
0010
0000
0000
0100
0000
0001
0000
,  // measure 11
0010
0000
0000
0010
0000
0000
0100
0000
0000
0100
0000
0000
1000
0000
0001
0000
,  // measure 12
1000
0000
0000
1000
0000
0000
0010
0000
0000
0010
0000
0000
0100
0000
0001
0000
,  // measure 13
0010
0000
0000
0010
0000
0000
1000
0000
0000
1000
0000
0000
0010
0000
0001
0000
,  // measure 14
0100
0000
0000
0100
0000
0000
1000
0000
0000
1000
0000
0000
0100
0000
0001
0000
,  // measure 15
0010
0010
0100
0100
1000
1000
1001
0000
,  // measure 16
0001
0000
0000
0000
0100
0000
0000
0000
0010
0000
0100
0001
0000
0100
0001
0000
1000
0000
0100
0000
1000
0000
0010
0000
0100
0000
0001
0000
0100
0000
0010
0000
,  // measure 17
1000
0000
1001
0000
0001
0100
1000
0100
0001
0010
1000
0010
0001
0010
0100
1000
,  // measure 18
0001
0000
0000
0101
0000
0000
0000
0000
0010
0000
1000
0010
0000
0000
0100
0000
0000
0001
0000
0000
0010
0000
0100
0000
1000
0000
0100
0000
0010
0000
0001
0000
,  // measure 19
0100
0010
0100
0000
0001
0000
0010
0000
1000
0000
0010
0000
0001
0000
0100
0000
0010
0000
0000
0000
1000
0000
0100
0000
0001
0000
0100
0000
1000
0000
0010
0000
,  // measure 20
0110
0000
0000
0000
0101
0000
0000
0000
0001
0000
0010
0000
0100
0000
0001
0000
0100
0000
1000
0000
0001
0000
0000
0000
0100
0000
0010
0100
0000
0010
0000
0000
,  // measure 21
1000
1001
0001
0000
0100
0010
1000
0010
0100
0001
0010
0001
1000
0010
1000
0100
,  // measure 22
0010
0000
0000
1001
0000
0000
0000
0000
1001
0000
0000
0011
0000
0000
0000
0000
,  // measure 23
0110
0000
0000
1001
0000
0000
0000
0000
0011
0000
0000
0101
0000
0000
1000
0000
,  // measure 24
0001
0010
0100
0010
0001
1000
0001
0100
0001
0000
0100
1000
0100
0001
0010
0100
,  // measure 25
1000
0010
0000
1000
0010
0000
0100
0000
0001
0010
0000
0001
0010
0000
0100
0000
,  // measure 26
1000
0001
0000
1000
0001
0000
0100
0000
0010
0000
1000
0000
0010
0000
0100
0000
,  // measure 27
0001
0010
0000
0001
0010
0000
0100
0000
1000
0000
0010
0000
1000
0001
0000
0000
,  // measure 28
0001
0100
0000
0000
0100
0010
0000
0000
0010
1000
0000
0000
1000
0000
0100
0000
,  // measure 29
0001
0000
0100
1000
0010
0001
0010
0000
,  // measure 30
1000
0100
0000
1000
0000
0000
0001
0100
0000
0001
0100
0000
0010
0000
1000
0000
,  // measure 31
0010
0100
0000
0010
0100
0000
0001
0000
0010
0000
0000
0001
0000
0010
0001
0000
,  // measure 32
1000
0010
1000
0100
0010
0001
0100
0000
,  // measure 33
0010
0000
0000
0010
0000
0000
0010
0000
0000
0100
0000
0000
1001
0000
0000
0000
,  // measure 34
0001
0000
0000
0001
0000
0000
0001
0000
0000
0100
0000
0000
0110
0000
0000
0000
,  // measure 35
1000
0000
0000
1000
0000
0000
0100
0000
0000
0001
0000
0000
0100
0000
1000
0000
,  // measure 36
0010
0000
0000
0010
0000
0000
0010
0000
0000
0100
0000
0000
0001
0000
1000
0000
,  // measure 37
0001
0000
0000
0100
0000
0000
0001
0000
0000
0010
0000
0001
0010
0000
0000
0000
,  // measure 38
0001
0000
0000
0100
0000
0000
1000
0000
0000
0100
0001
0000
1000
0000
0010
0000
,  // measure 39
1000
0010
0100
0001
,  // measure 40
0100
0010
1000
0100
,  // measure 41
0010
0000
0000
0011
0000
0000
0001
0000
0000
1001
0000
0000
1000
0000
0000
0000
,  // measure 42
0101
0000
0000
0100
0000
0000
0110
0000
0000
0010
0000
0000
1010
0000
0000
0000
,  // measure 43
1000
0000
0000
1100
0000
0000
0100
0000
0000
0101
0000
0000
0100
0000
1000
0000
,  // measure 44
0010
0000
0000
0010
0000
0000
0110
0000
0000
0100
0000
0000
0100
0000
0001
0000
,  // measure 45
0010
0100
0010
0100
1000
0001
1000
0001
,  // measure 46
0100
0010
0100
0010
1000
0100
1000
0100
,  // measure 47
0010
0001
0100
1000
0100
0001
0010
1000
,  // measure 48
0010
0010
0001
0001
0100
0100
0010
0010
,  // measure 49
2000
0000
3001
0000
0002
0000
0100
0000
0103
0000
0010
0000
1000
0001
1000
0000
,  // measure 50
0001
0100
0001
0100
0001
1000
0010
1000
0010
0000
0100
0010
0100
0001
0010
0001
,  // measure 51
1000
0000
0000
1010
0000
0000
0000
0000
0100
0000
0001
0100
0000
0001
0100
0000
0010
0000
1000
0000
0100
0000
0010
0000
0001
0000
0100
0000
0010
0000
0100
0000
,  // measure 52
0001
0000
0010
0000
0001
1000
0000
0001
1000
0000
0010
0000
0100
0000
0000
0000
,  // measure 53
0001
0000
0010
0000
0100
1000
0000
0100
1000
0000
0001
0000
0010
0000
0001
0000
,  // measure 54
0100
0000
0000
0000
0100
0000
0000
0000
0010
0000
1000
0010
0000
0100
0000
0000
0001
0000
0010
0000
0100
0000
0010
0000
0001
1000
0000
0100
0000
0010
0000
0001
,  // measure 55
0000
0000
0100
0000
0010
0000
1000
0000
0010
0000
0100
0001
0000
0010
0000
0000
0100
0000
1000
0000
0001
0000
1000
0000
0010
0000
0100
0000
0001
0000
0100
0000
,  // measure 56
0010
0000
0000
1010
0000
0000
0000
0000
1001
0000
0000
1001
0000
0000
0000
0000
,  // measure 57
0110
0000
0000
0110
0000
0000
0000
0000
0011
0000
0000
0011
0000
0000
0000
0000
,  // measure 58
1000
0100
0010
0001
0010
0100
1000
0000
,  // measure 59
0001
0010
0100
1000
0100
0010
0001
1000
,  // measure 60
0002
0000
0000
0000
,  // measure 61
0003
0000
0000
0000
;

//---------------dance-single - ----------------
#NOTES:
     dance-single:
     :
     Challenge:
     15:
     0.779594,1.139344,0.535971,0.016242,1.100365,672.000000,606.000000,66.000000,2.000000,0.000000,0.000000,0.779594,1.139344,0.535971,0.016242,1.100365,672.000000,606.000000,66.000000,2.000000,0.000000,0.000000:
// measure 0
0000
0000
0000
0000
,  // measure 1
0000
0000
0000
0000
,  // measure 2
0000
0000
0000
0000
,  // measure 3
0000
0000
0000
0000
,  // measure 4
1010
0000
0000
0110
0000
0000
0101
0000
0000
0011
0000
0000
0110
0000
0000
0000
,  // measure 5
1100
0000
0000
0110
0000
0000
0011
0000
0000
1001
0000
0000
1010
0000
0000
0000
,  // measure 6
0110
0000
0000
0101
0000
0000
0011
0000
0000
1001
0000
0000
1000
0000
0001
0000
,  // measure 7
0011
0000
0000
1100
0000
0000
0101
0000
0000
0011
0000
0000
0010
0000
0100
0000
,  // measure 8
1000
0100
0010
1000
0010
0001
0100
0000
,  // measure 9
0001
0010
0100
0001
0100
1000
0001
0000
,  // measure 10
1000
0000
0010
0000
0001
0000
0010
0100
0000
0001
0100
0000
0010
0000
0000
0000
,  // measure 11
1000
0000
0100
0000
0010
0000
0001
0010
0000
0001
0100
0000
0101
0000
0000
0000
,  // measure 12
0001
0000
0100
0000
0010
0000
1000
0100
0000
0100
1000
0000
1001
0000
0000
0000
,  // measure 13
0100
0000
0010
0000
1000
0000
0010
0100
0000
0001
0100
0000
0110
0000
0000
0000
,  // measure 14
0011
0000
0000
0110
0000
0000
1100
0000
0000
0110
0000
0000
0011
0000
0000
0000
,  // measure 15
1000
1000
0010
0010
0100
0100
1001
0000
,  // measure 16
1010
0000
0000
0000
0010
0000
0000
0000
0100
0000
0001
0100
0000
0001
0010
0000
0100
0000
1000
0000
0010
0000
0001
0000
0010
0000
1000
0010
0000
0010
0100
0000
,  // measure 17
0001
0000
1000
0000
0001
0000
0000
0000
1000
0000
1000
0000
0001
0010
0001
0010
0100
0010
0100
1000
0100
1000
0001
1000
0001
0000
0000
0100
0000
0100
0010
0000
,  // measure 18
0110
0000
0000
0101
0000
0000
0000
0000
0001
0000
1000
0001
0000
1000
0000
0000
0000
0100
0000
0000
0010
0000
0001
1000
0001
0000
1000
0000
0001
0100
0000
0100
,  // measure 19
0001
0100
0001
0000
1000
0001
1000
0000
0001
0010
0001
0000
0100
0010
0100
0000
0010
1000
0010
0000
1000
0100
0010
0000
0001
1000
0001
0000
1000
0100
1000
0000
,  // measure 20
1010
0000
0000
0000
0101
0000
0000
0000
0100
0000
0010
1000
0000
1000
0010
0000
0100
0000
0001
0000
0010
0000
0001
0000
0100
0000
0010
0100
0000
0010
1000
0000
,  // measure 21
0001
0000
0100
0000
1000
0000
0100
0000
0001
0000
0010
0000
0100
0000
1000
0000
0001
0100
0001
0100
0010
1000
0010
1000
0100
0010
0100
0010
0001
1000
0001
1000
,  // measure 22
0010
0000
0000
0110
0000
0000
0000
0000
1001
0000
0000
0110
0000
0000
0000
0000
,  // measure 23
1100
0000
0000
0011
0000
0000
0000
0000
0100
0000
0010
0100
0010
0000
1000
0000
,  // measure 24
1000
0000
0100
0000
0010
0000
0010
0000
0001
0000
1000
0000
0001
0100
0001
0000
0100
0000
0010
0100
0010
0000
1000
0000
0100
0000
0010
0001
0010
0000
0001
0000
,  // measure 25
1000
0010
1000
0010
0100
0001
0100
0001
1000
0100
0000
0100
1000
0100
0010
0000
,  // measure 26
0001
0100
0000
0001
0010
0000
0100
1000
0000
0010
1000
0000
0001
1000
0100
0000
,  // measure 27
1000
0001
0010
0000
0001
0100
0000
0001
1000
0000
0000
1010
0000
0010
0100
0000
,  // measure 28
0001
0000
1000
0000
0001
0100
0000
0001
0100
0010
0100
0010
1000
0001
1000
0001
,  // measure 29
0100
0010
0000
0010
1000
0000
0010
0100
0001
0100
0010
0000
1000
0001
1000
0000
,  // measure 30
0001
0010
0000
0010
0100
0000
1000
0100
0000
0100
0010
0000
0001
1000
0001
0000
,  // measure 31
1000
0010
0100
0000
0010
0100
0000
0001
0100
0000
0000
0001
0000
1000
0001
0000
,  // measure 32
1000
0000
0010
0100
0010
0000
0000
0000
1000
0001
1000
0001
1000
0001
1000
0000
,  // measure 33
0001
0100
0000
0001
0100
0000
0010
1000
0000
0010
1000
0000
0100
0010
0000
0000
,  // measure 34
0001
0010
0000
0001
0010
0000
0100
0010
0000
0100
0010
0000
0100
1000
0100
0000
,  // measure 35
1000
0000
1001
0000
0000
0101
0000
0000
1010
0000
0000
1000
0000
0001
1000
0000
,  // measure 36
0000
0010
1000
0000
0010
1000
0000
0000
0001
0010
0001
0000
0100
0000
1000
0000
,  // measure 37
0100
0001
0000
1000
0001
0000
0010
0100
0000
0010
0100
0000
1000
0000
0000
0000
,  // measure 38
0001
0100
0000
0001
1000
0000
0010
0100
0000
0001
0100
0000
0001
1000
0001
0000
,  // measure 39
0100
0010
0100
0000
0001
1000
0000
0100
1000
0000
0001
1000
0000
0001
0010
0000
,  // measure 40
0100
1000
0100
1000
0100
1000
0001
0000
0010
0100
0010
0100
0010
0100
0010
0000
,  // measure 41
1001
0000
0000
0101
0000
0000
0110
0000
0000
1010
0000
0000
1000
0000
0100
0000
,  // measure 42
1100
0000
0000
1010
0000
0000
0011
0000
0000
0001
0000
0000
1000
0000
0100
0000
,  // measure 43
0001
0000
0000
1000
0000
0000
0010
0000
0000
0001
0000
0000
1000
0000
0001
0000
,  // measure 44
1000
0010
0100
0010
1000
0001
0100
0010
,  // measure 45
0100
0001
0100
0001
0010
0100
0010
0100
,  // measure 46
1000
0000
0001
1000
0001
0000
0010
0000
0100
0000
1000
0000
0100
0000
0010
0000
,  // measure 47
0001
0000
1000
0010
1000
0000
0001
0000
0010
0000
0100
0000
0001
0000
0100
0000
,  // measure 48
1000
1000
0001
0001
1000
1000
1001
0000
,  // measure 49
0011
0000
0000
0000
0010
0000
0000
0000
0100
1000
0100
1000
0100
0000
0010
0000
0001
0000
0100
0000
0010
0000
1000
0000
0010
0100
0001
0000
0001
0100
0010
0000
,  // measure 50
1100
0000
0100
0000
0010
0000
0010
0000
0001
0000
0001
0000
0100
0010
0100
0000
0010
1000
0010
1000
0010
1000
0001
1000
0001
1000
0001
1000
0100
1000
0100
1000
,  // measure 51
0010
0000
0000
0110
0000
0000
0000
0000
0001
0000
1000
0001
0000
1000
0010
0000
0100
0000
0001
0000
0010
0000
0100
0000
1000
0000
0100
0010
0100
0000
0010
0000
,  // measure 52
0001
0000
0010
0000
0001
1000
0001
1000
0010
0100
0010
0100
0001
0000
0000
0000
,  // measure 53
1001
0000
0000
0000
1000
0010
1000
0000
0010
0100
0010
0100
0010
0000
0000
0000
,  // measure 54
1001
0000
1000
0000
0001
0000
0001
0000
0100
0000
0010
0100
0000
0001
1000
0000
0001
0000
0010
0000
1000
0000
0010
0000
0001
1000
0000
0100
0000
0010
0000
0001
,  // measure 55
0000
0000
1000
0000
0001
0000
0001
0000
0010
0000
0100
0010
0000
0001
0000
0000
1000
0000
0010
0000
1000
0000
0010
0000
0100
0001
0100
0001
0100
0001
0100
0000
,  // measure 56
1010
0000
0000
1001
0000
0000
0101
0000
0110
0000
0000
1010
0000
0000
1001
0000
,  // measure 57
0101
0000
0000
0110
0000
0000
1010
0000
1100
0000
0000
0110
0000
0000
0001
0000
,  // measure 58
0010
0000
0100
0000
1000
0001
1000
0000
0010
0000
0100
0000
0001
0000
0010
0001
,  // measure 59
0010
0000
0100
0000
1000
0000
0001
0000
0100
0010
0000
0010
1000
0000
0001
0000
,  // measure 60
2002
0000
0000
0000
,  // measure 61
3003
0000
0000
0000
;
