#VERSION:0.83;
#TITLE:REACH THE SKY (Orbit1 remix);
#SUBTITLE:;
#ARTIST:TAYA;
#TITLETRANSLIT:;
#SUBTITLETRANSLIT:;
#ARTISTTRANSLIT:;
#GENRE:;
#ORIGIN:;
#CREDIT:;
#BANNER:REACH THE SKY (Orbit1 remix).png;
#BACKGROUND:REACH THE SKY (Orbit1 remix)-bg.png;
#PREVIEWVID:;
#JACKET:REACH THE SKY (Orbit1 remix)-jacket.png;
#CDIMAGE:;
#DISCIMAGE:;
#LYRICSPATH:;
#CDTITLE:;
#MUSIC:REACH THE SKY (Orbit1 remix).mp3;
#OFFSET:1.325000;
#SAMPLESTART:67.820000;
#SAMPLELENGTH:15.000000;
#SELECTABLE:YES;
#BPMS:0.000=170.000;
#STOPS:;
#DELAYS:;
#WARPS:;
#TIMESIGNATURES:0.000=4=4;
#TICKCOUNTS:0.000=4;
#COMBOS:0.000=1;
#SPEEDS:0.000=1.000=0.000=0;
#SCROLLS:0.000=1.000;
#FAKES:;
#LABELS:0.000=Song Start;
#BGCHANGES:;
#KEYSOUNDS:;
#ATTACKS:
;

//---------------dance-single - ----------------
#NOTEDATA:;
#CHARTNAME:;
#STEPSTYPE:dance-single;
#DESCRIPTION:;
#CHARTSTYLE:;
#DIFFICULTY:Beginner;
#METER:2;
#RADARVALUES:0.091252,0.125817,0.000000,0.000000,0.000000,66.000000,66.000000,0.000000,0.000000,0.000000,0.000000,0.000000,0.000000,0.000000,0.091252,0.125817,0.000000,0.000000,0.000000,66.000000,66.000000,0.000000,0.000000,0.000000,0.000000,0.000000,0.000000,0.000000;
#CREDIT:;
#NOTES:
0000
0000
0000
0000
,
0000
0000
0000
0000
,
0000
0000
0000
0000
,
0000
0000
0000
0000
,
0000
0000
0000
0000
,
1000
0000
0000
0000
,
0001
0000
0000
0000
,
1000
0000
0000
0000
,
0010
0000
0010
0000
,
0010
0000
0000
0000
,
1000
0000
0000
0000
,
0001
0000
0000
0000
,
1000
0000
0000
0000
,
0010
0000
0000
0000
,
0100
0000
0000
0000
,
0010
0000
0000
0000
,
1000
0000
1000
0000
,
1000
0000
0000
0000
,
0001
0000
0000
0000
,
0001
0000
0000
0000
,
0100
0000
0000
0000
,
0100
0000
0000
0000
,
0010
0000
0000
0000
,
1000
0000
0000
0000
,
1000
0000
1000
0000
,
1000
0000
0000
0000
,
0001
0000
0000
0000
,
0001
0000
0000
0000
,
0100
0000
0000
0000
,
0000
0000
0000
0000
,
0100
0000
0000
0000
,
0010
0000
0000
0000
,
0000
1000
0000
0000
,
0001
0000
0000
0000
,
1000
0000
0000
0000
,
0010
0000
0000
0000
,
0100
0000
0000
0000
,
0001
0000
0000
0000
,
1000
0000
0000
0000
,
0001
0000
0000
0000
,
1000
0000
0010
0000
,
1000
0000
0000
0000
,
0001
0000
0000
0000
,
0010
0000
0000
0000
,
0001
0000
0000
0000
,
0100
0000
0000
0000
,
0010
0000
0000
0000
,
0100
0000
0100
0000
,
0100
0000
0000
0000
,
0001
0000
0000
0000
,
0001
0000
0000
0000
,
1000
0000
0000
0000
,
1000
0000
0000
0000
,
0010
0000
0000
0000
,
0010
0000
0000
0000
,
0100
0000
0000
0000
,
0100
0000
0000
0000
,
0001
0000
0000
0000
,
0001
0000
0000
0000
,
1000
0000
0000
0000
,
1000
0000
0000
0000
,
0100
0000
0000
0000
,
0100
0000
0000
0000
,
1000
0000
0000
0000
,
1000
0000
0001
0000
,
1000
0000
0000
0000
;

//---------------dance-single - ----------------
#NOTEDATA:;
#CHARTNAME:;
#STEPSTYPE:dance-single;
#DESCRIPTION:;
#CHARTSTYLE:;
#DIFFICULTY:Easy;
#METER:4;
#RADARVALUES:0.208773,0.283087,0.106460,0.058069,0.000000,151.000000,140.000000,11.000000,6.000000,0.000000,0.000000,0.000000,0.000000,0.000000,0.208773,0.283087,0.106460,0.058069,0.000000,151.000000,140.000000,11.000000,6.000000,0.000000,0.000000,0.000000,0.000000,0.000000;
#CREDIT:;
#NOTES:
0000
0000
0000
0000
,
0000
0000
0000
0000
,
0000
0000
0000
0000
,
0000
0000
0000
0000
,
0000
0000
0000
0000
,
0001
0000
0001
0000
,
1000
0000
1000
0000
,
0100
0000
0100
0000
,
1001
0000
0000
0000
,
0001
0010
0001
0000
,
1000
0010
1000
0000
,
0001
1000
0001
0000
,
1000
0000
0110
0000
,
0001
0001
1000
0000
,
1000
1000
0001
0000
,
2000
0000
0000
3002
,
0000
0000
0000
0003
,
1000
0010
1000
0000
,
0001
0010
0001
0000
,
1000
0001
1000
0000
,
1000
1000
0001
0001
,
0100
1000
1000
0000
,
0010
0001
0001
0000
,
2000
0000
0000
3000
,
0002
0000
0000
0003
,
1000
0000
1000
0001
,
1000
0100
1000
0000
,
0010
0000
0010
0001
,
0010
0100
0010
0000
,
0001
0000
0001
0100
,
0001
1000
0001
0000
,
1000
1000
0001
0001
,
1001
0000
0000
0000
,
0000
0001
0000
1000
,
0000
1000
0000
0001
,
0000
0010
0000
0100
,
0000
0100
0000
0010
,
0000
0010
0000
0001
,
0000
0001
0000
0100
,
0000
0100
0000
0010
,
0000
0000
0000
0000
,
0000
0100
0000
1001
,
0000
0100
0000
1001
,
0000
0100
0000
1001
,
0000
0100
0000
1001
,
0000
0010
0000
1001
,
0000
0010
0000
1001
,
1000
1000
1000
1000
,
0100
0000
0100
0000
,
0000
0000
1000
0100
,
0100
0000
0001
0100
,
0100
0000
0010
0100
,
0000
0000
0001
0100
,
0100
0000
1000
0100
,
0100
0000
0010
0100
,
0002
0000
0000
0203
,
0000
0000
0000
0300
,
0000
0000
1000
0010
,
0010
0000
0001
0010
,
0010
0000
0100
0010
,
0000
0000
0001
0010
,
1001
0000
0000
0000
,
0000
0010
0000
0010
,
0001
0000
1000
0000
,
0001
0001
1000
1000
,
1001
0000
0000
0000
;

//---------------dance-single - ----------------
#NOTEDATA:;
#CHARTNAME:;
#STEPSTYPE:dance-single;
#DESCRIPTION:;
#CHARTSTYLE:;
#DIFFICULTY:Medium;
#METER:7;
#RADARVALUES:0.382980,0.440358,0.135495,0.116138,0.000000,277.000000,263.000000,14.000000,12.000000,0.000000,0.000000,0.000000,0.000000,0.000000,0.382980,0.440358,0.135495,0.116138,0.000000,277.000000,263.000000,14.000000,12.000000,0.000000,0.000000,0.000000,0.000000,0.000000;
#CREDIT:;
#NOTES:
0000
0000
0000
0000
,
0000
0000
0000
0000
,
0000
0000
0000
0000
,
0000
0000
0000
0000
,
0000
0000
0000
0000
,
1000
0000
1000
0000
,
0001
0000
0001
0000
,
0100
0100
0100
0100
,
1001
0000
0001
1000
0001
0000
1000
0000
,
0100
0000
0001
0000
1000
0100
1000
0000
,
0010
0000
1000
0000
0001
0100
0001
0000
,
1000
0000
0010
0000
0001
0010
0001
0000
,
1000
0001
1000
0000
0110
0000
1001
0000
,
0010
0100
0010
0000
0010
0100
0010
0000
,
1000
0001
1000
0000
1000
0001
1000
0000
,
0200
0000
0300
0002
0000
0000
0203
0000
,
0000
0000
0000
0300
,
0010
0000
1000
0000
0001
0010
0001
0000
,
0100
0000
0001
0000
1000
0010
1000
0000
,
0001
0000
0100
0000
1000
0100
1000
0000
,
0001
1000
0001
0000
0001
1000
0001
0000
,
0100
0000
1000
0010
1000
0100
1000
0000
,
0010
0000
0001
0100
0001
0010
0001
0000
,
2000
0000
0000
3000
,
0002
0000
0000
0003
,
0001
0000
1000
0000
0001
0100
1000
0000
,
0001
0000
0010
0100
0000
1000
0100
0000
,
1000
0100
1000
0000
0001
0010
0001
0000
,
1000
0100
1000
0000
0001
0010
0001
0000
,
1000
0000
0001
0000
1000
0010
0001
1000
,
0000
1000
0100
0000
0010
0100
0000
0100
,
0001
0010
0001
0000
1000
0100
1000
0000
,
0001
0010
0001
0000
1000
0100
1000
0000
,
0010
0000
0001
0000
0000
1000
1000
0000
,
0100
0000
1000
0000
0000
0001
0001
0000
,
0010
0000
1000
0000
0000
0001
0001
0000
,
0100
0000
0001
0000
0000
1000
1000
0000
,
0010
0000
0001
0000
0000
1000
1000
0000
,
0100
0000
1000
0000
0000
0001
0001
0000
,
1000
0000
0001
0000
0000
0100
0100
0000
,
1001
0010
0100
0010
,
1000
1100
0010
0110
,
0100
0101
0001
1001
,
1000
1100
0001
0101
,
0010
0110
0001
1001
,
2000
0000
0200
3000
,
0020
0300
0002
0030
,
1000
1003
1000
1000
,
0100
0000
0100
0000
0100
0100
0100
0000
,
0001
0000
1000
0000
0001
0010
1000
0000
,
0001
0000
0100
0010
0000
1000
0010
0000
,
1000
0010
1000
0000
0001
0100
0001
0000
,
1000
0010
1000
0000
0001
0100
0001
0000
,
1000
0000
0001
0000
1000
0100
0001
1000
,
0000
1000
0010
0000
0100
0010
0000
0010
,
0002
0000
0000
2000
0000
3003
0200
0000
,
0000
0000
0000
0300
,
1000
0000
0001
0000
1000
0010
0001
0000
,
1000
0000
0100
0010
0000
0001
0010
0000
,
0001
0010
0001
0000
1000
0100
1000
0000
,
0001
0010
0001
0000
1000
0100
1000
0000
,
1001
0000
0000
0000
,
0000
0010
0100
0010
,
0001
0100
0010
1000
,
0001
0010
0001
1000
0100
1000
0001
0000
,
1001
0000
0000
0000
;

//---------------dance-single - ----------------
#NOTEDATA:;
#CHARTNAME:;
#STEPSTYPE:dance-single;
#DESCRIPTION:;
#CHARTSTYLE:;
#DIFFICULTY:Hard;
#METER:11;
#RADARVALUES:0.485293,0.779095,0.300024,0.125817,0.154851,351.000000,320.000000,31.000000,13.000000,0.000000,0.000000,0.000000,0.000000,0.000000,0.485293,0.779095,0.300024,0.125817,0.154851,351.000000,320.000000,31.000000,13.000000,0.000000,0.000000,0.000000,0.000000,0.000000;
#CREDIT:;
#OFFSET:1.325000;
#BPMS:0.000000=170.000000
,132.000000=85.000000
,164.000000=170.000000
;
#STOPS:;
#DELAYS:;
#WARPS:;
#TIMESIGNATURES:0.000000=4=4
;
#TICKCOUNTS:0.000000=4
;
#COMBOS:0.000000=1
;
#SPEEDS:0.000000=1.000000=0.000000=0
;
#SCROLLS:0.000000=1.000000
;
#FAKES:;
#LABELS:0.000000=Song Start
;
#NOTES:
// measure 0
0000
0000
0000
0000
,  // measure 1
0000
0000
0000
0000
,  // measure 2
0000
0000
0000
0000
,  // measure 3
0000
0000
0000
0000
,  // measure 4
0000
0000
0000
0000
,  // measure 5
1001
0000
0000
0001
0000
0000
0100
0000
0001
0000
0000
0010
0000
0000
0100
0000
,  // measure 6
1000
0020
2030
3002
,  // measure 7
2003
0000
0000
0000
,  // measure 8
3001
0000
0100
0100
0100
0000
1001
0000
,  // measure 9
0100
0000
0010
0000
1000
0100
1000
0000
,  // measure 10
0001
0000
0100
0010
0100
0000
0001
0000
,  // measure 11
2001
0000
3010
0000
0100
0001
1000
0000
,  // measure 12
0010
0100
0001
0000
1001
0000
1010
0000
,  // measure 13
0010
0100
0001
0000
0100
0001
1000
0001
,  // measure 14
0100
0000
0001
0010
0001
0010
0100
1000
,  // measure 15
0100
0000
1000
0000
0001
0000
0010
0010
,  // measure 16
0010
0011
0110
1100
,  // measure 17
1000
0100
0010
0000
0100
0010
0001
1000
,  // measure 18
0001
0000
0100
0010
1000
0010
0100
0000
,  // measure 19
0001
0010
0001
0000
1000
0010
1000
0000
,  // measure 20
0001
0000
0100
0010
0100
0010
0100
0000
,  // measure 21
0010
1000
0001
0000
0010
0001
1000
0000
,  // measure 22
0010
2000
3200
0320
,  // measure 23
0032
0000
0000
0000
,  // measure 24
0203
0000
0301
0001
1000
0000
1001
0000
,  // measure 25
1000
0100
0010
0001
0010
0100
0000
1000
,  // measure 26
0001
0000
0001
0010
0000
0010
0100
0000
,  // measure 27
1000
0010
0100
0010
0001
0010
0000
0100
,  // measure 28
0001
0010
0100
0010
1000
0010
0001
0010
,  // measure 29
0100
0001
0100
1000
0001
1000
0000
0101
,  // measure 30
0000
0100
0001
0000
0001
1000
0000
1000
,  // measure 31
0000
1000
0010
0000
0010
0100
0000
0100
,  // measure 32
0001
1001
1010
0110
,  // measure 33
0100
0000
0001
1000
0000
1000
0010
0000
0100
0000
0001
0010
0000
0010
0001
0000
,  // measure 34
1000
0100
1000
0000
0000
1000
0001
0000
0010
0000
0001
0000
0000
0001
0100
0000
,  // measure 35
0100
0000
0010
0000
0000
0010
0100
0000
0001
1000
0001
1000
0100
0000
0010
0000
,  // measure 36
0100
0000
0010
0001
0000
0001
1000
0000
0010
0000
0101
0000
1010
0000
1001
0000
,  // measure 37
0001
0000
0010
0000
0100
0000
0010
0000
0001
0000
0000
0100
0000
0000
0010
0000
0000
0000
1000
0000
0100
0000
0001
0000
0100
0000
0000
1000
0000
0000
0000
0000
,  // measure 38
0100
0010
0100
0010
0001
0100
0001
0000
0010
0100
1000
0100
0010
0001
1000
0000
,  // measure 39
1001
0000
1000
0000
0100
0010
0100
0000
1000
0010
0001
0000
0010
0000
1000
0000
,  // measure 40
1001
0000
1001
0000
0110
0000
0110
0000
0001
0010
0100
1000
0100
0010
0002
0000
,  // measure 41
1003
0010
1000
0000
0001
1000
0000
1000
,  // measure 42
0010
0000
0010
0100
0000
0100
0001
0000
,  // measure 43
1000
0001
1000
0000
0010
0100
0000
0000
,  // measure 44
0010
0100
0010
0000
0100
0001
0000
0001
,  // measure 45
0010
0100
0010
0000
0001
1000
0000
1010
,  // measure 46
0000
0010
0100
0000
1010
0000
1100
0000
,  // measure 47
0100
0001
0100
0000
1000
0001
0000
0000
,  // measure 48
0001
0010
0001
0000
0100
0010
0100
0000
,  // measure 49
0010
1000
0001
0000
0001
0100
0000
0100
,  // measure 50
0010
0000
1000
0010
0000
0010
0100
0000
,  // measure 51
0001
1000
0001
0000
1001
0000
1000
0000
,  // measure 52
0010
1000
0010
0000
0100
0000
0001
0000
,  // measure 53
1000
0010
1000
0000
1000
0001
0000
0101
,  // measure 54
0000
0100
0010
0000
0010
1000
0000
1000
,  // measure 55
1100
0011
1001
0110
,  // measure 56
1000
0100
0010
0001
0010
0100
1000
0000
,  // measure 57
0202
0000
0303
0000
;

//---------------dance-single - ----------------
#NOTEDATA:;
#CHARTNAME:;
#STEPSTYPE:dance-single;
#DESCRIPTION:;
#CHARTSTYLE:;
#DIFFICULTY:Challenge;
#METER:14;
#RADARVALUES:0.613874,0.779095,0.280668,0.125817,0.387128,444.000000,415.000000,29.000000,13.000000,0.000000,0.000000,0.000000,0.000000,0.000000,0.613874,0.779095,0.280668,0.125817,0.387128,444.000000,415.000000,29.000000,13.000000,0.000000,0.000000,0.000000,0.000000,0.000000;
#CREDIT:;
#OFFSET:1.325000;
#BPMS:0.000000=170.000000
,132.000000=85.000000
,164.000000=170.000000
;
#STOPS:;
#DELAYS:;
#WARPS:;
#TIMESIGNATURES:0.000000=4=4
;
#TICKCOUNTS:0.000000=4
;
#COMBOS:0.000000=1
;
#SPEEDS:0.000000=1.000000=0.000000=0
;
#SCROLLS:0.000000=1.000000
;
#FAKES:;
#LABELS:0.000000=Song Start
;
#NOTES:
// measure 0
0000
0000
0000
0000
,  // measure 1
0000
0000
0000
0000
,  // measure 2
0000
0000
0000
0000
,  // measure 3
0000
0000
0000
0000
,  // measure 4
0000
0000
0000
0000
,  // measure 5
1001
0000
0000
0001
0000
0000
0010
0000
1000
0000
0000
0010
0000
0000
0001
0000
,  // measure 6
0100
0020
2030
3200
,  // measure 7
0302
0000
0000
0000
,  // measure 8
0103
0000
0000
0000
1000
0001
1000
0001
1000
0000
0000
0000
1001
0000
0000
0000
,  // measure 9
0100
0010
1000
0000
0010
0100
0001
0010
,  // measure 10
0001
0000
0100
0010
0100
1000
0100
0010
,  // measure 11
1000
0010
0100
0001
0010
0001
0100
0010
,  // measure 12
1000
0100
0010
0001
1001
0000
0110
0000
,  // measure 13
0010
0100
0001
0100
0010
0100
0001
0100
,  // measure 14
0010
0100
0001
0010
0001
0010
0100
1000
,  // measure 15
1200
0000
0000
0000
0010
0000
0000
0000
0301
0000
0000
0000
0010
0001
0010
0001
,  // measure 16
0010
0011
0110
1100
,  // measure 17
1000
0100
0010
1000
0010
0001
1000
0001
,  // measure 18
0200
0000
0310
1000
0100
0010
0001
0000
,  // measure 19
0001
0100
0001
1000
0010
1000
0200
0000
,  // measure 20
1300
0000
0001
0000
0010
0000
0001
0000
0100
0000
0010
0000
0100
0001
0100
0001
,  // measure 21
1000
0100
1000
0000
0001
0100
0001
0000
,  // measure 22
0100
0010
1000
0000
0100
0010
0001
0100
,  // measure 23
0020
0000
0000
0000
,  // measure 24
0130
0000
0000
0000
0010
0100
0010
0100
0010
0000
0000
0000
1001
0000
0000
0000
,  // measure 25
1000
0000
0001
0000
0100
0000
0001
0000
1000
0100
1000
0000
0000
0000
0010
0000
,  // measure 26
0100
0010
0100
0000
0010
0000
1000
0100
1000
0000
0001
0000
0100
0000
0001
0000
,  // measure 27
1000
0000
0100
0000
0010
0000
0001
0000
0100
0010
0100
0000
0000
0000
0000
0000
,  // measure 28
0001
0000
0010
0000
0001
0000
1000
0000
0010
0000
0100
0000
0010
0100
0010
0000
,  // measure 29
0100
0000
0001
0000
0010
0000
0100
0000
1000
0001
1000
0000
0000
0000
1001
0000
,  // measure 30
0000
0000
0001
0100
0010
0000
0000
0000
1000
0010
0100
0000
0010
0000
0100
0010
,  // measure 31
1000
0000
0010
0000
0100
0001
1000
0000
0010
1000
0001
0000
0010
0000
0001
0000
,  // measure 32
0101
0110
1010
1001
,  // measure 33
0001
0000
1000
0010
0000
1000
0010
0000
0100
0000
0001
0010
0000
0001
0010
0000
,  // measure 34
0100
1000
0001
0000
0100
0001
1000
0000
0010
0000
1000
0001
0100
0010
0100
0000
,  // measure 35
0001
1000
0100
0000
1000
0010
0100
0000
0001
0100
0001
0001
0100
0010
0100
0000
,  // measure 36
1000
0100
0001
0000
0001
0010
1000
0000
0010
0000
0011
0000
1100
0000
1001
0000
,  // measure 37
0001
0000
0010
0000
1000
0000
0010
0000
0001
0000
0000
0100
0000
0000
0010
0000
0000
0000
1000
0000
0100
0000
0001
0000
0100
0000
0000
1000
0000
0000
0001
0000
,  // measure 38
0000
0100
0010
1000
0010
0100
0001
0000
0010
0100
1000
0100
0010
0001
1000
0000
,  // measure 39
1000
0010
1000
0000
0100
0010
0100
0000
0010
0001
0010
0000
0001
1000
0001
0000
,  // measure 40
1001
0000
1001
0000
0110
0000
0110
0000
0001
0001
0100
0100
1000
1000
0200
0000
,  // measure 41
0301
0000
0010
0000
0100
0000
1000
0000
0001
1000
0001
0000
0000
0000
0100
0000
,  // measure 42
0001
0100
0001
0000
0100
0000
0010
1000
0010
0000
1000
0000
0100
0000
1000
0000
,  // measure 43
0001
0010
0001
0000
0100
0000
0010
0000
1000
0100
1000
0000
0000
0000
0010
0000
,  // measure 44
0100
0001
0100
0000
0001
0000
1000
0000
0010
1000
0010
0000
0000
0000
0100
0000
,  // measure 45
0001
0010
0001
0000
0100
0000
0001
0000
1000
0001
1000
0000
0000
0000
1001
0000
,  // measure 46
0000
0001
0100
0000
0100
1000
0100
0000
,  // measure 47
0100
0000
0001
0000
0100
0000
0010
0000
1000
0010
0100
0000
0001
0000
0000
0000
,  // measure 48
1000
0100
1000
0000
0100
0000
0010
0000
0001
0010
0001
0000
0100
0010
0100
0000
,  // measure 49
0001
0100
1000
0000
0100
0000
0001
0000
1000
0001
0020
0000
0000
0000
0031
0000
,  // measure 50
1000
0010
0100
0000
0010
0000
1000
0010
0100
0000
0002
0000
0000
0000
0103
0000
,  // measure 51
0001
0100
1000
0100
0010
1000
0010
0100
,  // measure 52
0001
0000
0010
0000
0100
0000
1000
0000
0100
0000
0100
0000
0100
0000
0001
0100
,  // measure 53
1000
0000
0010
0000
1000
0000
0100
0000
1000
0001
0010
0000
0000
0000
0011
0000
,  // measure 54
0000
0000
0001
0100
0010
0000
0000
0000
1000
0010
0100
0000
0000
0000
0001
0000
,  // measure 55
1001
1010
0110
1001
,  // measure 56
1000
0000
0000
0000
0001
1000
0001
1000
0001
0000
0000
0000
0110
0000
0000
0000
,  // measure 57
2002
0000
3003
0000
;
