#TITLE:Poochie;
#SUBTITLE:;
#ARTIST:kors k;
#TITLETRANSLIT:;
#SUBTITLETRANSLIT:;
#ARTISTTRANSLIT:;
#GENRE:;
#CREDIT:;
#BANNER:Poochie.png;
#BACKGROUND:Poochie-bg.png;
#LYRICSPATH:;
#CDTITLE:;
#MUSIC:Poochie.ogg;
#OFFSET:0.000000;
#SAMPLESTART:98.143883;
#SAMPLELENGTH:15.000000;
#SELECTABLE:YES;
#DISPLAYBPM:110.000000:440.000000;
#BPMS:0.000000=110.000000
,36.000000=220.000000
,68.000000=110.000000
,180.000000=220.000000
,212.000000=440.000000
;
#STOPS:
;
#BGCHANGES:;
#KEYSOUNDS:;
#ATTACKS:;

//---------------dance-single - ----------------
#NOTES:
     dance-single:
     :
     Hard:
     16:
     0.747619,1.206563,0.008333,0.275000,0.641667,628.000000,627.000000,1.000000,33.000000,0.000000,0.000000,0.747619,1.206563,0.008333,0.275000,0.641667,628.000000,627.000000,1.000000,33.000000,0.000000,0.000000:
0000
0000
0000
0000
,
0000
0000
0000
0000
,
0000
0000
0000
0000
,
0000
0000
0000
0000
,
0000
0000
0000
0000
,
1000
0000
0000
0001
0000
0010
0000
0000
0001
0000
0000
1000
0000
0010
0000
0000
,
1000
0000
0000
0001
0000
0010
0000
0000
0001
0000
0000
1000
0000
0010
0000
0000
,
1000
0000
0000
0100
0000
0010
0000
0000
0001
0000
0000
0100
0000
0010
0000
0000
,
1000
0100
1000
0000
0001
0100
0001
0000
1000
0100
0010
0100
1000
0010
0100
0001
,
0100
0001
0100
0001
1000
0100
0001
0000
,
0100
1000
0100
1000
0001
0100
1000
0000
,
0100
0010
0100
0010
1000
0100
0001
0000
,
0100
0010
0100
0010
0001
0100
1000
0000
,
0100
0010
0100
0001
0010
0100
0010
0001
,
0100
0010
0100
0001
0010
0100
0010
0001
,
1000
0010
0100
0010
0001
0010
0100
0010
,
1000
0000
0001
0000
0100
0010
0100
0000
0001
0000
1000
0000
0001
0000
0000
0000
,
0100
0000
0001
0000
0000
0001
0200
0000
0000
1300
0000
0100
0001
0000
0001
0100
0000
0100
0001
0010
0001
0010
0000
0100
,
1000
0000
0100
0000
0000
0100
2000
0000
0000
3010
0000
1000
0100
0000
0001
0100
0000
0100
0020
0000
0000
0000
0000
0000
,
0031
0000
1000
0100
1000
0100
1000
0100
0020
0000
0000
0000
0000
0000
0000
0000
0031
0000
1000
0100
1000
0100
1000
0100
0020
0000
0000
0000
0000
0000
0000
0000
,
0031
0000
0000
0100
0000
0000
0010
0000
0000
0100
0000
0000
0001
0000
0010
0001
0000
0100
0001
0000
1000
0020
0000
0000
,
0130
0000
1000
0000
0000
1000
0200
0000
0000
0310
0000
1000
0100
0010
0100
0010
0000
0001
0010
0000
0000
0001
0000
0001
,
0010
0000
1000
0000
0000
1000
0020
0000
0000
0130
0000
0000
0010
0001
0010
0100
1000
0100
0010
0000
0000
0001
0000
0001
,
1000
0000
0010
0100
0010
0100
0010
0100
0002
0000
0000
0000
0000
0000
1003
0000
0000
0000
0100
0000
0010
0000
0100
0000
0002
0000
0000
0000
0000
0000
0103
0000
,
0002
0000
0000
0000
0203
0000
0000
0000
0320
0000
0032
0000
2003
0000
0000
0100
,
3100
0000
1000
0000
0000
1000
0200
0000
0000
0301
0000
0100
1000
0000
1000
0100
0000
0100
1000
0010
1000
0010
0000
0100
,
0001
0000
0100
0000
0000
0100
0002
0000
0000
0013
0000
0001
0100
0000
1000
0100
0000
0100
0020
0000
0000
0000
0000
0000
,
1030
0000
0001
0100
0001
0100
0001
0100
0020
0000
0000
0000
0000
0000
0000
0000
1030
0000
0001
0100
0001
0100
0001
0100
0020
0000
0000
0000
0000
0000
0000
0000
,
1030
0000
0000
0100
0000
0000
0010
0000
0000
0100
0000
0000
1000
0000
0010
1000
0000
0100
1000
0000
0001
0020
0000
0000
,
0130
0000
0001
0000
0000
0001
0200
0000
0000
0310
0000
0001
0100
0010
0100
0010
0000
1000
0010
0000
0000
1000
0000
1000
,
0010
0000
0001
0000
0000
0001
0020
0000
0000
0130
0000
0000
0010
1000
0010
0100
0001
0100
0010
0000
0000
1000
0000
1000
,
0001
0000
0010
0000
0000
0000
0100
0000
2000
0000
0000
0000
0000
0000
3001
0000
0000
0000
0100
0010
0100
0010
0100
0010
2000
0000
0000
0000
0000
0000
3100
0000
,
2000
0000
0000
0000
3200
0000
0000
0000
0320
0000
2030
0000
3002
0000
0000
0100
,
0103
0000
1000
0000
0001
0000
1000
0000
0010
1000
0010
1000
0010
0000
0100
0000
,
0001
0000
0100
0000
0001
0000
0100
0000
0010
0100
0010
0100
0010
0000
1000
0000
,
0100
0000
0010
0000
0100
0000
0010
0000
0100
0001
0100
0001
0100
0000
0010
0000
,
0001
0000
1000
0000
0001
0000
1000
0000
0010
0100
0010
0100
0010
0000
1000
0000
,
0001
0010
0001
0010
0100
1000
0100
0000
0100
1000
0100
1000
0001
0010
0001
0000
,
0100
0001
0100
0001
0010
1000
0010
0000
0010
0001
0010
0001
0100
1000
0100
0000
,
1000
0100
0001
0000
1000
0100
0001
0000
0001
0100
1000
0000
0001
0100
1000
0000
,
1000
0100
0001
0100
1000
0100
0001
0100
1000
0000
0100
0000
0010
0100
0010
0100
,
0001
0100
1000
0100
0001
0100
1000
0100
,
0001
0010
1000
0010
0001
0010
1000
0010
,
0001
0100
1000
0100
0001
0010
1000
0010
,
0001
0000
0100
0000
1000
0000
0001
0000
0010
0100
0001
1000
0100
0010
0001
1000
,
0100
1000
0100
1000
0001
0100
1000
0000
,
0100
0001
0100
0001
1000
0100
0001
0000
,
0100
0010
0100
0010
0001
0100
1000
0000
,
0100
0010
0100
0010
1000
0100
0001
0000
,
0100
0010
0100
1000
0010
0100
0010
1000
,
0100
0010
0100
1000
0010
0100
0010
1000
,
0001
0010
0100
0010
1000
0010
0100
0010
,
0001
0000
1000
0000
0100
0010
0100
0000
1000
0000
0001
0000
2000
0000
0000
0000
,
3001
0010
0001
0010
,
0001
0100
0001
0100
,
0010
0100
0010
1000
,
0010
0000
0100
0000
0010
0001
0010
0000
,
0010
1000
0010
1000
,
0100
1000
0100
1000
,
0100
0010
0100
0001
,
0100
0000
0010
0000
0001
1000
0001
0000
,
0001
0100
0001
0100
,
0001
0010
0001
0010
,
0100
0010
0100
1000
,
0100
0000
0010
0000
0100
0001
0100
0000
,
0100
1000
0100
1000
,
0010
1000
0010
1000
,
0010
1000
0010
0000
0100
0001
0100
0000
,
0010
0001
0010
0000
0100
1000
0100
0000
,
0001
0010
0100
0010
,
0100
1000
0010
0100
,
0010
1000
0010
0001
,
0010
0000
1000
0000
0001
0010
0001
0000
,
1000
0010
0100
0010
,
0100
0001
0010
0100
,
0010
0001
0010
1000
,
0010
0000
0001
0000
1000
0010
1000
0000
,
0001
0010
0001
0100
,
0001
0100
1000
0100
,
1000
0010
1000
0010
,
0001
0000
0010
0000
0001
0010
0001
0000
,
0010
0000
1000
0000
0010
0100
0010
0100
,
0001
0000
0100
0000
0010
0100
0010
0100
,
1000
0000
0100
0000
0010
0001
0010
0000
,
0100
1000
0100
0000
0010
0000
0000
0000
,
2002
0000
0000
0000
,
0000
0000
0000
0000
,
0000
0000
0000
3003
;

//---------------dance-single - ----------------
#NOTES:
     dance-single:
     :
     Easy:
     9:
     0.328571,0.460417,0.066667,0.091667,0.000000,276.000000,268.000000,8.000000,11.000000,0.000000,0.000000,0.328571,0.460417,0.066667,0.091667,0.000000,276.000000,268.000000,8.000000,11.000000,0.000000,0.000000:
0000
0000
0000
0000
,
0000
0000
0000
0000
,
0000
0000
0000
0000
,
0000
0000
0000
0000
,
0000
0000
0000
0000
,
1000
1000
0001
0001
,
0100
0100
0010
0010
,
0001
0001
1000
1000
,
0010
0010
0100
0100
,
0001
0001
0001
0000
,
1000
1000
1000
0000
,
0001
0001
0001
0000
,
1000
1000
1000
0000
,
0001
0001
1000
1000
,
0001
0001
1000
1000
,
0001
1000
0001
1000
,
0002
0000
0000
0000
,
1003
0000
1001
0000
0100
0010
0100
0000
,
0001
0000
1001
0000
0100
0010
0100
0000
,
2000
3010
0002
0013
,
0100
0000
1000
0000
0100
1000
0100
0000
,
0100
0000
0110
0000
0010
0001
0100
0000
,
0100
0000
0110
0000
0010
1000
0100
0000
,
0002
0103
2000
3100
,
0001
0000
1000
0000
0010
1000
0010
0000
,
1000
0000
1001
0000
0100
0010
0100
0000
,
0001
0000
1001
0000
0100
0010
0100
0000
,
0002
0013
2000
3010
,
0100
0000
0001
0000
0100
0001
0100
0000
,
0100
0000
0110
0000
0010
1000
0100
0000
,
0100
0000
0110
0000
0010
0001
0100
0000
,
2000
3100
0002
0103
,
1000
0000
0001
0000
0010
0001
0010
0000
,
0001
1000
0001
0000
1000
0010
1000
0000
,
0100
0010
0100
0000
0010
0100
0010
0000
,
0001
0100
0001
0000
1000
0001
1000
0000
,
0010
1000
0010
0000
0100
0001
0100
0000
,
0001
0010
0001
0000
1000
0100
1000
0000
,
0001
0010
0001
0000
1000
0100
1000
0000
,
0001
1000
0001
1000
,
0001
1000
0001
1000
0002
0000
0000
0000
,
1003
0100
0001
0100
,
1000
0001
0100
1000
,
0100
0001
0010
0001
,
0100
0000
0001
0000
1000
0000
0001
0001
,
1000
1000
1000
0000
,
0001
0001
0001
0000
,
1000
1000
1000
0000
,
0001
0001
0001
0000
,
1000
1000
0001
0001
,
1000
1000
0001
0001
,
1000
0001
1000
0001
,
2000
0000
0000
0000
,
3001
0000
0010
0000
,
0001
0000
0010
0000
,
0100
0000
1000
0000
,
0100
0000
1000
0000
,
0001
0000
0010
0000
,
0001
0000
0010
0000
,
0100
0000
1000
0000
,
0100
0000
1000
0000
,
0100
0000
0010
0000
,
0100
0000
0010
0000
,
0001
0000
1000
0000
,
0001
0000
1000
0000
,
0010
0000
0100
0000
,
0010
0000
0100
0000
,
0010
0000
0010
0000
,
0010
0000
0000
0000
,
0001
0000
0100
0000
,
0001
0000
0100
0000
,
1000
0000
0100
0000
,
0001
0000
0100
0000
,
0010
0000
1000
0000
,
0010
0000
1000
0000
,
0100
0000
1000
0000
,
0010
0000
1000
0000
,
0100
0000
0001
0000
,
0100
0000
0001
0000
,
0100
0000
1000
0000
,
0100
0000
0001
0000
,
0100
0000
0010
0000
,
0100
0000
0010
0000
,
0001
0000
0010
0000
,
0001
0000
0100
0000
,
0001
0000
0000
0000
;

//---------------dance-single - ----------------
#NOTES:
     dance-single:
     :
     Medium:
     13:
     0.520238,0.925000,0.208333,0.200000,0.070833,437.000000,412.000000,25.000000,24.000000,0.000000,0.000000,0.520238,0.925000,0.208333,0.200000,0.070833,437.000000,412.000000,25.000000,24.000000,0.000000,0.000000:
0000
0000
0000
0000
,
0000
0000
0000
0000
,
0000
0000
0000
0000
,
0000
0000
0000
0000
,
0000
0000
0000
0000
,
0010
1000
0010
0000
0100
0001
0100
0000
,
0010
1000
0010
0000
0100
0001
0100
0000
,
0001
0010
0001
0000
1000
0100
1000
0000
,
0001
0010
0001
0010
0100
1000
0100
0010
,
0001
0000
0010
0000
0100
0010
0001
0000
,
0001
0000
0010
0000
0100
0010
0001
0000
,
0001
0000
0100
0000
0010
1000
0010
0000
,
0100
0000
0010
0000
1000
0010
1000
0000
,
0001
0010
0100
0000
1000
0010
0100
0000
,
0001
0010
0100
0000
1000
0010
0100
0000
,
0001
0010
0100
0010
0001
0100
0010
1000
,
0020
0000
0000
0000
,
0130
0001
0101
1000
0010
0010
0001
0010
,
1000
0100
1100
0001
0010
0010
1000
0010
,
0001
1000
0020
0000
1030
0001
0020
0000
,
0031
0100
1000
0100
0001
0011
0010
0110
,
0010
0001
0011
1000
0100
0100
0001
0100
,
1000
0010
1010
0001
0100
0100
1000
0100
,
0001
1000
0200
0000
1300
0001
0200
0000
,
0302
0000
2003
0000
3001
0100
0101
0001
,
0010
0000
0000
0100
0000
0000
1100
0000
0000
0010
0000
0000
0001
0000
1000
0001
0000
0000
0001
0000
0000
0010
0000
0000
,
0100
0000
0000
0010
0000
0000
0011
0000
0000
0100
0000
0000
1000
0000
0001
1000
0000
0000
2000
0000
0000
0000
0000
0000
,
3010
0100
0002
0000
0103
0010
2000
0000
,
3100
0000
0000
0010
0000
0000
0001
0000
0000
0010
0000
0000
0100
0000
1000
0100
0000
0000
0010
0000
0001
0010
0000
0000
,
0100
0000
0000
0010
0000
0000
1010
0000
0000
0100
0000
0000
0001
0000
1000
0001
0000
0000
0001
0000
0000
0100
0000
0000
,
0010
0000
0000
0100
0000
0000
0101
0000
0000
0010
0000
0000
1000
0000
0001
1000
0000
0000
2000
0000
0000
0000
0000
0000
,
3100
0010
0002
0000
0013
0100
2000
0000
,
3020
0000
0032
0000
0013
0100
0220
0030
,
0301
0100
0001
0100
0001
0010
0001
0010
,
0100
1000
0100
1000
0010
1000
0010
1000
,
0100
0010
0100
0010
0001
0100
0001
0100
,
0010
1000
0010
1000
0001
0100
0010
1000
,
0001
0000
0100
0000
0010
1000
0010
0000
0100
0000
0001
0000
0100
0001
0100
0000
,
0001
0000
0100
0000
0001
0100
0001
0000
0010
0000
0001
0000
0010
0001
0010
0000
,
0100
1000
0100
0000
0010
0100
0010
0000
0001
0010
0001
0000
0100
0010
0100
0000
,
0010
1000
0010
0000
1000
0100
1000
0000
0100
0000
0001
0000
0100
1000
0100
0000
,
2000
0100
0001
0100
,
3002
0100
1000
0100
,
0023
1000
0001
1000
,
0230
0001
1000
0001
,
1300
0000
0010
0000
0100
0010
1000
0000
,
1000
0000
0010
0000
0100
0010
1000
0000
,
1000
0000
0100
0000
0010
0001
0010
0000
,
0100
0000
0010
0000
0001
0010
0001
0000
,
1000
0010
0100
0000
0001
0010
0100
0000
,
1000
0010
0100
0000
0001
0010
0100
0000
,
1000
0010
0100
0010
1000
0100
0010
0001
,
0020
0000
0000
0000
,
0031
0000
0100
0000
,
0010
1000
0100
1000
,
0010
0000
0100
0000
,
0001
0010
0001
0100
,
0001
0000
0100
0000
,
0010
0100
0010
1000
,
0010
0000
0101
0000
,
0100
0000
1010
0000
,
0100
0000
0010
0000
,
0001
0010
0100
0010
,
0001
0000
0100
0000
,
0010
0100
1000
0100
,
0010
0000
0100
0000
,
0001
0100
1000
0100
,
0001
1000
0001
1000
,
0001
0000
1001
0000
,
0010
0000
1010
0000
,
0100
0010
0001
0010
,
0100
0000
0011
0000
,
0100
1000
0100
0010
,
0100
0000
0110
0000
,
0001
0010
1000
0010
,
0001
0000
0101
0000
,
0110
0000
1010
0000
,
0010
0000
0011
0000
,
0100
0010
1000
0010
,
0100
0000
1010
0000
,
0100
0001
0100
0010
,
0100
0000
0110
0000
,
1000
0010
0001
0010
,
1000
0100
1000
0100
,
1000
0001
0010
0000
,
2200
0000
0000
0000
,
0000
0000
0000
0000
,
0000
0000
0000
0000
,
0000
0000
0000
0000
,
0000
0000
0000
0000
,
0000
0000
0000
0000
,
0000
0000
0000
0000
,
0000
0000
3300
0000
;

//---------------dance-single - ----------------
#NOTES:
     dance-single:
     :
     Beginner:
     6:
     0.151190,0.247917,0.000000,0.041667,0.000000,127.000000,127.000000,0.000000,5.000000,0.000000,0.000000,0.151190,0.247917,0.000000,0.041667,0.000000,127.000000,127.000000,0.000000,5.000000,0.000000,0.000000:
0000
0000
0000
0000
,
0000
0000
0000
0000
,
0000
0000
0000
0000
,
0000
0000
0000
0000
,
0000
0000
0000
0000
,
1000
0000
1000
0000
,
0001
0000
0001
0000
,
0010
0000
0010
0000
,
1000
0000
1000
0000
,
0001
0000
0001
0000
,
1000
0000
1000
0000
,
0001
0000
0001
0000
,
1000
0000
1000
0000
,
0001
0000
1000
0000
,
0001
0000
1000
0000
,
0001
0000
1000
0000
,
0002
0000
0000
0000
,
0003
1000
1000
1000
,
0000
0001
0001
0001
,
0000
0010
0000
0010
,
0000
0001
0000
1000
,
0000
0010
0010
0010
,
0000
0100
0100
0100
,
0000
0010
0000
0010
,
0000
1000
0000
0001
,
0000
0010
0010
0010
,
0000
0100
0100
0100
,
0000
1000
0000
1000
,
0000
0100
0000
0001
,
0000
1000
1000
1000
,
0000
0001
0001
0001
,
0000
0100
0000
0100
,
0000
0001
0000
0100
,
0002
0000
0000
0000
,
0000
0000
0000
0000
,
0000
0000
0000
0000
,
0000
0000
0000
0000
,
1003
0000
1000
0000
,
0001
0000
0001
0000
,
1000
0000
0001
0000
,
1000
0000
0002
0000
,
1003
0000
0010
0000
,
0001
0000
0010
0000
,
1000
0000
0010
0000
,
0001
0000
0010
0000
,
1000
0000
1000
0000
,
0001
0000
0001
0000
,
1000
0000
1000
0000
,
0001
0000
0001
0000
,
1000
0000
0001
0000
,
1000
0000
0001
0000
,
1000
0000
0001
0000
,
2000
0000
0000
0000
,
3001
0000
0000
0000
,
0010
0000
0000
0000
,
0010
0000
0000
0000
,
0010
0000
0000
0000
,
0001
0000
0000
0000
,
1000
0000
0000
0000
,
1000
0000
0000
0000
,
1000
0000
0000
0000
,
0001
0000
0000
0000
,
0100
0000
0000
0000
,
0100
0000
0000
0000
,
0100
0000
0000
0000
,
1000
0000
0000
0000
,
0010
0000
0000
0000
,
0020
0000
0000
0000
,
0030
0000
0000
0000
,
1000
0000
0000
0000
,
0001
0000
0000
0000
,
0001
0000
0000
0000
,
0001
0000
0000
0000
,
1000
0000
0000
0000
,
0100
0000
0000
0000
,
0100
0000
0000
0000
,
0100
0000
0000
0000
,
0010
0000
0000
0000
,
0100
0000
0000
0000
,
0100
0000
0000
0000
,
0100
0000
0000
0000
,
0010
0000
0000
0000
,
0001
0000
0000
0000
,
0001
0000
0000
0000
,
0001
0000
0000
0000
,
1000
0000
0000
0000
;

//---------------dance-double - ----------------
#NOTES:
     dance-double:
     :
     Easy:
     8:
     0.328571,0.373750,0.083333,0.108333,0.000000,276.000000,266.000000,10.000000,13.000000,0.000000,0.000000,0.328571,0.373750,0.083333,0.108333,0.000000,276.000000,266.000000,10.000000,13.000000,0.000000,0.000000:
00000000
00000000
00000000
00000000
,
00000000
00000000
00000000
00000000
,
00000000
00000000
00000000
00000000
,
00000000
00000000
00000000
00000000
,
00000000
00000000
00000000
00000000
,
00010000
00010000
00000100
00000100
,
00001000
00001000
00000001
00000001
,
00001000
00001000
00000010
00000010
,
00010000
00010000
00001000
00001000
,
00010000
00010000
00010000
00000000
,
00001000
00001000
00001000
00000000
,
00010000
00010000
00010000
00000000
,
00001000
00001000
00001000
00000000
,
00010000
00010000
00000010
00000010
,
00010000
00010000
00001000
00001000
,
00100000
00001000
00010000
00001000
,
00022000
00000000
00000000
00000000
,
00033000
00000000
00011000
00000000
00000100
00001000
00000100
00000000
,
00000010
00000000
00000110
00000000
00000001
00001000
00000001
00000000
,
00002000
00003010
00000002
00000013
,
00000100
00000000
00000010
00000000
00010000
00001000
00010000
00000000
,
00001000
00000000
00011000
00000000
01000000
00010000
01000000
00000000
,
00100000
00000000
01100000
00000000
10000000
00010000
10000000
00000000
,
00020000
00130000
20000000
30100000
,
01000000
00000000
00100000
00000000
00001000
00010000
00001000
00000000
,
00100000
00000000
01100000
00000000
00010000
10000000
00010000
00000000
,
01000000
00000000
01100000
00000000
00010000
10000000
00010000
00000000
,
00020000
00130000
00002000
01003000
,
00001000
00000000
00010000
00000000
00001000
00010000
00001000
00000000
,
00000010
00000000
00000110
00000000
00001000
00000001
00001000
00000000
,
00000100
00000000
00000110
00000000
00001000
00000001
00001000
00000000
,
00002000
00003010
00020000
00030100
,
00010000
00000000
00001000
00000000
00010000
00001000
00010000
00000000
,
00001000
00100000
00001000
00000000
01000000
00010000
01000000
00000000
,
00100000
10000000
00100000
00000000
01000000
00100000
01000000
00000000
,
00001000
00010000
00001000
00000000
00010000
00000100
00010000
00000000
,
00000010
00001000
00000010
00000000
00000100
00000001
00000100
00000000
,
00000001
00000100
00001000
00000000
00000100
00001000
00010000
00000000
,
00001000
00010000
00100000
00000000
00010000
00100000
10000000
00000000
,
10000000
00010000
00001000
00010000
,
00001000
00000001
00002000
00000000
,
00003001
00000100
00000001
00001000
,
00000100
00001000
00000010
00001000
,
00010000
01000000
00010000
10000000
,
01000000
00000000
10000000
00000000
00010000
00000000
00100000
00100000
,
00001000
00001000
00001000
00000000
,
00010000
00010000
00010000
00000000
,
00001000
00001000
00001000
00000000
,
00010000
00010000
00010000
00000000
,
00001000
00001000
00100000
00100000
,
00001000
00001000
00010000
00010000
,
00000010
00010000
00001000
00010000
,
00022000
00000000
00000000
00033000
,
00001000
00010000
00001000
00010000
,
00000010
00010000
00000010
00001000
,
00000001
00000100
00000001
00000100
,
00000010
00001000
00000010
00001000
,
00000100
00000010
00000100
00000010
,
00000001
00001000
00000001
00001000
,
00010000
00001000
00010000
00001000
,
00000001
00000001
00000001
00001000
,
00000100
00010000
00001000
00100000
,
00010000
00100000
01000000
00100000
,
00010000
01000000
00001000
00010000
,
00000010
00001000
00000010
00000100
,
00000010
00001000
00000100
00010000
,
00001000
00100000
00010000
10000000
,
01000000
00100000
00001000
00010000
,
00000010
00000100
00000010
00010000
,
00001000
00000000
00000000
00000000
;

//---------------dance-double - ----------------
#NOTES:
     dance-double:
     :
     Medium:
     12:
     0.514286,0.722500,0.208333,0.200000,0.066667,432.000000,407.000000,25.000000,24.000000,0.000000,0.000000,0.514286,0.722500,0.208333,0.200000,0.066667,432.000000,407.000000,25.000000,24.000000,0.000000,0.000000:
00000000
00000000
00000000
00000000
,
00000000
00000000
00000000
00000000
,
00000000
00000000
00000000
00000000
,
00000000
00000000
00000000
00000000
,
00000000
00000000
00000000
00000000
,
00001000
00100000
00001000
00000000
00010000
00000100
00010000
00000000
,
00001000
00100000
00001000
00000000
00010000
00000100
00010000
00000000
,
00001000
01000000
00001000
00000000
00010000
00000010
00010000
00000000
,
00000100
00010000
00001000
00100000
00010000
00100000
01000000
10000000
,
01000000
00000000
00100000
00000000
01000000
00100000
00010000
00000000
,
00001000
00000000
00000100
00000000
00001000
00000100
00000010
00000000
,
00000001
00000000
00000100
00000000
00000001
00000100
00000010
00000000
,
00000100
00000000
00001000
00000000
00000100
00001000
00010000
00000000
,
00010000
00100000
00010000
00000000
00010000
00001000
00010000
00000000
,
00001000
00010000
00001000
00000000
00001000
00000010
00001000
00000000
,
00010000
00001000
00100000
00001000
00010000
00000010
00010000
00001000
,
00020000
00000000
00000000
00000000
,
00130000
01000000
01100000
00000000
10000000
01000000
00010000
01000000
,
00010000
00001000
00011000
00000000
00001000
00000100
00001000
00000100
,
00000001
00001000
00000020
00000000
00001030
00000001
00000020
00000000
,
00000031
00000100
00001000
00000100
00000001
00000011
00000010
00000110
,
00000100
00000010
00000110
00000000
00000001
00000010
00001000
00000010
,
00001000
00010000
00011000
00000000
00010000
00100000
00010000
00100000
,
10000000
00010000
02000000
00000000
03010000
10000000
02000000
00000000
,
23000000
00000000
30020000
00000000
10030000
01000000
01100000
00100000
,
00010000
00000000
00000000
00100000
00000000
00000000
01100000
00000000
00000000
00010000
00000000
00000000
00001000
00000000
00010000
00001000
00000000
00000000
00000010
00000000
00000000
00001000
00000000
00000000
,
00010000
00000000
00000000
00001000
00000000
00000000
00011000
00000000
00000000
00000100
00000000
00000000
00000010
00000000
00000100
00000010
00000000
00000000
00000020
00000000
00000000
00000000
00000000
00000000
,
00001030
00000100
00000020
00000000
00000031
00000100
00000020
00000000
,
00001030
00000000
00000000
00000100
00000000
00000000
00000001
00000000
00000000
00000100
00000000
00000000
00001000
00000000
00000100
00001000
00000000
00000000
00000001
00000000
00000010
00000001
00000000
00000000
,
00001000
00000000
00000000
00000100
00000000
00000000
00000110
00000000
00000000
00001000
00000000
00000000
00010000
00000000
00001000
00010000
00000000
00000000
00100000
00000000
00000000
00010000
00000000
00000000
,
00001000
00000000
00000000
00010000
00000000
00000000
00011000
00000000
00000000
01000000
00000000
00000000
00100000
00000000
01000000
00100000
00000000
00000000
00200000
00000000
00000000
00000000
00000000
00000000
,
00310000
01000000
00200000
00000000
10300000
01000000
00200000
00000000
,
00320000
00000000
20030000
00000000
30010000
10000000
20020000
00030000
,
31000000
00100000
01000000
00100000
00001000
00100000
00001000
00100000
,
00001000
00010000
00001000
00010000
00000100
00010000
00000100
00010000
,
00000100
00000010
00000100
00000010
00000001
00000010
00000001
00000010
,
00000001
00000100
00001000
00010000
00001000
00000100
00000001
00000100
,
00000010
00000000
00001000
00000000
00000010
00001000
00000010
00000000
00010000
00000000
00001000
00000000
00010000
00001000
00010000
00000000
,
00100000
00000000
00001000
00000000
00100000
00001000
00100000
00000000
00010000
00000000
10000000
00000000
00010000
10000000
00010000
00000000
,
00100000
01000000
00100000
00000000
00001000
00010000
00001000
00000000
00100000
00010000
00100000
00000000
00001000
00010000
00001000
00000000
,
00000100
00000010
00000100
00000000
00000001
00001000
00000001
00000000
00000100
00000000
00001000
00000000
00000100
00000000
00000001
00000000
,
00000020
00000001
00000100
00000001
,
00000230
00000010
00001000
00000010
,
00020300
00001000
00100000
00001000
,
00032000
00000010
00010000
00000010
,
00013000
00000000
00000010
00000000
00000100
00000010
00001000
00000000
,
00010000
00000000
01000000
00000000
00010000
01000000
00100000
00000000
,
10000000
00000000
01000000
00000000
10000000
01000000
00100000
00000000
,
01000000
00000000
00010000
00000000
01000000
00010000
00001000
00000000
,
00001000
00000010
00001000
00000000
00001000
00010000
00001000
00000000
,
00010000
00001000
00010000
00000000
00010000
00100000
00010000
00000000
,
00001000
00010000
00000010
00010000
00001000
00100000
00001000
00010000
,
00002000
00000000
00000000
00000000
,
00003010
00000000
00000001
00000000
00000100
00000001
00000100
00000001
,
00000100
00000000
00000001
00000000
00001000
00000010
00001000
00000010
,
00001000
00000000
00000010
00000000
00010000
00001000
00010000
00001000
,
00010000
00101000
00010000
01010000
,
00100000
00000000
10000000
00000000
01000000
10000000
01000000
10000000
,
01000000
00000000
10000000
00000000
00010000
00100000
00010000
00100000
,
00010000
00000000
00100000
00000000
00001000
00010000
00001000
00010000
,
00000100
00010000
00000100
00010000
00000100
00000000
00001100
00000000
,
00000001
00000000
00000011
00000000
00000100
00001000
00000100
00000010
,
00000100
00000000
00000011
00000000
00000100
00000010
00000100
00001000
,
00000100
00000000
00000011
00000000
00000010
00001000
00000010
00001000
,
00010000
00011000
01010000
01100000
,
10000000
00000000
10100000
00000000
01000000
00010000
01000000
00100000
,
01000000
00000000
10100000
00000000
01000000
00100000
01000000
00010000
,
01000000
00000000
00110000
00000000
00100000
00010000
00100000
00010000
,
00001000
00010000
00001000
00010000
00000100
00000010
00000001
00000000
,
00000022
00000000
00000000
00000000
,
00000000
00000000
00000000
00000000
,
00000000
00000000
00000000
00000000
,
00000000
00000033
00000000
00000000
;

//---------------dance-double - ----------------
#NOTES:
     dance-double:
     :
     Hard:
     15:
     0.716667,0.900000,0.000000,0.291667,0.591667,602.000000,602.000000,0.000000,35.000000,0.000000,0.000000,0.716667,0.900000,0.000000,0.291667,0.591667,602.000000,602.000000,0.000000,35.000000,0.000000,0.000000:
00000000
00000000
00000000
00000000
,
00000000
00000000
00000000
00000000
,
00000000
00000000
00000000
00000000
,
00000000
00000000
00000000
00000000
,
00000000
00000000
00000000
00000000
,
10000000
00000000
00000000
00010000
00000000
00100000
00000000
00000000
00001000
00000000
00000000
00010000
00000000
00000100
00000000
00000000
,
00001000
00000000
00000000
00000001
00000000
00000010
00000000
00000000
00000001
00000000
00000000
00001000
00000000
00000010
00000000
00000000
,
00010000
00000000
00000000
00001000
00000000
01000000
00000000
00000000
00010000
00000000
00000000
10000000
00000000
01000000
00000000
00000000
,
00010000
00001000
00010000
00000000
00000010
00001000
00000010
00000000
00001000
00000100
00000010
00001000
00010000
00000010
00000100
00001000
,
00000100
00000001
00000100
00000001
00001000
00000100
00000001
00000000
,
00000100
00001000
00000100
00001000
00000001
00000100
00001000
00000000
,
00000100
00000010
00000100
00000010
00000100
00001000
00010000
00000000
,
00100000
01000000
00100000
01000000
00100000
00010000
00001000
00000000
,
00100000
00001000
00010000
00100000
00010000
00001000
00100000
01000000
,
00010000
00001000
00100000
00001000
00010000
00100000
00010000
00001000
,
00010000
00000100
00000010
00000100
00001000
00000010
00000100
00001000
,
00010000
00001000
00100000
00001000
00010000
00001000
00020000
00000000
,
00030100
00000000
00001000
00000000
00000000
00001000
00000200
00000000
00000000
00000301
00000000
00000100
00001000
00000000
00001000
00000100
00000000
00000100
00001000
00000010
00001000
00000010
00000000
00010000
,
00001000
00000000
00010000
00000000
00000000
00010000
00002000
00000000
00000000
01003000
00000000
00010000
00100000
00000000
01000000
00100000
00000000
00010000
00200000
00000000
00000000
00000000
00000000
00000000
,
00310000
01000000
00010000
00001000
00200000
00000000
00000000
00000000
00310000
00001000
00100000
00010000
00200000
00000000
00000000
00000000
,
01300000
00000000
00000000
10000000
00000000
00000000
01000000
00000000
00000000
00010000
00000000
00000000
01000000
00000000
10000000
02000000
00000000
00000000
03100000
00000000
00010000
00200000
00000000
00000000
,
01300000
00000000
00010000
00000000
00000000
00010000
02000000
00000000
00000000
03100000
00000000
00010000
01000000
00100000
01000000
00100000
00000000
10000000
00100000
00000000
00000000
00010000
00000000
00010000
,
00001000
00000000
00010000
00000000
00000000
00010000
00002000
00000000
00000000
00013000
00000000
00000000
00000100
00001000
00000100
00000010
00000100
00001000
00000010
00000000
00000000
00000001
00000000
00000001
,
00000010
00000100
00001000
00010000
00000200
00000000
00000000
00000310
00001000
00010000
00001000
00000010
00000200
00000000
00000000
00001300
,
00000200
00000000
00002300
00000000
02003000
03020000
02030000
00000000
,
03100000
00000000
00010000
00000000
00000000
00010000
02000000
00000000
00000000
13000000
00000000
01000000
00010000
00000000
00010000
01000000
00000000
01000000
00010000
00100000
00010000
00100000
00000000
00001000
,
00010000
00000000
00001000
00000000
00000000
00001000
00020000
00000000
00000000
00030100
00000000
00001000
00000010
00000000
00000100
00000010
00000000
00001000
00000020
00000000
00000000
00000000
00000000
00000000
,
00001030
00000100
00001000
00010000
00000020
00000000
00000000
00000000
00001030
00010000
00000010
00001000
00000020
00000000
00000000
00000000
,
00000130
00000000
00000000
00000001
00000000
00000000
00000100
00000000
00000000
00001000
00000000
00000000
00000100
00000000
00000001
00000200
00000000
00000000
00000310
00000000
00001000
00000020
00000000
00000000
,
00000130
00000000
00001000
00000000
00000000
00001000
00000200
00000000
00000000
00000310
00000000
00001000
00000100
00000010
00000100
00000010
00000000
00000001
00000010
00000000
00000000
00001000
00000000
00001000
,
00010000
00000000
00001000
00000000
00000000
00001000
00020000
00000000
00000000
00031000
00000000
00000000
01000000
00010000
01000000
00100000
01000000
00010000
00100000
00000000
00000000
10000000
00000000
10000000
,
00100000
01000000
00010000
00001000
02000000
00000000
00000000
03100000
00010000
00001000
00010000
00100000
02000000
00000000
00000000
03010000
,
02000000
00000000
03020000
00000000
00030200
00002300
00003200
00000000
,
00000310
00000000
00000100
00000000
00000010
00000000
00000100
00000000
00000010
00000100
00000010
00000100
00000010
00000000
00001000
00000000
,
00000100
00000000
00001000
00000000
00000100
00000000
00001000
00000000
00000100
00001000
00000100
00001000
00000100
00000000
00010000
00000000
,
00001000
00000000
00010000
00000000
00001000
00000000
00010000
00000000
00001000
00010000
00001000
00010000
00001000
00000000
00100000
00000000
,
00010000
00000000
00100000
00000000
00010000
00000000
00100000
00000000
00010000
00100000
00010000
00100000
00010000
00000000
01000000
00000000
,
00100000
10000000
00100000
10000000
00010000
01000000
00010000
00000000
00010000
01000000
00010000
01000000
00001000
00010000
00001000
00000000
,
00000100
00001000
00000100
00001000
00000010
00000100
00000010
00000000
00000100
00000001
00000100
00000001
00000010
00000100
00000010
00000000
,
00001000
00000010
00000001
00000000
00001000
00000010
00000001
00000000
00000001
00000010
00001000
00000000
00000001
00000010
00001000
00000000
,
00010000
00001000
00100000
00001000
00010000
00000100
00010000
00001000
00010000
00000000
00001000
00000000
00100000
00010000
00100000
00010000
,
10000000
01000000
00010000
01000000
10000000
01000000
10000000
01000000
,
00010000
00001000
00000010
00001000
00000010
00000001
00000010
00000001
,
00000010
00001000
00010000
01000000
10000000
01000000
10000000
01000000
,
00010000
00000000
00001000
00000000
00000010
00000000
00001000
00000000
00010000
00001000
01000000
00000000
00010000
10000000
00010000
00100000
,
01000000
10000000
01000000
10000000
00010000
01000000
10000000
00000000
,
01000000
00010000
01000000
00010000
10000000
01000000
00010000
00000000
,
01000000
00100000
01000000
00100000
01000000
00010000
00001000
00000000
,
00000010
00000100
00000010
00000100
00000010
00001000
00010000
00000000
,
00000010
00010000
00001000
00000010
00001000
00010000
00000010
00000100
,
00001000
00010000
00000010
00010000
00001000
00000010
00001000
00010000
,
00001000
01000000
00100000
01000000
00010000
00100000
01000000
00010000
,
00001000
00010000
00000100
00010000
00001000
00010000
00002000
00000000
,
00013000
00001000
00010000
00001000
00010000
00000100
00010000
00000100
,
00001000
00000000
00000100
00000000
00001000
00000000
00000100
00000000
00000010
00000000
00000100
00000000
00000010
00000001
00000010
00000000
,
00000010
00000100
00000010
00000100
00001000
00000100
00001000
00000100
,
00010000
00000000
00001000
00000000
00010000
00000000
00001000
00000000
00100000
00000000
00010000
00000000
01000000
00010000
01000000
00000000
,
01000000
00100000
01000000
00100000
10000000
00100000
10000000
00100000
,
01000000
00000000
00010000
00000000
01000000
00000000
00010000
00000000
00100000
00000000
00001000
00000000
00010000
00001000
00010000
00000000
,
00000100
00001000
00000100
00001000
00000001
00000010
00000001
00000010
,
00000100
00001000
00000100
00000000
00000010
00000001
00000010
00000000
00000001
00000100
00000001
00000000
00001000
00000010
00001000
00000000
,
00000001
00000010
00000100
00000010
00001000
00010000
00001000
00010000
,
01000000
00000000
10000000
00000000
01000000
00000000
00010000
00000000
01000000
00000000
00100000
00000000
00010000
00100000
00010000
00000000
,
10000000
00100000
01000000
00100000
00010000
00001000
00010000
00001000
,
00000100
00000000
00000001
00000000
00000100
00000000
00001000
00000000
00000100
00000000
00000010
00000000
00001000
00000010
00001000
00000000
,
00000100
00010000
00001000
00100000
00010000
01000000
10000000
01000000
,
00010000
00100000
00001000
00010000
00000010
00001000
00000100
00000001
,
00000100
00000000
00001000
00000000
00000001
00001000
00000001
00000000
00000100
00000000
00001000
00000000
00010000
00001000
00010000
00000000
,
00001000
00000000
00100000
00000000
00010000
00100000
00010000
00000000
00100000
01000000
00100000
00000000
00001000
00000000
00000000
00000000
,
00020000
00000000
00000000
00000000
,
00000000
00000000
00000000
00000000
,
00000000
00000000
00000000
00000000
,
00030000
00000000
00000000
00000000
;

//---------------dance-single - ----------------
#NOTES:
     dance-single:
     :
     Challenge:
     18:
     0.959524,1.864688,0.158333,0.291667,1.191667,806.000000,787.000000,19.000000,35.000000,0.000000,0.000000,0.959524,1.864688,0.158333,0.291667,1.191667,806.000000,787.000000,19.000000,35.000000,0.000000,0.000000:
// measure 0
0000
0000
0000
0000
,  // measure 1
0000
0000
0000
0000
,  // measure 2
0000
0000
0000
0000
,  // measure 3
0000
0000
0000
0000
,  // measure 4
0000
0000
0000
0000
,  // measure 5
0110
0000
0000
0000
0000
0000
0000
0000
0000
0100
0000
0000
0000
0000
0000
0010
0000
0000
0000
0000
0000
0000
0000
0000
1000
0000
0010
0000
1000
0000
0000
0000
0000
0001
0000
0000
0010
0000
1000
0000
0010
0000
0000
0000
0000
0000
0000
0000
,  // measure 6
1001
0000
0000
0000
0000
0000
0000
0000
0000
1000
0000
0000
0000
0000
0000
0010
0000
0000
0000
0000
0000
0000
0000
0000
0100
0000
0010
0000
1000
0000
0000
0000
0000
0001
0000
0000
1000
0000
0010
0000
0100
0000
0000
0000
0000
0000
0000
0000
,  // measure 7
0010
0000
0000
1000
0000
0001
0000
0000
0101
0000
0000
0100
0000
0010
0000
0000
,  // measure 8
1000
0001
1000
0000
0001
0010
0001
0000
0010
0100
1000
0001
1000
0100
0010
0001
,  // measure 9
1000
0000
0010
0000
1000
0001
1000
0000
1000
0000
0100
0000
0011
0000
0000
0000
,  // measure 10
0100
0000
0010
0000
1000
0001
1000
0000
0010
0000
0100
0000
1001
0000
0000
0000
,  // measure 11
0100
0000
0010
0000
1000
0100
0010
0000
0001
0000
0100
0000
0001
0000
0000
0000
,  // measure 12
0010
0000
0100
0000
1000
0001
1000
0000
0100
0000
0010
0000
0001
0000
0000
0000
,  // measure 13
0100
0000
0010
0000
1000
0100
1000
0000
0100
0000
0010
0000
0001
0100
0001
0000
,  // measure 14
1000
0000
0000
0000
0000
0000
0010
0000
0000
0000
0000
0000
0100
0000
0000
0001
0000
0000
0100
0000
0000
0000
0000
0000
0010
0000
0000
0000
0000
0000
1000
0000
0000
0000
0000
0000
0100
0000
0000
0000
0010
0000
0000
0000
0001
0000
0000
0000
,  // measure 15
1000
0100
0010
0001
0010
1000
0001
0100
1000
0001
0010
1000
,  // measure 16
0010
0000
0001
0000
0010
0100
1000
0000
0010
0000
0100
0000
1001
0000
0000
0000
,  // measure 17
1000
0000
0010
0000
0000
0010
0200
0000
0000
0301
0000
0001
1000
0000
1000
0010
0000
0010
0100
0001
1000
0001
0100
0010
,  // measure 18
1000
0000
0100
0000
0000
0100
0020
0000
0000
0032
0000
0100
0013
0000
0010
1000
0000
1000
0200
0000
0000
0010
0000
0000
,  // measure 19
0310
0001
1000
0001
0100
0010
1000
0010
0200
0000
0000
0000
0000
0000
0000
0000
0310
1000
0100
1000
0001
0010
0001
0100
0020
0000
0000
0000
0000
0000
0000
0000
,  // measure 20
1030
0000
0000
0100
0000
0000
2000
0000
0000
0000
0000
0000
3020
0000
0000
0000
0000
0000
0230
0000
0000
0000
0000
0000
0301
0000
0000
0000
0001
0000
0010
0000
0000
0000
0010
0000
0001
0000
0000
0000
1000
0000
0200
0000
0000
0000
0000
0000
,  // measure 21
0310
0000
0001
0000
0000
0001
0200
0000
0000
0310
0000
0000
0010
1000
0100
0010
0000
0001
0100
0000
0000
0010
0000
0010
,  // measure 22
1000
0000
0100
0000
0000
0100
2000
0000
0000
3010
0100
0000
0001
0010
0100
1000
0100
0010
0001
0000
0000
0100
0000
0010
,  // measure 23
1000
0000
0001
0010
0100
1000
0001
0100
0002
0000
0000
0000
0000
0000
0103
0000
0010
0000
0010
0000
1000
0000
1000
0000
0002
0000
0000
0000
0000
0000
0103
0000
,  // measure 24
0020
0000
0000
0000
0000
0000
0030
0000
2001
0000
0000
0000
0000
0000
3000
0000
0002
0000
0000
0000
0023
0000
0000
0000
0130
1000
0100
1000
0000
0000
0000
0000
,  // measure 25
0001
0000
0010
0000
0000
0100
2000
0000
0000
3001
0000
0100
0010
0000
0010
1000
0000
1000
0100
0010
0100
0010
0000
0001
,  // measure 26
0100
0000
0010
0000
0000
0100
0002
0000
0000
1003
0000
0000
0010
0000
0100
0010
0000
1000
0002
0000
0000
0000
0000
0000
,  // measure 27
0103
0000
0010
1000
0001
1000
0010
0100
0002
0000
0000
0000
0000
0000
0000
0000
0103
0000
0010
1000
0100
1000
0001
0100
0020
0000
0000
0000
0000
0000
0000
0000
,  // measure 28
0130
0000
0000
0101
0000
0000
0011
0000
0000
1100
0000
0000
1001
0000
0001
0100
0000
0010
0100
0000
0001
2000
0000
0000
,  // measure 29
3010
0000
0200
0000
0000
0310
2000
0000
0000
0001
0000
0001
3100
0010
0100
0010
0000
1000
0001
0000
0000
0100
0000
0100
,  // measure 30
0010
0000
1000
0000
0010
0000
0200
0000
0000
0302
0000
0000
1003
0100
0001
0010
0001
0100
2000
0000
0000
3001
0000
0100
,  // measure 31
0010
0000
1000
0000
0000
0000
1000
0000
0001
0000
0100
0000
0001
0000
0000
0000
0100
0000
0010
1000
0010
1000
0010
0000
0200
0000
0000
0000
0000
0000
0301
0000
,  // measure 32
1000
0010
1000
0010
1000
0000
0010
0000
0100
0001
0100
0001
0100
0000
0000
0000
0001
0000
0010
0000
1000
0000
0010
0000
0001
0000
0100
0000
1000
0000
0000
0000
,  // measure 33
0100
0000
0001
0000
0010
0000
0001
0000
0100
0000
0010
0000
1000
0000
0010
0000
0100
0001
0100
0000
0010
0000
1000
0000
0001
0000
0010
0000
0001
0000
1000
0000
,  // measure 34
0100
0000
0010
0000
0001
0000
0010
0000
0000
0000
1000
0000
0010
0000
0001
0000
0100
0000
1000
0000
0100
0000
0010
0000
1000
0001
1000
0000
0100
0000
0000
0000
,  // measure 35
0010
0000
0001
0000
1000
0000
0000
0000
0010
0000
0100
0000
0001
0000
1000
0000
0010
1000
0010
0000
0100
0000
0001
0000
0011
0000
0010
0000
0100
0000
1000
0000
,  // measure 36
0001
0000
0010
0000
1000
0000
0010
0000
0001
0000
1000
0001
1000
0000
0100
0000
0010
0000
0001
0000
1000
0000
0010
0000
0200
0000
0000
0000
0302
0000
0000
0000
,  // measure 37
1003
0000
0010
0000
0100
0001
0100
0000
0010
0000
1000
0000
0001
0000
0000
0000
0100
0000
0010
0000
1000
0001
1000
0000
0001
0000
0100
0000
0010
0000
0000
0000
,  // measure 38
1000
0000
0100
0000
0010
0001
0010
0000
0001
0000
0100
0000
0010
0000
0000
0000
1000
0100
1000
0000
0100
0010
0100
0010
0001
0000
0100
0000
0001
0000
0000
0000
,  // measure 39
1000
0000
0010
0000
0100
0001
0100
0001
1000
0000
0001
0000
0100
0010
0100
0010
1000
0000
0001
0000
0100
0001
0100
0001
1000
0000
0100
0000
0010
0001
0010
0001
,  // measure 40
1000
0001
1000
0010
1000
0100
0010
0001
1000
0010
1000
0010
1000
0001
1000
0001
1000
0000
0100
0000
0001
0000
0010
0000
0001
0000
0100
0000
1000
0000
0001
0000
,  // measure 41
1001
1000
0010
0000
0101
0100
0010
1000
0010
0100
0001
0100
0020
0000
1030
0001
,  // measure 42
0100
0010
0100
0010
1000
0100
0010
0001
1000
0100
0010
0100
1000
0001
0100
0010
,  // measure 43
0100
0100
0010
1000
0001
0001
0010
1000
0010
0001
0100
1000
0100
0001
1000
0010
,  // measure 44
1000
0000
0001
0000
0100
0000
0010
0000
0100
0001
0010
0000
0100
0000
1000
0000
0001
0000
0010
0000
0100
0000
1000
0000
0100
0000
0001
0000
0010
0000
0001
0000
,  // measure 45
1100
0000
0100
0000
0001
0100
1000
0000
0001
0000
0010
0000
0001
0000
0000
0000
,  // measure 46
0100
0000
0010
0000
1000
0010
0001
0000
0010
0000
1000
0000
0001
0000
0000
0000
,  // measure 47
0100
0000
0010
0000
1000
0001
1000
0000
0001
0000
0100
0000
0010
0000
0000
0000
,  // measure 48
1000
0000
0100
0000
0001
0100
0001
0000
0100
0000
1000
0000
0100
0000
0000
0000
,  // measure 49
0001
0000
0100
0000
1000
0010
1000
0000
0100
0000
0010
0000
0001
1000
0001
0000
,  // measure 50
0100
0000
0000
0000
0000
0000
0010
0000
0000
0000
0000
0000
1000
0000
0000
0100
0000
0000
1000
0000
0000
0000
0000
0000
0100
0000
0000
0000
0000
0000
0010
0000
0000
0000
0000
0000
0001
0000
0000
0000
0010
0000
0000
0000
1000
0000
0000
0000
,  // measure 51
0100
1000
0010
0001
0100
1000
0010
1000
0100
0001
0010
0100
,  // measure 52
1000
0000
0100
0000
0010
0001
0100
0000
0010
0000
0100
0000
1001
0000
0000
0000
,  // measure 53
1000
0100
1000
0000
0001
0010
0001
0000
,  // measure 54
0010
0100
0010
0000
0100
1000
0100
0000
,  // measure 55
1000
0001
1000
0000
0001
0010
0001
0000
,  // measure 56
0100
0010
0100
0000
0010
1000
0001
0000
,  // measure 57
1001
1000
0100
0100
,  // measure 58
0010
0010
0001
0001
,  // measure 59
0100
0100
0010
0010
,  // measure 60
1000
0100
1000
0100
0010
0000
0001
0000
,  // measure 61
0100
0010
1000
0000
0001
1000
0010
0000
,  // measure 62
1000
0001
1000
0000
0001
0010
0001
0000
,  // measure 63
0100
0010
0100
0000
0010
1000
0010
0000
,  // measure 64
1000
0100
1000
0000
0100
0010
0100
0000
,  // measure 65
0010
0001
0010
0000
0001
1000
0001
1000
,  // measure 66
0001
0000
0100
0010
0100
0000
0010
0000
,  // measure 67
1000
0000
1000
0100
0000
0000
0100
0010
,  // measure 68
0001
1000
0001
0100
0010
0000
1100
0000
,  // measure 69
0010
0001
0100
0010
,  // measure 70
1000
0010
0100
0001
,  // measure 71
0010
0100
1000
0010
,  // measure 72
0100
0001
0100
0000
0001
1000
0001
0000
,  // measure 73
1000
0100
1000
0000
0100
0010
0100
0000
,  // measure 74
0010
0001
0010
0001
0010
0000
0001
0000
,  // measure 75
0100
0010
1000
0100
,  // measure 76
0010
0001
0010
0001
1000
0010
1000
0000
,  // measure 77
0010
0100
0001
0010
,  // measure 78
0001
0000
1000
0000
0100
0010
0100
0000
,  // measure 79
0010
0001
0100
0010
,  // measure 80
1000
0000
0100
1000
0100
1000
0100
0000
,  // measure 81
1000
0000
0100
0000
0010
0100
0010
0100
,  // measure 82
0001
0000
0010
0000
1000
0010
0001
0100
,  // measure 83
0001
0010
0100
0010
0100
1000
0100
0000
,  // measure 84
1000
0100
0010
0000
0001
0000
0100
0000
,  // measure 85
2002
0000
0000
0000
,  // measure 86
0000
0000
0000
0000
,  // measure 87
0000
0000
0000
3003
;
