#TITLE:Pluto The First;
#SUBTITLE:;
#ARTIST:White Wall;
#TITLETRANSLIT:;
#SUBTITLETRANSLIT:;
#ARTISTTRANSLIT:;
#GENRE:;
#CREDIT:;
#BANNER:Pluto The First.png;
#BACKGROUND:Pluto The First-bg.png;
#LYRICSPATH:;
#CDTITLE:;
#MUSIC:Pluto The First.ogg;
#OFFSET:-0.009000;
#SAMPLESTART:0.000000;
#SAMPLELENGTH:12.000000;
#SELECTABLE:YES;
#DISPLAYBPM:100.000000:220.000000;
#BPMS:0.000000=115.000000
,48.000000=100.000000
,64.000000=200.000000
,108.000000=220.000000
,168.000000=110.000000
,184.000000=115.000000
,200.000000=220.000000
;
#STOPS:
;
#BGCHANGES:;
#KEYSOUNDS:;
#ATTACKS:;

//---------------dance-single - ----------------
#NOTES:
     dance-single:
     :
     Beginner:
     4:
     0.126764,0.190146,0.000000,0.000000,0.000000,91.000000,91.000000,0.000000,0.000000,0.000000,0.000000,0.126764,0.190146,0.000000,0.000000,0.000000,91.000000,91.000000,0.000000,0.000000,0.000000,0.000000:
0000
0000
0000
0000
,
0000
0000
0000
0000
,
0000
0000
0000
0000
,
0100
0000
0000
0100
,
0000
0000
0001
0000
,
0000
0001
0000
0000
,
1000
0000
0000
1000
,
0000
0000
0100
0000
,
0000
0010
0000
0000
,
0010
0000
0000
0010
,
0000
0000
0010
0000
,
0000
0010
0000
0000
,
1000
0001
0000
1000
,
0001
0000
0000
1000
,
0001
0000
0000
1000
,
0100
0000
1000
0100
,
1000
0000
0000
0000
,
0001
0000
0000
0000
,
1000
0000
0000
0000
,
0010
0000
0000
0000
,
1000
0000
0000
0000
,
0100
0000
0000
0000
,
1000
0000
0000
0000
,
0100
0000
0000
0000
,
0010
0000
0000
0000
,
0001
0000
0000
0000
,
1000
0000
0000
0000
,
0001
0000
0000
0000
,
1000
0000
0000
0000
,
0001
0000
0000
0000
,
1000
0000
0000
0000
,
0001
0000
0000
0000
,
1000
0000
0000
0000
,
0100
0000
0000
0000
,
1000
0000
0000
0000
,
0100
0000
0000
0000
,
0010
0000
0000
0000
,
0001
0000
0000
0000
,
1000
0000
0000
0000
,
0100
0000
0000
0000
,
1000
0000
0000
0000
,
0001
0000
0000
0000
,
1000
1000
0000
0001
,
0001
0000
0000
0100
,
0100
0000
0000
0010
,
0010
0000
1000
0000
,
0001
0001
0000
0100
,
0100
0000
0010
0010
,
0000
1000
1000
0000
,
0001
0001
0000
0100
,
0100
0000
0100
0000
,
0010
0000
0010
0000
,
1000
0000
1000
0000
,
0001
0000
0001
0000
,
1000
0000
1000
0000
,
0100
0000
0100
0000
,
0010
0000
0010
0000
,
0001
0000
0001
0000
,
1000
0000
0000
0000
,
0000
0000
0000
0000
,
0100
0000
0000
0000
,
1000
0000
0000
0000
,
0001
0000
0000
0000
,
1000
0000
0000
0000
,
0001
0000
0000
0000
,
1000
0000
0000
0000
;

//---------------dance-single - ----------------
#NOTES:
     dance-single:
     :
     Easy:
     8:
     0.323178,0.411982,0.039004,0.000000,0.000000,232.000000,228.000000,4.000000,0.000000,0.000000,0.000000,0.323178,0.411982,0.039004,0.000000,0.000000,232.000000,228.000000,4.000000,0.000000,0.000000,0.000000:
0000
0000
0000
0000
,
0000
0000
0000
0000
,
0000
0000
0000
0000
,
0001
0001
1000
0000
0000
0000
0010
0010
,
1000
0000
0000
0000
0100
0100
1000
0000
,
0001
0000
0000
0010
0000
0001
0000
0000
,
1000
0100
0000
1000
0000
0000
0010
0100
,
0010
0000
0000
0000
1000
0100
1000
0000
,
0000
0000
0001
0010
0001
0010
0000
0000
,
0100
1000
0100
0000
1000
0000
0001
0000
,
1000
0010
1000
0010
,
1000
0100
1000
0010
,
0100
0001
0100
0001
,
0010
0001
0010
0001
,
1000
0001
1000
0010
,
1000
0100
1000
0100
,
0010
0000
0010
0000
,
0001
0000
0001
0000
,
1000
0000
1000
0000
,
0100
0000
0100
0000
,
0010
0000
0010
0000
,
0001
0000
0001
0000
,
1000
0000
0001
0000
,
1000
0000
0001
0000
,
1000
0000
0010
0000
,
0100
0000
0001
0000
,
0010
0010
0010
0010
,
1000
0010
1000
0010
,
0100
0001
0100
0001
,
0010
0001
0010
0001
,
1000
0100
1000
0100
,
0010
0001
0010
0001
,
1000
0001
1000
0001
,
0100
0010
1000
0010
,
0100
0001
0010
0100
,
1000
0100
0010
0001
,
1000
0001
1000
0010
,
0100
0001
0010
0100
,
0000
1000
0100
0010
,
0001
0010
0100
1000
,
0001
0010
0001
0100
,
0010
1000
0010
1000
,
0100
0100
0010
0000
0001
1000
0001
0000
,
1000
0100
1000
0000
0010
0100
0001
0000
,
0010
0100
1000
0000
0100
0010
0001
0000
,
1000
0001
1000
0000
0010
0100
0010
0000
,
1000
0100
1000
0000
0001
0010
0001
0000
,
0100
0010
1000
0000
0010
0100
0001
0000
,
0000
0100
0010
1000
0000
0010
0000
0000
,
0100
0001
0010
0000
0001
1000
0100
0000
,
1000
0010
1000
0010
,
1000
0010
1000
0000
,
0001
0100
0001
0100
,
0001
0100
0001
0100
,
0000
1000
0010
1000
,
0010
1000
0010
0000
,
1000
0100
1000
0100
,
1000
0100
1000
0000
,
0001
1000
0001
1000
,
0001
1000
0001
1000
,
0000
1000
0000
0000
0000
0000
1000
0000
,
0000
1000
0000
1001
,
0000
1001
0000
0110
,
0000
0000
0000
1000
,
0000
0000
0001
0000
,
1001
0000
0000
0000
;

//---------------dance-single - ----------------
#NOTES:
     dance-single:
     :
     Medium:
     12:
     0.458300,0.633819,0.156017,0.009751,0.009751,329.000000,313.000000,16.000000,1.000000,0.000000,0.000000,0.458300,0.633819,0.156017,0.009751,0.009751,329.000000,313.000000,16.000000,1.000000,0.000000,0.000000:
// measure 0
0000
0000
0000
0000
,  // measure 1
0000
0000
0000
0000
,  // measure 2
0000
0000
0000
0000
,  // measure 3
1000
1000
0100
0100
0010
0010
0001
0001
,  // measure 4
1000
0001
0100
0010
1000
0010
0100
0001
,  // measure 5
0010
0001
1000
0100
1000
0100
1000
1000
,  // measure 6
1000
1000
1000
1000
1000
1000
0001
0001
,  // measure 7
0001
0001
0001
0001
0010
0010
0010
0010
,  // measure 8
0010
0010
0010
0010
0010
0010
0000
0000
,  // measure 9
0100
0100
1000
1000
0001
0010
0001
0010
,  // measure 10
0001
0100
0010
1000
0010
0100
0001
0010
,  // measure 11
0100
1000
0001
0010
0001
0100
0010
0100
,  // measure 12
0101
0000
1001
0000
1010
0000
1010
1010
,  // measure 13
1010
0000
0010
0000
0100
0000
0001
0010
,  // measure 14
0100
0000
1000
0000
0100
0000
0001
0100
,  // measure 15
1100
1100
0101
0101
,  // measure 16
1000
0000
0001
0000
1000
0001
1000
0000
,  // measure 17
0010
1000
0010
1000
0010
1000
0010
0000
,  // measure 18
1000
0100
1000
0100
,  // measure 19
0010
0000
0001
0000
0010
0001
0010
0000
,  // measure 20
0001
1000
0100
1000
,  // measure 21
0010
0100
0010
0000
0100
0001
0100
0000
,  // measure 22
0001
1000
0001
1000
,  // measure 23
0010
1000
0010
0000
0100
0000
0001
0000
,  // measure 24
0010
0100
1000
0100
,  // measure 25
0010
0001
1000
0001
,  // measure 26
1001
1010
0110
0101
,  // measure 27
0001
0010
0001
0000
1000
0000
0100
0000
,  // measure 28
1000
0000
0010
0100
0010
0000
1000
0000
,  // measure 29
0100
0010
0001
0100
,  // measure 30
0001
0010
0001
0010
,  // measure 31
0100
0010
0001
0010
,  // measure 32
1000
0000
0000
0001
,  // measure 33
1000
0001
1000
0010
,  // measure 34
0100
0010
0100
0001
,  // measure 35
0010
0001
0010
1000
,  // measure 36
0010
0001
0010
1000
,  // measure 37
0010
0001
0010
1000
,  // measure 38
0010
0000
0000
0000
,  // measure 39
0001
0100
1000
0100
,  // measure 40
0001
0100
1000
0100
,  // measure 41
0001
0100
1000
0010
,  // measure 42
0200
0000
0000
0000
0301
0000
0010
0001
0010
0100
0010
0000
0100
0000
1000
0000
,  // measure 43
0100
0010
0001
0010
0100
1000
0100
0000
,  // measure 44
0010
0001
1000
0001
0100
0010
1000
0010
,  // measure 45
0100
0001
0010
0001
1000
0001
1000
0100
,  // measure 46
1100
1000
0010
0010
1000
1000
0100
0010
,  // measure 47
0001
0010
1000
0010
0001
0010
1000
0000
,  // measure 48
0010
0000
0001
0000
0010
1000
0010
0001
,  // measure 49
0100
1000
0100
0001
0010
0100
1000
0001
,  // measure 50
0100
0010
0100
0010
0100
0000
0001
1000
,  // measure 51
0001
1000
0001
0000
1000
0000
0000
0000
,  // measure 52
0010
1000
0010
0000
,  // measure 53
1000
0100
1000
0000
,  // measure 54
0001
1000
0001
0000
,  // measure 55
1000
0010
1000
0010
,  // measure 56
1000
0100
1000
0100
,  // measure 57
1000
0100
0010
0001
,  // measure 58
1000
0001
1000
0001
,  // measure 59
1000
0001
1000
0001
,  // measure 60
0000
1000
0000
0010
,  // measure 61
0000
1000
0000
0001
,  // measure 62
0000
1000
0000
0001
,  // measure 63
0000
1000
0000
0000
0000
0000
0010
0000
,  // measure 64
0010
0000
1000
0000
0001
0000
1000
0001
,  // measure 65
1001
0000
0000
0000
;

//---------------dance-single - ----------------
#NOTES:
     dance-single:
     :
     Hard:
     14:
     0.732722,0.922572,0.253527,0.029253,0.355914,526.000000,500.000000,26.000000,3.000000,0.000000,0.000000,0.732722,0.922572,0.253527,0.029253,0.355914,526.000000,500.000000,26.000000,3.000000,0.000000,0.000000:
// measure 0
0000
0000
0000
0000
,  // measure 1
0000
0000
0000
0000
,  // measure 2
0000
0000
0000
0000
,  // measure 3
0011
0010
0100
0100
1000
1000
0001
0001
,  // measure 4
0100
0100
0010
0010
1000
1000
0001
0001
,  // measure 5
0100
0100
0110
0010
0010
1010
1000
1000
,  // measure 6
0001
0010
0001
0000
0100
0000
0010
1000
0010
0000
1000
0000
0100
0010
0100
0000
,  // measure 7
0010
0000
0001
0010
0001
0000
1000
0000
0001
1000
0001
0000
1000
0000
0100
1000
,  // measure 8
0100
0000
0010
0000
0001
0010
0001
0000
1000
0000
0001
1001
0000
0000
0000
0000
,  // measure 9
1000
0100
1000
0000
0001
0000
0100
0001
0100
0000
0010
0000
1000
0001
1000
0000
,  // measure 10
0001
0000
0100
0001
0100
0000
0010
0000
1000
0100
1000
0000
0001
0000
0010
0001
,  // measure 11
0010
0100
1100
1000
0001
0101
0100
0010
,  // measure 12
1010
0000
0000
1001
0000
0000
0101
0000
0000
0110
0000
0000
0010
0000
0010
0000
,  // measure 13
1001
0000
0000
1000
0000
0000
0100
0000
0000
0001
0000
0000
0100
0000
0100
0000
,  // measure 14
1010
0000
0000
1001
0000
0000
0101
0000
0000
0110
0000
0000
0010
0000
1000
0000
,  // measure 15
1001
0000
0000
0101
0000
0000
0110
0000
0000
1010
0000
0000
1000
0000
0010
0000
,  // measure 16
0100
0001
0010
0001
1000
0010
1000
0100
,  // measure 17
0001
0100
1000
0010
0100
0001
0100
0000
,  // measure 18
0001
1000
0010
0001
0010
1000
0001
0100
,  // measure 19
0001
0010
0001
1000
0010
1000
0001
0000
,  // measure 20
0100
0001
0010
0001
1000
0010
0100
0010
,  // measure 21
1000
0001
0100
0001
0010
0001
0100
0000
,  // measure 22
0010
1000
0010
1000
0001
0100
0001
0100
,  // measure 23
0010
1000
0100
0010
0001
1000
0001
0000
,  // measure 24
0100
0001
0010
1000
0010
0001
0100
0000
,  // measure 25
0010
1000
0100
1000
0001
0010
0001
0100
,  // measure 26
0101
1001
1010
0110
,  // measure 27
0100
0001
0010
0100
0010
0001
0100
1000
,  // measure 28
0100
0001
1000
0010
0100
0010
1000
0100
,  // measure 29
0010
0001
1000
1001
0000
0000
0001
0010
,  // measure 30
1000
0010
0100
1000
0001
0010
0100
0001
,  // measure 31
0100
0010
0001
0100
0010
0100
1000
0100
,  // measure 32
0010
0100
0001
0000
0000
0000
1000
0100
,  // measure 33
0001
0100
1000
0100
0010
0100
0001
0100
,  // measure 34
0010
0100
0001
0100
0010
0100
1000
0010
,  // measure 35
0100
0010
0001
0010
0100
0010
0001
0010
,  // measure 36
0100
0001
1000
0001
0100
0010
1000
0010
,  // measure 37
0100
0001
0010
0100
1000
0001
1000
0020
,  // measure 38
0000
0030
0100
0001
0010
0001
1000
0000
,  // measure 39
0010
1000
0001
1000
0010
1000
0001
1000
,  // measure 40
0010
1000
0001
1000
0010
1000
0001
2000
,  // measure 41
0000
0000
0000
0000
,  // measure 42
3001
0100
0001
0010
0000
0000
0100
1000
0010
1000
0100
0010
0000
0001
0100
0001
,  // measure 43
0010
1000
0010
0001
0100
0000
0010
1000
0100
1000
0001
0010
0000
0001
0100
0010
,  // measure 44
1000
0010
0100
0001
0010
0000
0001
1000
0010
1000
0100
1000
0000
0010
0100
0001
,  // measure 45
0100
0010
1000
0100
1000
0000
0001
0010
0001
0100
0001
0010
0000
0001
0100
0000
,  // measure 46
0010
1000
0100
1000
0010
0000
1000
0100
0001
0100
1000
0000
0000
0010
0100
0001
,  // measure 47
0100
0010
1000
0100
1000
0000
0001
0100
1000
0100
0001
0010
0100
0000
1000
0001
,  // measure 48
0000
0000
1000
0001
0000
0000
0100
0001
0010
0001
1000
0010
1000
0100
0001
0100
,  // measure 49
1000
0010
0100
0001
0010
0000
0100
1000
0100
0010
0001
0000
1000
0001
1000
0010
,  // measure 50
0100
0001
1000
0001
0100
0010
1000
0001
,  // measure 51
1000
0010
0100
0001
0010
0000
0001
1000
,  // measure 52
0010
1000
0001
0100
0000
0110
0000
0000
,  // measure 53
1000
1000
0100
0010
0001
0101
0000
0010
,  // measure 54
1000
0001
1000
0010
0100
0001
0000
0000
,  // measure 55
0010
0001
0100
0010
1000
0000
0000
0001
,  // measure 56
1000
0100
1000
0010
0100
0001
0010
0100
,  // measure 57
1000
0001
1000
0000
1000
0001
0000
0000
,  // measure 58
0001
0100
0100
0000
0010
0100
0000
0000
,  // measure 59
0010
0001
0010
1000
0001
1000
0000
0000
,  // measure 60
1000
0010
1000
0010
1000
0001
1000
0001
,  // measure 61
1000
0010
1000
0010
1000
0010
0001
0010
,  // measure 62
0001
0010
0100
0010
0100
0001
0100
0001
,  // measure 63
0100
0000
0001
0010
0100
1000
0100
0010
,  // measure 64
0001
1000
0000
1000
0001
0010
0001
0100
,  // measure 65
0020
0030
0000
0000
;

//---------------dance-single - ----------------
#NOTES:
     dance-single:
     :
     Challenge:
     17:
     0.962568,1.049823,0.741080,0.078008,0.867844,691.000000,615.000000,76.000000,8.000000,0.000000,0.000000,0.962568,1.049823,0.741080,0.078008,0.867844,691.000000,615.000000,76.000000,8.000000,0.000000,0.000000:
// measure 0
0000
0000
0000
0000
,  // measure 1
0000
0000
0000
0000
,  // measure 2
0000
0000
0000
0000
,  // measure 3
1100
0110
0011
0110
1100
1001
0011
0110
,  // measure 4
1100
0110
0011
1000
1001
1010
0011
1010
,  // measure 5
1001
0100
0110
0101
1001
1010
0110
0100
,  // measure 6
0001
1000
0010
0000
0110
0000
0100
0001
1000
0000
1100
0000
0100
0010
0001
0000
,  // measure 7
0101
0000
0100
0010
1000
0000
1001
0000
0001
0100
1000
0000
1100
0000
1000
0100
,  // measure 8
0001
0000
0110
0000
0100
0001
1000
0000
1001
0000
0001
1001
0000
0000
0000
0000
,  // measure 9
1000
0100
0010
0001
0100
0010
0100
0001
0100
0010
1000
0000
1000
0001
0010
0100
,  // measure 10
0001
0100
1000
0010
0001
0000
0011
0000
1000
0100
1000
0100
0010
0001
0100
0010
,  // measure 11
0100
0010
0100
0000
0101
0000
0011
0000
0110
0000
1100
0000
1001
0000
0101
0000
,  // measure 12
0110
0000
0000
1010
0000
0000
1001
0000
0000
0101
0000
0000
0110
0000
0110
0000
,  // measure 13
1001
0000
0000
1100
0000
0000
0101
0000
0000
0011
0000
0000
1010
0000
1100
0000
,  // measure 14
1001
0000
0001
0110
0000
0000
1001
0000
1000
0110
0000
0000
1010
0000
1100
0000
,  // measure 15
1001
0000
0100
0101
0000
0000
0011
0000
0100
0000
1000
0000
0001
0100
1000
0010
,  // measure 16
0001
0010
0100
0000
0010
0000
1000
0000
0010
0000
0001
0000
1000
0100
1000
0000
,  // measure 17
0100
0010
0100
0000
0010
0001
0010
0000
1000
0100
1000
0000
0001
0100
0001
0000
,  // measure 18
0010
0000
0100
0000
0001
0000
0100
0000
1000
0000
0010
0000
1000
0100
1000
0000
,  // measure 19
0001
1000
0001
0000
0100
0000
0010
0000
1000
0100
1000
0000
0100
0000
0010
0000
,  // measure 20
1000
0000
0010
0000
0001
0000
1000
0000
0001
0100
0000
0100
0001
0000
1000
0000
,  // measure 21
0010
1000
0001
1000
0001
0000
0010
0000
0001
0100
0001
0100
0010
0000
0000
0000
,  // measure 22
1000
0000
0001
0000
0010
0000
0001
0000
0100
0000
0010
0000
1000
0100
1000
0001
,  // measure 23
0010
0001
1000
0000
0100
0000
0010
0000
0001
1000
0001
1000
0001
0000
0000
0000
,  // measure 24
0100
0001
0100
0001
0010
0000
0100
0000
1000
0001
1000
0001
0100
0000
0000
0000
,  // measure 25
0010
0100
0001
1000
0001
0010
0001
0100
,  // measure 26
0101
1010
0110
1001
,  // measure 27
0100
0001
0100
0000
0010
0000
1000
0000
0001
0000
0010
0000
0100
1000
0100
0000
,  // measure 28
0001
0100
1000
0001
0100
0001
1000
0100
,  // measure 29
0010
0000
0001
0000
1000
0000
2002
0000
0000
0000
3003
0000
0001
0010
0001
0000
,  // measure 30
0100
0000
0010
0000
1000
0000
0100
0000
1000
0010
0100
0000
0001
0000
1000
0000
,  // measure 31
0001
0100
0010
0000
0100
0000
0001
0000
1000
0000
0010
0000
0100
0000
0001
0000
,  // measure 32
0010
0100
1000
0000
0000
0000
0001
0010
,  // measure 33
1000
0000
0010
0000
0001
0100
0010
0000
1000
0000
0100
0000
1000
0010
0100
0000
,  // measure 34
0010
0000
0100
0001
1000
0000
0100
0000
0010
0100
1000
0100
1000
0000
0010
0000
,  // measure 35
0100
0001
0010
0000
0001
0000
0010
0000
0100
1000
0010
0000
0001
0000
0010
0000
,  // measure 36
0100
0001
1000
0001
1000
0000
0001
0000
0100
0010
1000
0010
1000
0000
0010
0000
,  // measure 37
0100
0001
0010
0100
1000
0001
1000
0020
,  // measure 38
0000
0000
0030
0000
0100
0000
0010
0000
1000
0100
1000
0000
0001
0000
0010
0000
,  // measure 39
0001
0100
0010
1000
0100
1000
0001
0010
,  // measure 40
0100
1000
0001
0100
0010
1000
1001
2001
,  // measure 41
0000
0000
0000
0000
,  // measure 42
3001
0100
0001
0100
0001
0100
0001
0000
0000
0000
0000
0000
0010
0000
1000
0000
0001
0000
1000
0000
0100
0000
0110
0000
0000
0000
0001
0000
0100
0000
0001
0000
,  // measure 43
0010
1000
0010
0001
0101
0000
0010
1000
0100
1000
0001
0010
0000
0001
0100
0010
,  // measure 44
1000
0010
0100
0001
0010
0000
0001
1000
0010
1000
0100
1100
0000
0010
0100
0001
,  // measure 45
0010
0100
1000
0010
0100
0000
0010
1000
0100
1000
0001
0011
0000
0101
0101
0000
,  // measure 46
0010
1000
0100
1000
0002
0000
1003
0010
0001
0010
1000
0100
0000
0010
0001
0010
,  // measure 47
0100
0010
0100
1000
0001
0000
0001
0100
1000
0100
0001
0010
0100
0000
1000
1001
,  // measure 48
0000
0000
0100
0110
0000
0000
0100
0001
1000
0001
0100
0010
0100
0001
0010
0001
,  // measure 49
1000
0010
0100
0001
0010
0000
0100
1000
0100
0010
0001
0000
1000
0001
1000
0010
,  // measure 50
0100
0001
0100
0001
1000
0000
0001
0000
1000
0010
0100
0000
0001
0000
1000
0000
,  // measure 51
0010
0100
0001
0000
0100
0000
0001
0010
0001
0000
0000
0000
1000
0000
0100
0000
,  // measure 52
0010
0001
0100
0001
0100
0000
0010
0000
0000
0000
0220
0000
0000
0000
0330
0000
,  // measure 53
1000
0001
1000
0001
0100
0001
0100
0001
1000
0100
1000
0000
0000
0000
0010
0000
,  // measure 54
0100
0001
0100
0001
1000
0000
0010
0000
1000
0001
1000
0001
0100
0000
0000
0000
,  // measure 55
0001
0100
0010
0100
0001
0100
0010
0100
0001
0000
0000
0000
0000
0000
0001
0000
,  // measure 56
1000
0100
1000
0100
0010
0001
0010
0001
0100
0010
0100
0010
1000
0000
0100
0000
,  // measure 57
1000
0001
0010
0001
0010
0000
0000
0000
0100
0000
1001
0000
0000
0000
0000
0000
,  // measure 58
0100
0001
0100
0001
0010
0001
0010
0000
0001
0000
1100
0000
0000
0000
0000
0000
,  // measure 59
0010
0001
0010
0000
0100
0000
1000
0010
1000
0000
1001
0000
0000
0000
0000
0000
,  // measure 60
0010
1000
0010
1000
0010
0000
1000
0000
0001
0100
0001
0100
0001
0000
0100
0000
,  // measure 61
0010
0100
0010
0100
0010
0000
1000
0000
0010
1000
0010
1000
0010
0000
0100
0000
,  // measure 62
0001
0000
0010
0000
0100
1000
0100
1000
0100
1000
0001
0010
0001
0010
0001
0010
,  // measure 63
0001
0000
1000
0000
1000
0000
0100
0000
0001
0000
0100
0000
0010
0100
0010
0000
,  // measure 64
0001
1000
0001
0000
0000
0000
1000
0000
0001
0000
0010
0000
0001
0100
0001
0100
,  // measure 65
0020
0030
0000
0000
;
