#TITLE:Parodia Sonatina Var.II;
#SUBTITLE:;
#ARTIST:ICE;
#TITLETRANSLIT:F;
#SUBTITLETRANSLIT:;
#ARTISTTRANSLIT:;
#GENRE:;
#CREDIT:;
#BANNER:Parodia Sonatina Var.II.png;
#BACKGROUND:Parodia Sonatina Var.II-bg.png;
#LYRICSPATH:;
#CDTITLE:;
#MUSIC:Deemo-Parodia Sonatina Var.ll.ogg;
#OFFSET:-3.700000;
#SAMPLESTART:94.057098;
#SAMPLELENGTH:15.000000;
#SELECTABLE:YES;
#BPMS:0.000000=170.000000
;
#STOPS:
;
#BGCHANGES:;
#KEYSOUNDS:;
#ATTACKS:;

//---------------dance-single - ----------------
#NOTES:
     dance-single:
     :
     Beginner:
     4:
     0.170152,0.231530,0.000000,0.000000,0.000000,176.000000,176.000000,0.000000,0.000000,0.000000,0.000000,0.170152,0.231530,0.000000,0.000000,0.000000,176.000000,176.000000,0.000000,0.000000,0.000000,0.000000:
0000
0000
0000
0000
,
1000
0000
0000
0000
,
0000
0000
0000
0000
,
1000
0000
0000
0000
,
0010
0000
0000
0000
,
1000
0000
0000
0000
,
0001
0000
0000
0000
,
1000
0000
0000
0000
,
0100
0000
0000
0000
,
1000
1000
1000
0000
,
0010
0010
0010
0000
,
0100
0000
0100
0100
,
0100
0000
0001
0000
,
1000
0000
0001
0001
,
0001
0000
0000
0000
,
1000
0000
0010
0000
,
1000
1000
1000
0000
,
0001
0100
0001
0000
,
0010
0100
0010
0000
,
0100
0000
0100
0000
,
1000
0000
1000
0000
,
0001
0000
0001
0000
,
0010
0000
0010
0000
,
0001
0000
1000
0000
,
0001
0000
0000
0000
,
1000
0000
0100
0000
,
1000
0000
0010
0000
,
0100
0000
0010
0000
,
1000
0000
0001
0000
,
1000
0000
1000
0000
,
0001
0000
0001
0000
,
0100
0000
0100
0000
,
0010
0000
0010
0000
,
1000
0000
1000
0000
,
0001
0000
0001
0000
,
0100
0000
0100
0000
,
0010
0000
0010
0000
,
1000
0000
1000
0000
,
0001
0000
0001
0000
,
0100
0000
0100
0000
,
0001
0000
0001
0000
,
1000
0000
1000
0000
,
0010
0000
0010
0000
,
1000
0000
1000
0000
,
0001
0000
0001
0000
,
1000
0000
0000
0000
,
0010
0000
0000
0000
,
0100
0000
0000
0000
,
0001
0000
0000
0000
,
1000
0000
0000
0000
,
0001
0000
0000
0000
,
1000
0000
0000
0000
,
0010
0000
0000
0000
,
0100
0000
0000
0000
,
0001
0000
0000
0000
,
0100
0000
0000
0000
,
0010
0000
0000
0000
,
1000
0000
0000
0000
,
0001
0000
0000
0000
,
1000
0000
0000
0000
,
0100
0000
0000
0000
,
0010
0000
0000
0000
,
0001
0000
1000
0000
,
0001
0000
0000
0000
,
0100
0000
0000
0000
,
0010
0000
0000
0000
,
0100
0000
0000
0000
,
0001
0000
0000
0000
,
1000
0000
0000
0000
,
0001
0000
0000
0000
,
1000
0000
0000
0000
,
0001
0000
0000
0000
,
0010
0000
0000
0000
,
0010
0000
0000
0000
,
0001
1000
0001
0000
,
1000
0100
1000
0000
,
0010
0100
0010
0000
,
0100
0000
0001
0000
,
0010
0000
0100
0000
,
1000
0000
0001
0000
,
1000
0000
0001
0000
,
0010
0000
0100
0000
,
0010
0000
0001
0000
,
1000
0000
0001
0000
,
1000
0000
0100
0000
,
0010
0000
0001
0000
,
1000
0100
0010
0000
,
0001
0010
0100
0000
,
1000
0000
0001
0000
,
1000
0100
1000
0000
,
0010
0100
0010
0000
,
0100
0001
0100
0000
,
0001
1000
0001
0000
,
1000
0010
1000
0000
,
0010
0100
0010
0000
,
1000
0001
1000
0000
,
0001
0000
1000
0000
,
0001
1000
1000
0001
;

//---------------dance-single - ----------------
#NOTES:
     dance-single:
     :
     Easy:
     11:
     0.534625,0.595363,0.399277,0.000000,0.000000,553.000000,494.000000,59.000000,0.000000,0.000000,0.000000,0.534625,0.595363,0.399277,0.000000,0.000000,553.000000,494.000000,59.000000,0.000000,0.000000,0.000000:
// measure 0
0000
0000
0000
0000
,  // measure 1
0001
1000
0001
1000
,  // measure 2
0100
0010
0100
0000
0010
0000
0001
0000
,  // measure 3
1000
0000
0100
0000
,  // measure 4
1000
0100
1000
0000
,  // measure 5
0010
0100
0001
0100
,  // measure 6
0010
1000
0010
0000
1000
0100
1000
0000
,  // measure 7
0001
1000
0001
1000
,  // measure 8
0001
1000
0001
0000
1000
0001
1000
0000
,  // measure 9
0010
0000
0100
0000
0010
0100
0010
0000
,  // measure 10
0100
0010
0100
0000
0010
0000
1000
0000
,  // measure 11
1100
0000
0100
0000
0010
0001
0010
0000
,  // measure 12
0001
0010
0001
0000
0010
0001
0010
0000
,  // measure 13
0100
0010
0001
1000
,  // measure 14
1001
1000
0001
0100
,  // measure 15
0101
0000
0100
0010
0100
0000
0010
0000
,  // measure 16
1000
0100
1000
0100
1000
0000
0001
0000
,  // measure 17
0010
0001
0100
1000
,  // measure 18
0100
0001
0011
1010
,  // measure 19
0011
0001
0100
1000
,  // measure 20
0100
0101
0101
0101
,  // measure 21
0011
0011
0011
1010
,  // measure 22
1010
1010
0011
0101
,  // measure 23
0110
0000
1010
0000
1010
0000
1000
0010
,  // measure 24
0000
0100
0000
0010
1000
0000
0001
1000
,  // measure 25
0001
0000
0100
0000
0010
0000
1000
0010
,  // measure 26
0000
1000
0000
0010
1000
0010
1000
0000
,  // measure 27
0100
0000
0001
0000
0100
0000
1000
0100
,  // measure 28
0000
0001
0000
0100
1000
0000
1010
0000
,  // measure 29
0010
0000
0100
0000
0001
0000
0010
0001
,  // measure 30
0000
0010
0000
0010
0001
0000
0010
0000
,  // measure 31
0100
0000
1000
0000
0100
1000
0100
1000
,  // measure 32
0100
0000
0010
0001
0010
0000
0001
0000
,  // measure 33
1000
0100
1000
0000
0010
0100
0010
0000
,  // measure 34
0100
0001
0010
0001
,  // measure 35
1000
0100
1000
0010
,  // measure 36
0100
0001
0100
0000
0001
1000
0001
0000
,  // measure 37
1000
0010
0100
0001
,  // measure 38
0011
0011
0011
1100
,  // measure 39
1100
0001
0010
0001
,  // measure 40
1000
0001
1000
0000
0010
0100
0010
0000
,  // measure 41
1000
0100
1000
0000
0001
0010
0001
0000
,  // measure 42
0100
0010
0100
0000
0001
1000
0001
0000
,  // measure 43
1000
0100
0010
0001
,  // measure 44
1000
0100
1000
0100
1000
0100
1000
0000
,  // measure 45
0010
0100
0010
0100
0010
0100
0010
0000
,  // measure 46
0001
0010
0001
0010
0001
0010
0001
0010
,  // measure 47
0001
0000
1000
0100
,  // measure 48
1000
0100
0010
0001
,  // measure 49
0101
0010
0100
0010
,  // measure 50
0001
1000
0100
1000
,  // measure 51
0001
0010
0001
0100
,  // measure 52
0010
1000
0010
0100
,  // measure 53
0001
0010
0100
1000
,  // measure 54
0100
0010
0001
1000
,  // measure 55
1001
0000
0001
0100
0001
0000
0000
1000
,  // measure 56
0100
1000
0100
1000
0100
0000
0010
0000
,  // measure 57
0001
0000
0000
1000
0001
1000
0000
0010
,  // measure 58
0100
0010
0100
0000
0001
0000
1000
0000
,  // measure 59
0001
1000
0001
0000
1000
0010
1000
0000
,  // measure 60
0010
0100
0010
0100
0010
0000
1000
0000
,  // measure 61
0100
0010
0001
1000
,  // measure 62
0100
0010
0001
1000
0100
0010
0001
0000
,  // measure 63
1000
0001
1000
0001
,  // measure 64
0101
0000
0100
0010
1000
0000
0110
0000
,  // measure 65
0110
0110
0110
1001
,  // measure 66
1000
0001
1000
0000
0001
0100
0001
0000
,  // measure 67
0100
0010
1000
0000
0010
0100
0001
0000
,  // measure 68
0010
0100
1000
0000
0100
0010
0001
0000
,  // measure 69
0100
0010
0100
0000
0010
1000
0010
0000
,  // measure 70
1000
0100
1000
0000
0001
0100
0001
0000
,  // measure 71
1000
0010
1000
0000
0001
1000
0001
0000
,  // measure 72
0100
0000
0001
0000
1000
0000
0001
1000
,  // measure 73
0001
0000
1000
0010
1000
0000
0010
0100
,  // measure 74
0010
0000
0100
0001
0100
0000
0001
0010
,  // measure 75
0001
0000
0010
1000
0010
0000
0001
0000
,  // measure 76
0100
0000
1000
0100
0001
0000
0100
1000
,  // measure 77
0010
0000
0001
0010
1000
0000
0010
0001
,  // measure 78
0100
0000
1000
0100
0001
0000
0010
1000
,  // measure 79
0010
0001
0100
1000
0100
0001
0010
0000
,  // measure 80
1010
1010
0110
0110
,  // measure 81
0101
0101
0011
0110
,  // measure 82
1010
1100
0110
0011
,  // measure 83
1100
1010
0110
0101
,  // measure 84
0001
0010
0010
0000
1000
0010
0010
0000
,  // measure 85
0100
0010
0010
0000
0100
0001
0001
0000
,  // measure 86
1000
0001
1000
0001
1000
0001
1000
0001
,  // measure 87
1000
0010
0100
0010
,  // measure 88
1000
0100
1000
0000
0100
1000
0100
0000
,  // measure 89
0001
0010
0001
0010
0001
0010
0001
0010
,  // measure 90
0001
1000
0100
0010
,  // measure 91
0001
0100
0001
0100
0001
0100
0001
0000
,  // measure 92
1000
0010
1000
0010
1000
0010
1000
0010
,  // measure 93
1000
0010
1000
0010
1000
0010
1000
0010
,  // measure 94
1000
0000
0010
0100
0010
0000
0100
0001
,  // measure 95
0100
0000
0001
1000
0001
0000
1100
0000
,  // measure 96
1010
0110
0101
0110
,  // measure 97
1010
1010
0110
1001
;

//---------------dance-single - ----------------
#NOTES:
     dance-single:
     :
     Medium:
     1:
     0.000967,0.000338,0.000000,0.000000,0.000000,1.000000,1.000000,0.000000,0.000000,0.000000,0.000000,0.000967,0.000338,0.000000,0.000000,0.000000,1.000000,1.000000,0.000000,0.000000,0.000000,0.000000:
// measure 0
0000
0000
0000
0000
,  // measure 1
1000
0000
0000
0000
;

//---------------dance-single - ----------------
#NOTES:
     dance-single:
     :
     Hard:
     18:
     1.132091,1.097082,0.480486,0.290999,1.461761,1171.000000,1100.000000,71.000000,43.000000,0.000000,0.000000,1.132091,1.097082,0.480486,0.290999,1.461761,1171.000000,1100.000000,71.000000,43.000000,0.000000,0.000000:
// measure 0
0000
0000
0000
0000
,  // measure 1
0001
0010
0001
0010
0001
0000
0100
0000
0010
1000
0010
1000
0010
0000
0100
0000
,  // measure 2
0001
1000
0001
1000
0001
1000
0001
1000
0001
0100
0001
0100
0001
0100
0001
0100
,  // measure 3
0010
0000
0000
0000
0000
0000
1000
0010
0100
0000
0000
0000
0000
0000
0010
1000
,  // measure 4
0001
0000
1000
0000
0010
0100
0001
0010
0100
0010
0000
0001
1000
0100
1000
0100
,  // measure 5
0010
0001
0010
0001
0100
0010
0100
0010
1000
0100
0010
0100
1000
0001
1000
0001
,  // measure 6
0010
0100
0010
0100
1000
0001
1000
0001
0100
0010
0100
0010
1000
0001
1000
0001
,  // measure 7
0200
0000
0010
0000
0010
0000
0000
0000
0310
1000
0010
1000
0010
1000
0010
1000
,  // measure 8
0010
0100
0010
0100
0010
0100
0010
0100
0010
0001
0010
0001
0010
0001
0010
0001
,  // measure 9
0020
0000
0000
0000
0130
0000
0000
0000
1000
0100
1000
0100
1000
0100
1000
0100
,  // measure 10
0001
0100
0001
0100
0001
0100
0001
0100
1000
0010
1000
0010
1000
0010
1000
0010
,  // measure 11
0200
0000
0000
0000
0300
0000
0000
0000
0001
0010
0001
0010
0100
1000
0100
1000
,  // measure 12
0001
0100
0001
0100
1000
0100
1000
0100
0001
0010
0001
0010
0100
1000
0100
1000
,  // measure 13
0001
0000
0000
0001
1000
0100
0010
0001
1000
0100
0010
0001
1000
0100
0010
0000
,  // measure 14
0001
0100
0010
1000
0001
0100
0010
1000
0001
0100
0001
0100
0010
1000
0010
1000
,  // measure 15
0002
0000
0000
0000
1003
0010
0001
0010
2000
0000
0000
0000
3000
0000
0001
0100
,  // measure 16
1000
0000
0100
0000
0001
0010
0001
0010
0100
0000
1100
0000
1000
0000
0010
0100
,  // measure 17
0001
0100
0010
1000
0010
0000
0100
0000
0001
0010
0100
1000
0100
0010
0001
0000
,  // measure 18
1000
0100
0010
0001
0010
0100
1000
0010
0100
0001
1000
0010
0100
0001
1000
0001
,  // measure 19
0100
0010
1000
0010
0100
0010
1000
0000
0001
0100
0010
0100
0001
0100
0010
0000
,  // measure 20
1000
0001
0100
0001
1000
0001
0100
0000
0010
1000
0100
1000
0001
1000
0010
0000
,  // measure 21
0100
0001
0010
0001
1000
0001
0010
0000
0100
1000
0001
1000
0010
1000
0001
0000
,  // measure 22
0010
0100
1000
0100
0010
0001
0100
0000
0110
0000
0110
0000
1001
0000
0000
0000
,  // measure 23
1100
0000
0110
0000
0011
0000
0101
0101
,  // measure 24
0000
0000
0110
0000
0000
0000
1010
0000
1000
0100
0010
0001
1000
0100
0010
0001
,  // measure 25
0100
0000
0110
0000
1010
0000
1100
1100
,  // measure 26
0000
0000
0110
0000
0000
0000
0011
0000
0001
0100
0001
0100
0010
1000
0010
1000
,  // measure 27
0001
0000
0101
0000
0110
0000
1010
1010
,  // measure 28
0000
0000
1100
0000
0000
0000
0110
0000
0010
0001
0100
0010
1000
0001
0100
0010
,  // measure 29
1000
0000
1001
0000
0101
0000
0110
0110
,  // measure 30
0000
1100
0000
1001
0202
0000
0303
0000
,  // measure 31
2002
0000
0000
0000
3003
0000
0100
0010
1000
0000
0010
0000
0100
0000
0001
0000
,  // measure 32
0010
0000
0000
0000
0100
0010
0001
0010
0100
0000
1000
0000
0001
0000
1000
0000
,  // measure 33
0200
0000
0000
0000
0300
0000
0010
0001
0200
0000
0000
0000
0300
0000
0010
1000
,  // measure 34
0100
0000
0010
0000
0100
0000
1000
0000
0001
0100
0001
0100
0010
1000
0010
1000
,  // measure 35
0001
0010
0100
1000
0001
0010
1000
0010
0001
0100
1000
0100
0001
0010
0100
1000
,  // measure 36
0001
0000
0000
0100
0010
1000
0010
0100
0001
0000
0010
0000
0100
0000
1000
0000
,  // measure 37
1001
0000
0000
0000
0000
0000
0001
0100
0110
0000
0000
0000
0000
0000
1000
0010
,  // measure 38
0001
0010
1000
0100
0001
0100
1000
0010
0100
0001
0010
0001
1000
0010
0100
0001
,  // measure 39
0020
0000
0000
0100
1030
0000
0001
1000
0200
0000
0000
0010
0301
0000
0100
0010
,  // measure 40
2000
0000
0000
0001
3100
0000
0000
0000
0010
1000
0100
0010
0001
0010
0100
1000
,  // measure 41
0002
0000
0000
0100
0013
0000
1000
0100
0020
0000
0000
0001
0130
0000
0010
1000
,  // measure 42
0200
0000
0000
1000
0310
0000
0100
0001
0100
0010
1000
0010
0100
0001
0010
0100
,  // measure 43
1000
0001
1000
0001
1000
0001
1000
0001
1000
0010
1000
0010
1000
0010
1000
0010
,  // measure 44
0100
0001
0100
0001
0100
0001
0100
0001
0100
0010
0100
0010
0100
0000
0010
1000
,  // measure 45
0200
0000
0000
0000
0300
0010
0001
0000
1000
0000
0100
0000
1000
0001
0100
0001
,  // measure 46
1000
0010
0100
0010
1000
0001
0010
0001
0100
0010
1000
0010
0100
0001
0010
0100
,  // measure 47
2000
0000
3001
0101
,  // measure 48
0110
1010
1100
0110
,  // measure 49
0010
0000
0000
0000
0001
0000
0000
0000
0100
0000
0000
0000
0010
0000
0000
1000
0000
0000
0100
0000
0000
1000
0000
0000
0001
0000
0000
0010
0000
0000
0001
0000
0000
0100
0000
0000
0010
0000
0000
1000
0000
0000
0010
0000
0000
0000
0000
0000
,  // measure 50
0100
0001
0010
0001
1000
0100
1000
0010
0100
0001
0010
0001
0100
0010
1000
0100
,  // measure 51
0010
0001
0010
0001
0100
0010
0100
0010
1000
0100
1000
0100
0010
0001
0100
0000
,  // measure 52
0010
1000
0001
1000
0010
0100
0001
0100
0010
1000
0100
0010
0001
1000
0001
0000
,  // measure 53
0100
0000
0010
1000
0010
0100
0001
0000
0010
0100
0010
0001
1000
0010
1000
0001
,  // measure 54
0100
0010
0100
0001
1000
0100
0010
0001
1000
0100
0010
0001
1000
0100
0010
0001
,  // measure 55
2002
0000
0000
0000
3003
0000
0001
0100
0020
0000
0000
0000
0030
0000
1000
0100
,  // measure 56
0001
0000
0100
1000
0010
0000
0100
0000
0001
0000
0010
0001
0100
0010
1000
0001
,  // measure 57
0200
0000
0000
0000
0300
0000
0010
1000
0002
0000
0000
0000
0003
0000
0001
0100
,  // measure 58
1000
0000
0100
0001
0010
0000
1000
0000
0010
0001
0100
0010
1000
0001
0100
0010
,  // measure 59
2020
0000
0000
0000
3030
0000
1000
0100
0002
0000
0000
0000
0003
0000
0001
0010
,  // measure 60
1000
0000
0010
0001
0100
0000
0010
0000
1000
0000
0100
1000
0100
0010
0001
0010
,  // measure 61
0100
0000
1000
0001
1000
0000
0001
0100
0001
0000
0100
0010
0100
0000
0010
1000
,  // measure 62
0010
0100
0001
1000
0001
0100
0010
1000
0100
1000
0001
0010
0001
0100
0010
1000
,  // measure 63
0001
0010
0100
1000
0100
0010
0001
0010
0100
1000
0100
0010
0001
0010
0100
1000
,  // measure 64
0001
0000
0000
0100
0000
0000
0100
0010
2000
0000
0000
0000
3000
0000
0010
0100
,  // measure 65
0002
0000
0010
0000
0103
1000
0001
1000
0020
0000
0000
0000
0030
0000
0100
0001
,  // measure 66
0010
0000
0000
0000
0100
1000
0100
0010
0002
0000
0000
0000
1003
0010
1000
0010
,  // measure 67
0100
0001
0010
0001
1000
0010
0100
0010
1000
0000
0001
0100
0001
0000
0000
0000
,  // measure 68
0011
0000
0010
0000
0100
1000
0001
0000
0101
0000
0100
0000
0010
1000
0100
1000
,  // measure 69
0001
0000
0101
0000
0100
0010
1000
0001
1000
0000
0000
0000
0001
0100
0010
0000
,  // measure 70
0100
0000
0001
0010
0100
0010
0001
0000
1000
0000
0010
0100
0001
0100
0010
0000
,  // measure 71
1000
0100
0010
0001
0010
0001
0010
0100
1000
0000
1001
0000
1001
0000
0001
0100
,  // measure 72
0020
0000
0000
0000
1030
0000
0001
0010
0100
0000
0010
0000
0001
0000
1000
0000
,  // measure 73
0001
0100
0001
0100
0010
1000
0010
1000
0100
0010
0001
1000
0001
0100
0010
0100
,  // measure 74
0001
0000
1000
0001
1000
0000
0100
0000
0010
0000
0100
0001
0100
0000
0010
0000
,  // measure 75
0001
0100
0001
1000
0010
0100
0001
0010
0200
0000
1300
0001
0010
0001
0100
0010
,  // measure 76
1000
0100
1000
0001
0010
0001
0100
0000
0010
1000
0100
1000
0001
0010
0001
0000
,  // measure 77
0100
0010
1000
0001
1000
0010
0100
0000
0001
0010
0100
1000
0100
0010
0001
0000
,  // measure 78
1000
0100
0010
0001
0010
0100
1000
0000
0001
0010
1000
0010
0001
0010
1000
0000
,  // measure 79
0010
0001
0100
1000
0001
0010
1000
0000
1001
0000
1001
0000
1001
0000
0000
0000
,  // measure 80
0110
0000
0010
1000
0100
0000
1000
0000
0001
0010
0001
0100
0010
0000
1000
0000
,  // measure 81
0100
0000
0010
0000
0001
0010
1000
0010
0001
0000
0100
0010
0100
0010
1000
0000
,  // measure 82
0100
0010
0001
0010
0100
1000
0100
0000
0010
0001
0100
0010
1000
0010
0100
0000
,  // measure 83
0001
0010
0100
0010
0001
1000
0010
1000
0100
0000
0000
0000
1001
0000
0001
0000
,  // measure 84
0100
0000
0010
1000
0100
0010
0100
0000
1000
0000
0001
0010
0001
0100
0010
1000
,  // measure 85
0020
0000
0000
0000
0130
0001
1000
0001
0020
0000
0000
0000
0130
1000
0001
1000
,  // measure 86
0001
0000
0010
0001
0010
0001
0100
0000
0010
0000
1000
0100
1000
0010
0100
0000
,  // measure 87
0001
0000
0010
0100
1000
0000
0010
0000
0101
0000
1010
0000
0101
0000
0000
0000
,  // measure 88
1000
0100
0010
0000
0001
0000
0010
0001
0100
0000
0010
1000
0100
0010
0001
0000
,  // measure 89
1000
0100
1000
0010
0100
0001
0100
0010
1000
0000
0001
0010
0100
1000
0100
0000
,  // measure 90
0001
0000
0100
0010
0100
0001
0010
0000
0110
0000
0100
1000
0010
1000
0100
0000
,  // measure 91
0001
0010
1000
0010
0001
0100
1000
0100
0001
0010
0100
1000
0100
0010
0001
0010
,  // measure 92
0100
0000
1000
0100
1000
0001
0010
0000
0110
0000
0100
1000
0001
0010
0001
0000
,  // measure 93
0101
0000
0000
0000
0100
0010
1000
0100
0010
0000
0001
0100
1000
0100
0001
0010
,  // measure 94
1000
0010
0001
0010
0100
1000
0100
0000
1000
0100
0010
0001
0010
0001
0100
0000
,  // measure 95
1001
0000
1010
0000
0110
0101
0011
0000
,  // measure 96
0110
1100
1001
0000
0101
0110
1010
0000
,  // measure 97
2200
3300
0220
0330
0022
0033
2002
0000
,  // measure 98
0000
3003
0000
0000
;
