#TITLE:only my railgun -Euro Beat Charger Mix-;
#SUBTITLE:;
#ARTIST:fripside;
#TITLETRANSLIT:;
#SUBTITLETRANSLIT:;
#ARTISTTRANSLIT:;
#GENRE:;
#CREDIT:InternalScreams;
#BANNER:only my railgun -Euro Beat Charger Mix-.png;
#BACKGROUND:only my railgun -Euro Beat Charger Mix--bg.png;
#LYRICSPATH:;
#CDTITLE:;
#MUSIC:only my railgun -Euro Beat Charger Mix-.mp3;
#OFFSET:-1.850000;
#SAMPLESTART:66.169899;
#SAMPLELENGTH:18.020000;
#SELECTABLE:YES;
#BPMS:0.000000=155.000000
;
#STOPS:
;
#BGCHANGES:;
#KEYSOUNDS:;
#ATTACKS:;

//---------------dance-single - ----------------
#NOTES:
     dance-single:
     :
     Easy:
     6:
     0.309318,0.351849,0.222891,0.000000,0.000000,272.000000,244.000000,28.000000,0.000000,0.000000,0.000000,0.309318,0.351849,0.222891,0.000000,0.000000,272.000000,244.000000,28.000000,0.000000,0.000000,0.000000:
0000
0000
0000
0000
,
0000
0000
0000
0000
,
0000
0000
0000
0000
,
0001
0001
0100
0100
,
0010
0010
1000
1000
,
0001
0010
0001
0100
,
0010
0000
0000
0000
,
0100
0001
0010
0001
,
1000
0100
1000
0010
,
0010
0100
0100
0001
,
0011
0010
0100
1000
,
1001
0001
0010
0001
,
0100
0010
0100
0010
,
1000
0000
0001
0100
,
0010
0100
0001
1000
,
0001
0100
0010
0100
,
0001
1000
0000
0000
,
1100
0100
0010
0001
,
0101
0100
0010
0100
,
1010
1000
0010
0100
,
0010
1000
0001
0001
,
0101
0100
0110
0010
,
1010
1000
1000
0001
,
0100
0010
0100
0001
,
1000
0100
1000
0010
,
0110
0000
0100
0001
,
0010
0000
0010
0001
,
0100
0000
0010
1000
,
1100
0100
0010
0001
,
0101
0100
0010
1000
,
0001
1000
0100
0010
,
0001
0100
0010
0100
,
0001
1000
0100
1000
,
0010
0100
0010
1000
,
0101
0001
0100
0000
,
0010
1000
0100
1000
,
1001
0001
0101
0000
,
0100
0010
1000
0010
,
0100
0001
0010
0000
,
0001
0100
1000
0010
,
1000
0100
0001
0000
,
1001
1000
1010
0000
,
0010
0100
0001
0100
,
0010
1000
0100
0001
,
0010
0001
0100
1000
,
0010
0001
0100
0001
,
0010
1000
0001
0100
,
0010
0100
0001
1000
,
1001
0000
0101
0100
,
0110
0010
1000
0001
,
1000
0100
1000
0010
,
0100
0010
1000
0100
,
0001
0010
0001
0100
,
1000
0001
0010
0001
,
0100
0010
1000
0010
,
0100
0001
0010
0001
,
1000
0000
1100
0100
,
0110
0010
0011
0001
,
0101
0100
0010
1000
,
0010
0100
0001
0000
,
0010
0001
0010
0001
,
0100
0010
0100
0010
,
1000
0100
1000
0100
,
0010
0001
0010
0001
,
0101
0100
0010
0100
,
0110
0010
1000
0100
,
1100
1000
0001
0100
,
0110
0010
1000
0100
,
1100
0000
0000
0000
;

//---------------dance-single - Copied from----------------
#NOTES:
     dance-single:
     Copied from:
     Hard:
     12:
     0.510602,0.514241,0.191049,0.143287,0.143287,449.000000,425.000000,24.000000,18.000000,0.000000,0.000000,0.510602,0.514241,0.191049,0.143287,0.143287,449.000000,425.000000,24.000000,18.000000,0.000000,0.000000:
// measure 0
0000
0000
0000
0000
,  // measure 1
0000
0000
0000
0000
,  // measure 2
0000
0000
0000
0000
,  // measure 3
0001
1000
0001
0000
1000
0000
0010
0100
0000
0000
0010
0000
0100
0000
0001
0000
,  // measure 4
0010
0001
0010
0000
0001
0000
1000
0010
0000
0000
0100
0000
0010
0000
1000
0000
,  // measure 5
0001
0000
0010
0000
0001
0000
0100
0010
0000
0000
1000
0000
0100
0000
0010
0000
,  // measure 6
0001
0100
0000
0000
0000
0000
0000
0000
,  // measure 7
0010
1000
0100
0000
0010
0001
0100
0000
,  // measure 8
0001
0010
0001
0000
1000
0100
0010
0001
,  // measure 9
0201
0320
2030
3200
,  // measure 10
0310
0000
0000
0010
0000
0000
1001
0000
0000
0000
0001
0000
0100
0000
1000
0000
,  // measure 11
0100
0001
0000
1000
0010
0001
0010
0000
,  // measure 12
1000
0100
0001
0000
0100
1000
0001
0010
,  // measure 13
0002
0000
0103
0000
0010
1000
0100
1000
,  // measure 14
0002
0023
0230
2300
,  // measure 15
3010
0000
0100
0010
0000
0000
1000
0000
0001
0000
0010
0001
0000
0000
0100
0000
,  // measure 16
0010
0000
1000
0100
0000
1000
0200
0000
0000
0000
0310
0000
0001
0000
0010
0000
,  // measure 17
0001
0100
1000
0100
0001
1000
0001
0000
,  // measure 18
0100
0000
0010
0100
0000
0001
1000
0000
0010
0000
0100
0000
0001
0000
0100
0000
,  // measure 19
0010
0000
1000
0000
0010
0000
0100
0000
0001
0000
0000
0001
0000
0000
1000
0000
,  // measure 20
0010
0100
0010
0000
1000
0100
0001
0100
,  // measure 21
2000
0000
3010
0001
0020
0000
1030
0100
,  // measure 22
0001
0100
1000
0010
0100
0001
0100
0000
,  // measure 23
0010
1000
0010
0000
0100
0001
0010
0100
,  // measure 24
1000
0000
0010
1000
0000
0000
0001
0000
0100
0000
0010
0000
0100
0000
0001
0000
,  // measure 25
0020
0000
0130
1000
0100
0010
0001
1000
,  // measure 26
0002
0000
0103
0010
1000
0010
0100
0001
,  // measure 27
0200
0000
0310
1000
0100
0001
0100
1000
,  // measure 28
0010
0100
0001
0100
1000
0000
1100
0000
,  // measure 29
0101
0000
0001
0000
0010
0100
0010
0000
0100
0000
1000
0000
0001
0000
0010
0000
,  // measure 30
0001
0000
0101
0000
0100
0010
1000
0100
,  // measure 31
0002
0000
0203
0000
1300
0010
0001
0010
,  // measure 32
1000
1001
0101
0110
,  // measure 33
0010
1000
0100
1000
0100
0010
0001
0100
,  // measure 34
0010
0000
0100
0001
0010
0000
1000
0000
,  // measure 35
0010
0001
0100
1000
0100
0001
0010
0000
,  // measure 36
0100
0000
1000
0000
0010
0000
1000
0000
0100
0000
0010
0001
0010
0000
0001
0000
,  // measure 37
0100
0010
0100
0010
0000
0100
0001
0010
,  // measure 38
0001
1000
0100
1000
0010
0000
0100
0001
,  // measure 39
0010
0100
1000
0010
1000
0001
1000
0000
,  // measure 40
0001
1000
0001
1000
,  // measure 41
0110
0000
0000
0100
0000
0000
0101
0000
0000
0000
0001
0000
0010
0000
0100
0000
,  // measure 42
0010
0001
1000
0000
0100
1000
0001
0000
,  // measure 43
0010
0001
0100
0000
0010
1000
0100
0010
,  // measure 44
0001
0011
0110
1100
,  // measure 45
1000
0000
0000
1000
0000
0000
1001
0000
0000
0000
0001
0000
0010
0000
1000
0000
,  // measure 46
0010
0001
0100
0000
0010
0100
0001
0000
,  // measure 47
0010
0001
1000
0000
0010
1000
0100
0010
,  // measure 48
0100
0000
1000
0000
0001
0010
1000
0010
,  // measure 49
0001
0000
0000
0001
0000
0000
0100
0000
0000
0000
0010
0000
1000
0000
0100
0000
,  // measure 50
1000
0001
0010
0000
0001
0100
1000
0000
,  // measure 51
0100
0001
0010
0000
1000
0010
0001
0100
,  // measure 52
0010
1010
1100
0110
,  // measure 53
0010
0000
0000
0010
0000
0000
0001
0000
0100
0000
0000
0000
0010
0000
1000
0000
,  // measure 54
0100
1000
0010
0000
0100
0001
0010
0000
,  // measure 55
0001
0100
0010
0000
1000
0100
0010
0001
,  // measure 56
1001
0000
1100
0000
0100
0001
0100
1000
,  // measure 57
0010
0110
0101
0011
,  // measure 58
0010
0000
0100
0010
0000
0000
0100
0000
1000
0000
0100
1000
0000
0000
0001
0000
,  // measure 59
0010
0000
0001
0010
0000
0001
0020
0000
0000
0000
0000
0000
0000
0000
0030
0000
,  // measure 60
1001
0000
1000
0010
0100
0000
0001
0010
,  // measure 61
0100
1000
0001
0000
0010
0001
0100
0000
,  // measure 62
0010
0000
1000
0010
0000
0100
0000
0000
0001
0000
0000
0010
0000
0001
0010
0000
,  // measure 63
0001
0000
0100
0000
0010
1000
0010
0000
,  // measure 64
1100
0000
0000
0000
0100
0000
0010
0000
0001
0000
0000
0000
1000
0001
1000
0000
,  // measure 65
0010
0000
0000
0010
0000
0000
0100
0000
0001
0010
0001
0000
1000
0000
0001
0000
,  // measure 66
0100
0000
0010
0100
0000
0010
1000
0000
0001
0000
0000
1000
0000
0000
0001
0000
,  // measure 67
0100
0000
0010
0100
0000
0010
0100
0000
0001
0000
0010
0000
0001
0000
1000
0000
,  // measure 68
0100
0000
0000
0000
;

//---------------dance-single - Copied from----------------
#NOTES:
     dance-single:
     Copied from:
     Medium:
     9:
     0.343434,0.351849,0.087564,0.000000,0.003980,302.000000,291.000000,11.000000,0.000000,0.000000,0.000000,0.343434,0.351849,0.087564,0.000000,0.003980,302.000000,291.000000,11.000000,0.000000,0.000000,0.000000:
// measure 0
0000
0000
0000
0000
,  // measure 1
0000
0000
0000
0000
,  // measure 2
0000
0000
0000
0000
,  // measure 3
1000
0001
1000
0000
0001
0000
0100
0000
,  // measure 4
0010
0100
0010
0000
1000
0000
0100
0000
,  // measure 5
0001
0100
1000
0000
0010
0000
0001
0000
,  // measure 6
0010
0000
0000
0000
,  // measure 7
1000
0001
1000
0000
0001
0100
0001
0000
,  // measure 8
0100
0010
1000
0001
,  // measure 9
1001
1000
1100
0100
,  // measure 10
0110
0010
0011
0001
,  // measure 11
0100
0010
0100
0000
0010
1000
0010
0000
,  // measure 12
1000
0001
1000
0000
0100
0000
0010
0000
,  // measure 13
0001
0000
1000
1000
,  // measure 14
0001
0001
0100
0100
,  // measure 15
0110
0010
1010
1000
,  // measure 16
1001
0001
0100
0000
,  // measure 17
0010
0100
0010
0100
,  // measure 18
0010
0000
1000
0000
0001
1000
0001
0000
,  // measure 19
1000
0000
0010
0000
0100
0010
0000
0010
,  // measure 20
0100
0000
0001
0000
1000
0001
0000
0001
,  // measure 21
1000
0000
0010
0000
0100
0010
0000
0010
,  // measure 22
0100
0001
1000
0100
,  // measure 23
1000
0100
0000
0100
1000
0000
0001
0000
,  // measure 24
0100
0000
0010
0100
0000
0100
0010
0000
,  // measure 25
1000
0000
0001
0000
0010
0001
0010
0000
,  // measure 26
0001
0000
0000
0000
0100
0010
0100
0010
,  // measure 27
0100
0000
0000
0000
0010
1000
0010
0000
,  // measure 28
1000
0001
0100
0010
,  // measure 29
0110
0000
0100
0000
0001
1000
0001
0000
,  // measure 30
1000
0100
1000
0010
,  // measure 31
0110
0000
0100
0000
0001
0100
0001
0000
,  // measure 32
1000
0010
0110
0000
,  // measure 33
0100
0000
0001
0000
0010
0000
0001
0010
,  // measure 34
0001
1000
0100
0000
,  // measure 35
1000
0100
1000
0000
0100
0000
0010
0000
,  // measure 36
0001
0000
0010
0001
0010
0000
0000
0000
,  // measure 37
0001
0000
0100
0000
0010
0000
0100
0010
,  // measure 38
0100
0010
1000
0000
,  // measure 39
0100
0000
1000
0100
1000
0100
0010
0000
,  // measure 40
0001
0000
0100
0010
0100
0000
0000
0000
,  // measure 41
0010
0000
0000
0010
0000
0000
0010
0000
0000
0000
1000
0000
0001
0000
0000
0000
,  // measure 42
1000
0100
1000
0010
,  // measure 43
0100
0010
0100
0000
0001
0010
0001
0000
,  // measure 44
1000
0100
1000
0010
,  // measure 45
0100
0000
0001
0000
0010
0000
0001
0010
,  // measure 46
0001
0000
1000
0000
0001
1000
0001
0000
,  // measure 47
0100
0010
0100
0000
0010
0000
1000
0000
,  // measure 48
0100
0000
1000
0001
,  // measure 49
0010
0001
0100
0000
,  // measure 50
0010
1000
0010
0000
1000
0100
1000
0000
,  // measure 51
0001
0100
0001
0000
1000
0000
0010
0000
,  // measure 52
0100
0010
1000
0001
,  // measure 53
0010
0001
0100
0010
,  // measure 54
1010
1000
0001
0100
,  // measure 55
0010
0000
0100
0000
0001
0010
0001
0000
,  // measure 56
1000
0000
0100
0010
,  // measure 57
0001
0010
0100
1000
,  // measure 58
0001
1000
0001
0000
1000
0001
1000
0000
,  // measure 59
0001
0100
0001
0100
0001
0000
0000
1000
,  // measure 60
0000
0010
1000
0010
,  // measure 61
0100
0010
0100
0001
,  // measure 62
1000
0001
0000
1000
0000
0000
0010
0000
,  // measure 63
0100
0000
0001
0000
0100
0001
0000
0001
,  // measure 64
0100
0000
0010
0000
1000
0100
0000
0100
,  // measure 65
1000
0000
0001
0000
0100
0010
0000
0010
,  // measure 66
0100
0000
0001
0000
1000
0100
0000
0100
,  // measure 67
1000
0000
0010
0000
0100
0010
0000
0010
,  // measure 68
1000
0000
0000
0000
;

//---------------dance-single - Copied from----------------
#NOTES:
     dance-single:
     Copied from:
     Beginner:
     3:
     0.160345,0.189457,0.000000,0.000000,0.000000,141.000000,141.000000,0.000000,0.000000,0.000000,0.000000,0.160345,0.189457,0.000000,0.000000,0.000000,141.000000,141.000000,0.000000,0.000000,0.000000,0.000000:
0000
0000
0000
0000
,
0000
0000
0000
0000
,
0000
0000
0000
0000
,
1000
0000
1000
0000
,
0001
0000
0001
0000
,
0010
0000
0010
0000
,
0001
0000
0000
0000
,
1000
0000
1000
0000
,
0010
0000
0010
0010
,
0010
0000
0100
0000
,
0001
0000
1000
0000
,
0001
0000
0100
0000
,
0010
0000
0100
0100
,
0100
0000
0001
0001
,
0001
0000
1000
0000
,
0010
0000
1000
0000
,
0100
0000
0000
0000
,
1000
1000
0000
0000
,
0001
0001
0000
0000
,
0100
0100
0000
0000
,
0010
0010
0000
0000
,
1000
0000
1000
0000
,
0001
0000
0001
0001
,
0000
0000
0100
0100
,
0000
0000
0010
0010
,
0010
0000
0000
0000
,
0100
0000
0001
0001
,
0001
0000
1000
0000
,
1000
1000
0010
0010
,
0100
0000
0001
0000
,
1000
0000
0001
0000
,
0100
0000
0010
0000
,
0100
0000
0001
0000
,
1000
0000
0001
0000
,
0010
0000
0001
0000
,
0100
0000
0010
0000
,
0100
0000
0001
0000
,
1000
0000
0010
0000
,
1000
0000
0001
0000
,
0100
0000
0010
0000
,
0100
0000
0001
0000
,
1000
1000
1000
0000
,
0010
0000
0100
0000
,
0010
0000
0100
0100
,
0100
0000
0000
0000
,
1000
0000
0001
0000
,
1000
0000
0010
0000
,
0100
0000
0010
0000
,
1000
0000
0001
0001
,
0001
0000
0100
0000
,
0100
0000
0010
0000
,
0010
0000
1000
0000
,
1000
0000
0001
0000
,
0001
0000
0100
0000
,
0100
0000
0010
0000
,
1000
0000
0001
0000
,
1000
0000
0010
0000
,
0100
0100
0100
0000
,
0010
0000
0010
0000
,
1000
1000
1000
0000
,
0001
0000
0001
0001
,
0000
0000
0100
0100
,
0000
0000
0010
0010
,
0010
0000
1000
1000
,
1000
0000
0001
0000
,
0001
0000
0100
0000
,
0100
0000
0010
0000
,
0010
0000
1000
0000
,
1000
0000
0000
0000
;

//---------------dance-single - ----------------
#NOTES:
     dance-single:
     :
     Challenge:
     15:
     0.727807,0.703698,0.175129,0.071644,0.616930,640.000000,618.000000,22.000000,9.000000,0.000000,0.000000,0.727807,0.703698,0.175129,0.071644,0.616930,640.000000,618.000000,22.000000,9.000000,0.000000,0.000000:
// measure 0
0000
0000
0000
0000
,  // measure 1
0000
0000
0000
0000
,  // measure 2
0000
0000
0000
0000
,  // measure 3
1000
0010
1000
0000
0001
0000
0100
0010
0000
0000
1000
0000
0100
0001
0100
0000
,  // measure 4
1000
0001
1000
0000
0010
0000
0100
0010
0000
0000
1000
0000
0001
0100
0001
0000
,  // measure 5
0100
0010
0100
0000
0010
0000
1000
0001
0000
0100
0001
0000
1000
0010
1000
0010
,  // measure 6
1000
0010
1000
0000
0000
0000
0000
0000
0000
0000
0000
0000
0000
0000
0000
0000
,  // measure 7
0001
1000
0001
0000
0100
0000
0010
0000
1000
0001
0100
0000
0010
0000
1000
0000
,  // measure 8
0001
0100
0001
0000
0010
0000
0100
0000
1000
0010
1000
0000
0001
1000
0001
0000
,  // measure 9
0100
0010
2000
0000
3010
0100
0001
0100
,  // measure 10
0001
1000
0001
0000
1000
0000
0100
0000
0010
0001
0010
0000
0001
0000
0100
0000
,  // measure 11
0010
1000
0010
0000
0100
0000
0001
0000
0010
0001
0010
0000
0001
0000
1000
0000
,  // measure 12
0010
0100
0010
0000
1000
0000
0100
0000
0010
0000
0001
0000
0010
0000
0100
0000
,  // measure 13
1000
0000
0001
1000
0001
0000
0100
0000
0010
0000
1000
0000
0010
0000
0100
0000
,  // measure 14
0001
0010
0001
0000
1000
0100
1000
0000
0001
1000
0001
0000
0100
0000
0010
0000
,  // measure 15
1000
0000
0001
0100
0001
0000
1000
0000
0010
0000
0100
0010
0100
0000
0001
0000
,  // measure 16
1000
0000
0100
1000
0000
1000
0020
0000
0000
0000
0130
0001
0100
0001
0100
0000
,  // measure 17
0001
0000
1000
0010
0000
0010
0100
0000
0001
0010
0001
0000
1000
0001
1000
0000
,  // measure 18
0010
0000
0100
0001
0000
0001
1000
0000
0001
0010
0100
0000
1000
0001
1000
0000
,  // measure 19
0010
0000
0010
0100
0000
0100
0001
0000
1001
0000
0000
1010
0000
0000
0110
0000
,  // measure 20
0100
0000
0001
0010
0000
0010
0100
0000
1000
0001
1000
0001
1000
0001
1000
0000
,  // measure 21
0101
0000
0100
0010
0000
0010
1000
0000
1001
0000
0001
0000
0010
0100
0010
0000
,  // measure 22
0100
0000
1000
0001
0000
0001
0010
0000
0001
1000
0001
0000
1000
0010
1000
0001
,  // measure 23
0100
0000
0010
1000
0000
1000
0001
0000
0100
0000
0010
0000
0100
0000
0001
0000
,  // measure 24
0010
0000
1000
0010
0000
0010
0001
0000
0100
0001
0100
0000
0001
0000
1000
0000
,  // measure 25
0020
0100
0130
0000
0010
1000
0100
0010
,  // measure 26
0012
0010
0103
1000
0100
1000
0001
0010
,  // measure 27
0012
0010
0103
1000
0001
0100
1000
0100
,  // measure 28
0001
0010
1000
0010
0101
0000
0110
0000
,  // measure 29
1000
0000
0001
0000
0100
0010
0100
0010
0100
0000
0001
0000
0010
0100
1000
0000
,  // measure 30
0010
0000
0001
0000
0010
1000
0001
0000
0101
0000
0010
0000
1000
0000
0010
0000
,  // measure 31
1001
0000
0100
0000
0010
0000
1000
0000
0101
0000
0010
0000
0100
1000
0100
1000
,  // measure 32
0001
0010
0001
1000
0010
0010
0100
0000
,  // measure 33
0001
1000
0001
1000
0010
0000
0100
0000
0001
0000
0100
0000
0010
0000
1000
0000
,  // measure 34
1200
0000
0000
0000
0310
0000
0001
0010
0001
0000
1000
0000
0001
0000
0000
0000
,  // measure 35
0100
0010
1000
0000
0001
0000
1000
0000
0010
0001
0010
0000
1000
0000
0001
0000
,  // measure 36
0100
0000
0010
0000
1000
0000
0100
0000
0001
0000
1000
0010
0001
0000
0100
0000
,  // measure 37
0010
1000
0010
0000
0100
0000
0001
0000
0001
0000
1000
0001
1000
0000
0010
0000
,  // measure 38
0100
0010
0100
0000
0001
0000
1000
0000
0010
1000
0010
0000
1000
0001
1000
0000
,  // measure 39
0001
0010
0100
0000
1000
0000
0001
0000
0010
0001
0100
0000
0010
0000
1000
0000
,  // measure 40
0200
0000
0000
0000
0000
0000
1300
0001
2000
0000
0000
0000
0000
0000
3000
0000
,  // measure 41
0101
0000
0000
0110
0000
0000
1010
0000
0000
0000
0000
0000
0000
0000
0000
0000
,  // measure 42
0001
0100
0010
0000
0100
0000
0001
0000
1000
0010
0100
0000
0010
0000
1000
0000
,  // measure 43
0001
0000
0101
0000
0000
0000
1000
0000
0100
0001
0100
0000
1000
0010
1000
0000
,  // measure 44
0001
0100
0010
0000
0100
0000
0001
0000
0010
0000
0100
1000
0001
0000
0010
0000
,  // measure 45
1000
0000
0010
0000
0001
0000
1000
0000
0001
1000
0001
0000
1000
0100
1000
0000
,  // measure 46
0001
0000
1000
0010
0100
0000
0010
0000
1000
0000
0001
0010
0100
0000
0010
0000
,  // measure 47
0100
0000
1000
0001
0100
0000
0001
0000
0100
0010
0100
0000
0010
1000
0010
0000
,  // measure 48
1000
0100
0010
0100
1000
0001
0010
0001
,  // measure 49
0100
0010
0000
0010
1000
0000
0001
0000
0010
0000
1000
0000
0010
0000
0001
0000
,  // measure 50
0010
0001
1000
0000
0100
0000
0010
0000
0100
1000
0001
0000
0010
0000
0001
0010
,  // measure 51
0001
0010
0001
0000
0010
0000
0100
0000
0010
0100
1000
0000
0001
0010
0100
0000
,  // measure 52
1000
0001
1000
0000
0001
0000
0100
0000
0010
0000
0100
0001
1000
0000
0001
0000
,  // measure 53
0100
0010
1000
0000
0001
0000
1000
0000
0001
0010
0001
0010
0100
1000
0100
1000
,  // measure 54
0010
0000
1000
0001
0100
0000
0001
0000
1000
0000
0010
0100
0001
0000
0100
0000
,  // measure 55
0001
0010
0100
1000
0001
0000
1000
0000
0100
0010
0100
0010
0001
0010
0001
1000
,  // measure 56
0001
0000
1000
0010
0100
0000
0000
0000
0001
0000
0010
0000
1000
0000
0010
0000
,  // measure 57
0001
0100
0001
0000
1000
0001
1000
0000
0010
1000
0010
0000
0100
0000
0001
0000
,  // measure 58
1000
0000
0010
1000
0001
0000
0001
0000
0100
0000
0010
0100
0001
0000
0001
0000
,  // measure 59
0010
0000
0100
1000
0000
0100
2000
0000
0000
0000
0000
0000
0000
0000
3000
0000
,  // measure 60
1001
0000
0001
0100
0000
0100
0010
0000
1000
0000
0001
0000
0100
0001
1000
0000
,  // measure 61
0001
0000
0100
0010
0000
0010
1000
0000
0001
0010
0001
0000
1000
0100
1000
0000
,  // measure 62
0010
0000
0100
0001
0000
0001
1000
0000
1010
0000
0000
0110
0000
0000
0101
0000
,  // measure 63
0001
0000
0010
0100
0000
0100
1000
0000
0001
0010
0001
0000
0010
0100
0010
0100
,  // measure 64
1000
0000
0001
0010
0000
0010
0001
0000
0100
0000
0010
0000
1000
0001
1000
0000
,  // measure 65
0010
0000
0100
0001
0000
0001
1000
0000
0001
0100
0001
0000
0100
0010
0100
0000
,  // measure 66
0001
0000
1000
0100
0000
0100
0010
0000
0001
0000
0010
0000
1000
0000
0010
0000
,  // measure 67
0001
0000
0100
0010
0000
0010
1000
0000
0001
0100
0001
0100
0000
0100
0010
0000
,  // measure 68
1001
0000
0000
0000
;
