#TITLE:Need Your Love;
#SUBTITLE:;
#ARTIST:Sota F.;
#TITLETRANSLIT:;
#SUBTITLETRANSLIT:;
#ARTISTTRANSLIT:;
#GENRE:;
#CREDIT:;
#BANNER:Need Your Love.png;
#BACKGROUND:Need Your Love-bg.png;
#LYRICSPATH:;
#CDTITLE:;
#MUSIC:Need Your Love.mp3;
#OFFSET:-0.371000;
#SAMPLESTART:54.698978;
#SAMPLELENGTH:15.000000;
#SELECTABLE:YES;
#DISPLAYBPM:146.000000;
#BPMS:0.000000=146.000000
;
#STOPS:
;
#BGCHANGES:;
#KEYSOUNDS:;
#ATTACKS:;

//---------------dance-single - ----------------
#NOTES:
     dance-single:
     :
     Hard:
     12:
     0.560998,0.567537,0.247153,0.347845,0.205961,429.000000,402.000000,27.000000,38.000000,0.000000,0.000000,0.560998,0.567537,0.247153,0.347845,0.205961,429.000000,402.000000,27.000000,38.000000,0.000000,0.000000:
// measure 0
0000
0000
0000
0000
,  // measure 1
1000
1000
0010
0010
0100
0100
0001
0001
,  // measure 2
1000
0100
0001
0010
1000
0100
0001
0010
,  // measure 3
1000
1000
0010
0010
0100
0100
0001
0001
,  // measure 4
0100
1000
0100
0010
1000
0100
0001
0100
,  // measure 5
0010
0010
0001
0001
0010
0010
0100
0100
,  // measure 6
1000
0100
0001
1000
0010
0001
1000
0100
,  // measure 7
0001
0001
0100
0100
0010
0010
1000
1000
,  // measure 8
0001
0100
1000
0100
0001
0100
1000
0100
,  // measure 9
0001
0010
0000
0001
0100
0000
0000
0100
0000
0010
0100
0000
0000
0100
0020
0000
,  // measure 10
0030
1000
0000
0001
1000
0000
0000
0010
0000
1000
0010
0000
0000
0010
1000
0000
,  // measure 11
1001
0000
0001
0100
1000
0000
1100
0000
,  // measure 12
0101
0000
1000
0100
0001
0000
0001
0100
,  // measure 13
1000
0000
0001
1000
0010
0000
0100
0001
,  // measure 14
0011
0000
0000
0000
1000
0000
0100
0000
1100
0000
0000
0000
0100
0000
1000
0001
,  // measure 15
0000
0000
0000
0000
0001
0100
0000
0001
1000
0000
0010
0000
1000
0000
0001
0000
,  // measure 16
1000
0000
1000
0010
0100
0000
0010
0100
,  // measure 17
0001
0000
0000
0000
1000
0010
0000
1000
0001
0000
0100
0000
0001
0000
0010
0000
,  // measure 18
0100
0000
1000
0001
1000
0000
0001
0010
,  // measure 19
0001
0000
0000
1000
0000
0000
0001
0000
0100
0000
0001
0000
0010
0000
0000
0000
,  // measure 20
0001
0000
0000
0100
0000
0000
1000
0000
0100
0000
0001
0000
1000
0000
0000
0000
,  // measure 21
0010
0000
0000
0100
0000
0000
0001
0000
0000
0000
0100
0000
0010
0000
1000
0000
,  // measure 22
0010
0000
0000
0100
0000
0000
0001
0000
0000
0000
0010
0000
0011
0000
0000
0000
,  // measure 23
1100
0000
0000
0000
1001
0000
0000
0000
0101
0000
0000
0100
0010
0000
1000
0000
,  // measure 24
1001
0000
0000
0000
0101
0000
0000
0000
0011
0000
0000
0010
0100
0000
1000
0000
,  // measure 25
1100
0000
0000
0000
1001
0000
0000
0000
0010
0000
0000
0010
0100
0000
0001
0010
,  // measure 26
0001
0000
1000
1001
0000
0101
0000
0000
,  // measure 27
1000
0100
0010
0001
0100
0010
0100
1000
,  // measure 28
0100
0001
0010
0100
1000
1000
0001
0010
,  // measure 29
0001
0001
0010
0100
0010
0010
0100
1000
,  // measure 30
0001
1000
0001
0000
0100
0000
1000
0000
0100
0000
0001
0000
0010
0000
0100
0000
,  // measure 31
0110
0000
1001
0000
0101
0000
0100
0010
,  // measure 32
1000
0100
0010
0001
1000
0100
0010
0001
,  // measure 33
0100
0010
1000
0010
0001
0010
0200
0000
,  // measure 34
0310
0000
1000
0001
0010
0001
0100
0000
,  // measure 35
0010
1000
0001
1000
0020
0000
0130
0002
,  // measure 36
0000
1003
0200
1000
0300
0002
0100
0003
,  // measure 37
0010
0100
0001
0100
0010
1000
1001
0000
,  // measure 38
1000
0010
0100
0010
1000
0001
0101
0000
,  // measure 39
0002
0000
1003
0020
0000
0130
0002
0000
,  // measure 40
1003
0000
0100
0000
0010
0100
0010
0100
,  // measure 41
1000
0100
1000
0001
0020
0000
0032
0000
,  // measure 42
0203
0000
0310
1000
0000
1000
0020
0000
,  // measure 43
0130
0001
0020
0000
0230
0000
0320
0000
,  // measure 44
0032
0000
1003
0100
0000
0100
0020
0000
,  // measure 45
0031
0010
0100
0010
0001
0001
1000
0000
,  // measure 46
0010
0100
1000
0100
0010
0010
0100
0000
,  // measure 47
0010
0001
1000
0100
0010
0100
2000
0000
,  // measure 48
3001
0000
0100
0001
0000
1000
0001
0000
1000
0000
0010
0000
0100
0001
0100
0000
,  // measure 49
0010
1000
0200
0000
0320
0000
0032
0000
,  // measure 50
2003
0000
3010
0200
0000
0301
2000
0000
,  // measure 51
3001
1002
0203
0320
,  // measure 52
2030
0000
3010
1000
0100
1000
0001
0100
,  // measure 53
0001
1020
0230
0302
,  // measure 54
0203
0000
0310
2000
0000
3001
0100
0010
,  // measure 55
0100
0000
0001
1000
0002
0000
1003
0000
,  // measure 56
0010
0000
1000
0000
0100
0000
0010
0000
0001
1000
0001
0000
1000
0001
2000
0000
,  // measure 57
0002
0000
0000
3003
,  // measure 58
1000
0001
0000
0100
0000
0100
0000
0000
0100
0010
0000
1000
0000
1000
0000
0000
,  // measure 59
1000
0001
0000
0010
0000
0010
0000
0010
0000
0100
0000
1000
0000
0010
0000
0100
,  // measure 60
0001
0000
0000
0000
1001
0000
0000
0000
1010
0000
0000
0010
0100
0000
0001
0000
,  // measure 61
0011
0000
0000
0000
0001
0000
1100
0000
0000
0000
1000
0001
2000
0000
0000
0000
,  // measure 62
3000
0000
0000
0000
;

//---------------dance-single - ----------------
#NOTES:
     dance-single:
     :
     Beginner:
     3:
     0.177846,0.226099,0.000000,0.000000,0.000000,136.000000,136.000000,0.000000,0.000000,0.000000,0.000000,0.177846,0.226099,0.000000,0.000000,0.000000,136.000000,136.000000,0.000000,0.000000,0.000000,0.000000:
0000
0000
0000
0000
,
1000
0000
0001
0000
,
1000
0000
0000
0000
,
0010
0000
0100
0000
,
0010
0000
0000
0000
,
1000
0000
0100
0000
,
1000
0000
0000
0000
,
0001
0000
0010
0000
,
0001
0000
0000
0000
,
0100
0000
0100
0000
,
0100
0000
0010
0000
,
0010
0000
1000
0000
,
0001
0000
1000
0000
,
0001
0000
0100
0000
,
0010
0000
0000
0000
,
0100
0000
0001
0000
,
0100
0000
0001
0000
,
0100
0000
0000
0000
,
0010
1000
0010
0000
,
0100
0000
0100
0000
,
0001
0000
0001
0000
,
1000
1000
1000
0000
,
0010
0010
0010
0000
,
0100
0000
0100
0000
,
0001
0000
0001
0000
,
0010
0000
0010
0000
,
0100
0000
0100
0000
,
1000
1000
1000
0000
,
0001
0001
0001
0000
,
0100
0100
0100
0000
,
0010
0010
0010
0000
,
1000
1000
1000
1000
,
1000
0000
0001
0001
,
0001
0000
0100
0000
,
0001
0000
1000
0000
,
0010
0100
0010
0000
,
0100
0000
0000
0000
,
0001
0001
0001
0000
,
1000
0000
1000
0000
,
0100
0100
0100
0000
,
0010
0000
0001
0000
,
0001
0000
1000
0000
,
0001
0001
0001
0000
,
0100
0000
0100
0000
,
0010
0000
0010
0000
,
1000
0000
1000
0000
,
0001
0000
0001
0000
,
0100
0100
0100
0000
,
0010
0000
1000
0000
,
0010
0010
0010
0000
,
0100
0100
0100
0000
,
0001
0000
0001
0000
,
1000
0000
1000
0000
,
0000
0000
0010
0000
,
0100
0000
0010
0000
,
0100
0000
0001
0000
,
1000
0000
0001
0000
,
1000
0000
0000
0000
,
0001
0001
1000
1000
,
0001
0001
1000
0000
,
0010
0010
0100
0000
,
0100
0100
0010
0010
;

//---------------dance-single - ----------------
#NOTES:
     dance-single:
     :
     Easy:
     5:
     0.282461,0.310887,0.027461,0.000000,0.000000,216.000000,213.000000,3.000000,0.000000,0.000000,0.000000,0.282461,0.310887,0.027461,0.000000,0.000000,216.000000,213.000000,3.000000,0.000000,0.000000,0.000000:
0000
0000
0000
0000
,
1000
1000
0001
0001
,
0100
0100
0010
0010
,
1000
1000
0001
0001
,
1000
1000
0100
0100
,
0010
0010
0001
0001
,
0010
0010
0100
0100
,
1000
0010
0001
0010
,
1000
0001
1000
0001
,
1000
0000
0100
0000
,
0010
0000
0001
0000
,
0100
0010
0100
0000
,
0010
1000
0010
1000
,
0001
0000
0100
0000
,
0010
1000
0010
1000
,
0001
0000
0100
0000
,
0010
1000
0010
1000
,
0010
0000
0100
0000
,
0001
0010
0001
0010
,
0001
0001
0001
0000
,
1000
1000
1000
0100
,
1000
0010
0100
0000
,
0010
0100
0001
0010
,
0100
1000
0001
1000
,
0010
0100
0010
0100
,
0010
1000
0100
0010
,
0001
0001
0100
0100
,
0010
1000
0010
1000
,
0010
0100
0010
0100
,
0010
1000
0001
1000
,
0010
0100
0001
0010
,
0100
1000
0001
1000
,
0010
0100
0010
0100
,
0010
0000
1000
0001
,
1000
0000
0010
0100
,
0010
1000
0100
0010
,
0001
0100
0010
0100
,
0010
1000
0010
0000
,
0100
0001
0010
0000
,
0100
1000
0010
0100
,
0000
0010
1000
0100
,
0001
0100
1000
0000
,
0001
0010
0001
0000
,
1000
0100
1000
0010
,
1000
0001
0100
0000
,
0001
0010
0001
0000
,
1000
0100
1000
0000
,
0010
0100
0010
0100
,
0010
0000
1000
0100
,
1000
0001
0010
0100
,
1000
0100
0010
0000
,
0000
0001
0100
0010
,
0100
0001
0010
1000
,
0000
0001
0100
1000
,
0001
0010
1000
0010
,
0000
0001
1000
0001
,
1000
0100
0010
0100
,
1000
0000
0000
0000
,
0001
0001
1000
1000
,
0010
0010
0110
0100
,
0100
0001
0011
0010
,
0100
1000
0001
1001
;

//---------------dance-single - ----------------
#NOTES:
     dance-single:
     :
     Medium:
     9:
     0.350461,0.366668,0.045769,0.000000,0.000000,268.000000,263.000000,5.000000,0.000000,0.000000,0.000000,0.350461,0.366668,0.045769,0.000000,0.000000,268.000000,263.000000,5.000000,0.000000,0.000000,0.000000:
0000
0000
0000
0000
,
1000
0001
1000
0000
0001
1000
0001
0000
,
0100
0010
0100
0000
0010
0100
0010
0000
,
1000
0100
1000
0000
0100
1000
0100
0000
,
0001
0010
0001
0000
0010
0001
0010
0000
,
0010
0100
0010
0000
0100
0010
0100
0000
,
1000
0001
1000
0001
,
0010
0001
0010
0000
0001
0000
1000
0000
,
0100
1000
0100
0000
0010
0000
0001
0000
,
1000
0000
0001
0000
1000
0001
1000
0000
,
0010
0000
0100
0000
0010
0100
0010
0000
,
1000
0000
0100
0010
0100
0000
0010
0000
,
0001
1000
0010
1000
,
0001
0000
0100
0010
0100
0000
0010
0000
,
1000
0000
0001
0100
0001
0000
1000
0000
,
0010
0100
0010
1000
,
0100
0000
0010
0001
0010
0000
0001
0000
,
0100
1000
0100
0001
,
0010
1000
0010
0001
,
1000
1000
0001
0001
,
0100
0100
0010
0010
,
1000
0001
1000
0010
,
1000
0100
0001
0100
,
1001
0001
0010
0100
,
1100
1000
0010
0100
,
0110
0010
1000
0100
,
0011
0001
0010
0100
,
1000
0000
1000
0000
0001
1000
0001
0000
,
1000
0000
1000
0000
0001
0010
0001
0000
,
0100
0000
0100
0000
0010
0100
0010
0000
,
1000
1000
0001
0001
,
0100
0000
0010
0000
0100
0010
0100
0010
,
0100
0000
0010
0000
1000
0001
1000
0000
,
0001
0000
0100
0000
0010
0100
0010
0000
,
1000
0001
1000
0001
,
0100
0010
0100
0000
0010
0000
1000
0000
,
0100
0010
0001
1000
,
0001
1000
0001
1000
0001
0000
0100
0000
,
0010
0100
0010
0000
1000
0000
0001
0000
,
1000
0100
0010
0100
,
1000
0001
0010
0100
,
0010
0001
0100
0010
,
0100
0000
0001
1000
0000
0000
0000
0000
,
0001
1000
0010
1000
,
0001
0100
0010
0000
,
0100
0001
0010
0000
,
0001
1000
0010
0000
,
1000
0100
1000
0001
,
0010
0000
0001
0100
,
0010
1000
0010
0100
,
0001
0000
0010
0100
0000
0000
0000
0000
,
1000
0001
1000
0010
,
0100
0000
0010
1000
0000
0000
0000
0000
,
0001
0100
0010
0100
,
0010
0000
0100
0001
0000
1000
0001
0000
,
0000
0000
1000
0010
0100
0000
0010
0000
,
1000
0000
0001
1000
0000
0000
0000
0000
,
0001
0000
0000
0000
,
1000
0010
0000
0000
1000
0010
0000
0000
,
1000
0001
1000
0000
,
0001
1000
0001
1000
0001
0000
0000
0000
,
1000
0000
0001
1000
0000
1001
0000
0000
;
