#TITLE:Need Your Love -SF Dubstep Mix-;
#SUBTITLE:;
#ARTIST:Sota F.;
#TITLETRANSLIT:;
#SUBTITLETRANSLIT:;
#ARTISTTRANSLIT:;
#GENRE:;
#CREDIT:;
#BANNER:Need Your Love -SF Dubstep Mix-.png;
#BACKGROUND:Need Your Love -SF Dubstep Mix--bg.png;
#LYRICSPATH:;
#CDTITLE:;
#MUSIC:Need Your Love -SF Dubstep Mix-.mp3;
#OFFSET:4.420002;
#SAMPLESTART:52.829979;
#SAMPLELENGTH:15.000000;
#LASTBEATHINT:8.185308;
#SELECTABLE:YES;
#DISPLAYBPM:145.960007;
#BPMS:0.000000=146.000000
,64.000000=148.000000
,69.000000=146.000000
;
#STOPS:
;
#BGCHANGES:;
#KEYSOUNDS:;
#ATTACKS:;

//---------------dance-single - ----------------
#NOTES:
     dance-single:
     :
     Beginner:
     4:
     0.202650,0.234495,0.000000,0.000000,0.000000,147.000000,147.000000,0.000000,0.000000,0.000000,0.000000,0.202650,0.234495,0.000000,0.000000,0.000000,147.000000,147.000000,0.000000,0.000000,0.000000,0.000000:
0000
0000
0000
0000
0000
0000
0000
1000
,
0000
0000
0000
0001
0000
0000
0000
1000
,
0000
0000
0000
0010
0000
0010
0000
0010
,
0000
0000
0000
0100
0000
0100
0000
0001
,
0000
0000
0000
0010
0000
0010
0000
0001
,
0000
0000
0000
1000
0000
1000
0000
0100
,
0000
0000
0000
1000
0000
1000
0000
0010
,
0000
0000
0000
0100
0000
0100
0000
0001
,
0000
0000
0000
0000
0001
0000
0000
1000
,
0000
0001
0000
1000
0000
0000
0000
0010
,
0000
0000
0000
0010
0000
0000
0000
0000
,
0100
0100
0100
0000
,
0001
0000
1000
0000
,
0001
0000
0010
0000
,
0100
0000
1000
1000
,
1000
0000
0001
0000
,
0010
0000
0001
0000
,
0100
0000
0010
0000
,
1000
1000
1000
0000
,
0001
0000
0100
0100
,
0100
0000
0010
0000
,
1000
0000
0000
0000
,
0010
0000
0100
0000
,
0010
0000
1000
0000
,
0001
0000
1000
0000
,
0010
0000
0100
0000
,
0001
0000
0100
0000
,
0010
0000
1000
0000
,
0010
0100
0010
0000
,
1000
0000
0001
0000
,
1000
0000
0100
0000
,
1000
0000
0010
0000
,
0100
0000
0010
0000
,
1000
0000
0001
0000
,
1000
1000
1000
0000
,
0010
0000
0100
0000
,
0010
0010
0010
0000
,
1000
0000
0100
0000
,
0001
0000
0100
0000
,
1000
0000
0010
0000
,
0100
0100
0100
0000
,
0010
0000
1000
0000
,
0001
0001
0001
0000
,
0100
0000
0010
0000
,
0100
0100
0100
0000
,
0001
0000
0001
0000
,
1000
1000
1000
0000
,
0010
0000
0100
0000
,
0010
0010
0010
0000
,
1000
1000
1000
0000
,
0001
0000
0100
0100
,
0100
0000
0010
0000
,
1000
1000
1000
0000
,
0001
0000
0010
0000
,
0001
0000
0100
0100
,
0100
0000
0010
0000
,
1000
0000
0000
0000
,
0010
0010
0010
0010
,
0010
0010
0010
0000
,
0100
0100
0100
0000
,
0001
0001
0001
0001
;

//---------------dance-single - ----------------
#NOTES:
     dance-single:
     :
     Easy:
     6:
     0.296393,0.380270,0.067550,0.086850,0.000000,215.000000,208.000000,7.000000,9.000000,0.000000,0.000000,0.296393,0.380270,0.067550,0.086850,0.000000,215.000000,208.000000,7.000000,9.000000,0.000000,0.000000:
0000
0000
0000
0000
0000
0000
0000
1000
,
0000
0001
0000
1000
0000
0010
0000
1000
,
0000
0010
0000
0100
0000
0010
0000
2000
,
0000
0000
0000
3001
0000
0100
0000
0010
,
0000
0100
0000
0010
0000
1000
0000
0001
,
0000
1000
0000
0000
0000
0000
0000
0010
,
0000
0100
0000
0010
0000
0010
0000
2000
,
0000
0000
0000
3001
0000
0100
0000
0001
,
0000
0001
0000
1000
0000
1000
0000
0020
,
0000
0000
0000
0230
0000
0000
0000
0301
,
0000
0001
0000
1000
0000
1000
0000
0010
,
0000
0010
0000
0100
0000
0100
0000
0002
,
0000
1003
0000
1000
0000
0100
0000
0100
,
0000
0010
0000
0010
0000
0001
0000
0001
,
0000
1000
0000
0001
1000
0001
1000
0000
,
0100
0010
0001
0010
,
0001
0100
0010
0100
,
0001
0000
0001
0000
,
1000
0100
1000
0000
,
0010
0010
0010
0100
,
0100
0001
0010
0000
,
0001
0100
0010
0100
,
0001
1000
0001
0000
,
1000
0100
1000
0100
,
0010
0001
0010
0000
,
0001
0100
0001
0010
,
1000
0010
0001
0100
,
1000
0100
0001
0010
,
0100
1000
0100
0100
,
0010
0010
0001
0001
,
1000
0100
1000
0010
,
0100
0010
1000
0001
,
1000
1000
0100
0100
,
0010
0010
0001
0000
,
1000
0100
1000
0010
,
0100
0000
0001
0000
,
0100
0001
0100
0000
,
0010
1000
0100
0000
,
0010
0001
0100
0010
,
0100
0000
0001
1000
,
0001
0010
0100
1000
,
0001
1000
0001
0000
,
0100
0010
0100
0001
,
0000
0010
0001
0010
,
0001
0100
0010
0000
,
0100
0010
1000
0000
,
0001
1000
0001
0100
,
0000
0010
0100
0010
,
1000
1000
0100
0100
,
0010
0010
0002
0000
,
0003
1000
1000
0100
,
1000
0001
0020
0000
,
0030
0001
1000
0001
,
0010
0100
1000
0002
,
0003
1000
0100
1000
,
0010
0100
0020
0030
,
1000
0000
0000
0000
,
1001
0001
0011
0010
,
0110
0100
1100
0000
,
1001
0001
1001
0000
,
1000
0000
0010
1000
0000
1010
0000
0000
;

//---------------dance-single - ----------------
#NOTES:
     dance-single:
     :
     Hard:
     13:
     0.639657,0.645947,0.193000,0.424600,0.424600,464.000000,444.000000,20.000000,44.000000,0.000000,0.000000,0.639657,0.645947,0.193000,0.424600,0.424600,464.000000,444.000000,20.000000,44.000000,0.000000,0.000000:
// measure 0
0000
0000
0000
0000
,  // measure 1
0000
0000
0000
0000
,  // measure 2
0000
0000
0000
0000
,  // measure 3
0000
0000
0000
0110
,  // measure 4
1010
0000
0000
0000
1000
0000
0000
0001
0000
0000
1000
0000
0020
0000
0000
0000
,  // measure 5
1030
0000
0001
0100
0001
0000
0010
0000
0100
0000
1000
0000
0002
0000
0000
0000
,  // measure 6
0003
0000
1000
0000
0001
0000
0000
0101
0000
0000
0100
0000
0010
0000
0000
0000
,  // measure 7
0010
0000
1000
0000
0000
0000
0001
0000
1000
0010
1000
0000
1001
0000
0000
0000
,  // measure 8
0011
0000
0000
0000
1100
0000
0000
1000
0000
0000
0010
0000
0210
0000
0000
0000
,  // measure 9
0320
0000
1030
1000
0001
0001
2000
0000
,  // measure 10
0000
0000
0000
0000
3001
0000
0000
0101
0000
0000
0110
0000
1010
0000
0000
0000
,  // measure 11
1000
0000
0001
0000
0000
0000
0100
0000
0001
1000
0001
0000
2001
0000
0000
0000
,  // measure 12
3002
0000
0000
0000
0203
0000
0000
0000
0320
0000
0000
0000
1030
0000
0000
0100
,  // measure 13
0000
1000
0001
0010
0001
0100
0010
0010
,  // measure 14
1000
0000
0000
1000
0000
0000
0001
0000
0010
0000
0001
0000
0010
0000
0100
0000
1000
0000
0020
0000
0000
0000
0000
0000
,  // measure 15
1030
0100
0001
0100
1000
0010
0001
0001
,  // measure 16
0010
0000
1000
0000
0010
0100
0010
0000
1000
0001
1000
0000
0010
0000
0100
0000
,  // measure 17
0010
0000
1000
0001
0010
0001
1000
0001
,  // measure 18
0001
0000
0000
0100
0000
0000
0010
0000
0000
1000
0000
0100
0000
0010
0000
0001
0000
0100
0000
0010
0000
0100
0000
0000
,  // measure 19
0020
0000
0030
1000
0001
1000
0100
0010
,  // measure 20
0010
0000
0100
0000
0100
0000
0010
0000
0010
0000
0001
1000
0001
0000
1000
0000
,  // measure 21
0000
0010
0010
0100
0001
1000
0001
0100
,  // measure 22
0000
0000
0010
0000
1001
0000
0000
0000
1000
0100
1000
0000
0000
0000
0001
0000
,  // measure 23
0010
0100
1000
0001
1000
0100
0010
0001
,  // measure 24
0000
1000
0000
0000
0010
0000
0100
0000
0001
0000
0010
0000
0100
0000
1000
0001
,  // measure 25
0000
0001
0100
0000
0010
0000
1000
0000
0100
0000
1000
0000
0010
0000
0100
0000
,  // measure 26
0001
0000
0000
0000
0100
0000
0001
0000
1000
0001
1000
0000
0010
0000
0100
0000
,  // measure 27
0000
0100
0000
0000
0001
0000
0010
0000
0100
0000
1000
0000
0100
0000
0010
0000
,  // measure 28
0000
0001
0000
0000
0100
0000
0010
0000
1000
0000
0100
0000
1000
0000
0001
0000
,  // measure 29
0000
0100
0010
0100
0001
0010
1000
0010
,  // measure 30
0000
0000
0001
0000
1001
0000
0000
0000
1000
0001
1000
0000
0000
0000
0102
0000
,  // measure 31
0000
0000
0000
0103
0000
0000
0010
0000
0000
1000
0000
0100
0000
0010
0000
0001
0000
0010
0000
0100
0000
2000
0000
0000
,  // measure 32
0000
0000
3100
0001
0100
0000
1000
0000
0010
0000
0100
0000
0001
0000
0000
0010
,  // measure 33
0001
0000
0000
0001
1000
0000
0000
1000
0010
0000
0000
0000
0110
0000
0000
0100
,  // measure 34
0001
0000
0000
0001
1000
0000
0000
1000
0010
0000
0000
0010
0100
0000
0001
1000
,  // measure 35
0001
0000
1000
0000
0010
0000
0100
0000
0010
1000
0010
0000
1000
0000
0000
0000
,  // measure 36
0000
0000
0001
0100
0001
0000
1000
0000
0010
0000
1000
0000
0001
0000
0100
0010
,  // measure 37
0100
0000
0010
0100
0010
0000
2000
0000
0000
0000
3100
0000
0002
0000
0000
0000
,  // measure 38
0103
2000
0000
3010
0002
0000
0000
0013
,  // measure 39
1000
0000
0001
0000
1000
0000
0010
0100
0010
0100
0001
0000
0000
0000
0001
0000
,  // measure 40
0100
0000
0010
0000
0100
0000
0002
0000
0000
0000
1003
0000
0000
0000
0010
0100
,  // measure 41
0010
0100
0010
0100
0010
0000
1000
0000
0001
0000
0020
0000
0001
0000
0031
0000
,  // measure 42
0000
0000
1000
0000
0010
0000
0100
0000
0010
0000
1000
0000
0001
0000
0100
0001
,  // measure 43
0100
0001
0100
0001
0100
0000
0020
0000
0000
0000
1030
0000
0100
0000
0001
0000
,  // measure 44
0000
0000
1000
0000
0010
0000
0001
0000
1000
0000
0001
0000
0000
0000
1000
0010
,  // measure 45
1000
0010
1000
0010
1000
0000
0001
0000
0100
0000
0010
0000
0100
0000
0000
0000
,  // measure 46
0000
0001
0000
1000
0010
0000
1000
0000
0100
0000
1000
0000
0000
0000
0001
0100
,  // measure 47
0001
0000
0100
0010
0100
0000
0010
0000
1000
0000
0001
0000
0000
0000
0100
0000
,  // measure 48
0010
0000
1000
0000
0010
0000
0200
0000
0001
0000
0301
0000
0000
0000
1000
0100
,  // measure 49
1000
0100
1000
0100
1000
0000
0001
0000
1000
0000
0010
0000
0100
0000
0010
0000
,  // measure 50
0000
0000
0000
1000
0000
0000
0010
0000
0000
0100
0000
0001
0000
1000
0000
0010
0000
1000
0000
0001
0000
1000
0000
0000
,  // measure 51
0010
2000
0000
3200
0000
0320
0000
0032
,  // measure 52
0000
0000
0103
0000
0020
0000
0000
0000
2030
0000
0001
0000
0000
0000
3001
0100
,  // measure 53
0001
0100
0002
0000
0100
0000
0023
0000
1000
0000
0032
0000
0100
0000
0023
0000
,  // measure 54
1000
0000
0130
0000
0001
0000
0200
0000
1000
0000
1300
0000
0000
0000
0001
1000
,  // measure 55
0001
1000
0002
0000
0100
0000
0023
0000
1000
0000
0230
0000
0000
0000
2300
0000
,  // measure 56
0000
0000
3001
0000
0100
0000
0010
0000
0100
0000
0002
0000
0000
0000
1003
0010
,  // measure 57
1000
0010
1000
0000
0001
0000
0200
0000
0000
0000
0320
0000
0000
0000
2030
0000
,  // measure 58
0000
0000
3001
0000
0100
0000
0001
1000
0001
1000
0001
1000
0001
0000
2002
0000
,  // measure 59
0000
0000
0000
0000
0000
0000
0000
0000
0000
0000
3003
0000
0000
0000
1000
0001
,  // measure 60
0000
0100
0000
0001
0000
0000
1000
0010
0000
0001
0000
0010
0000
0000
1000
0100
,  // measure 61
0000
0001
0000
0100
0000
1000
0000
0000
0001
0000
0100
0000
0000
0100
0010
0100
,  // measure 62
0001
0000
1000
0000
0000
0010
1000
0000
0001
0000
0100
0000
0001
0000
0011
0000
,  // measure 63
0000
0101
1001
0000
0220
0000
0330
0000
;

//---------------dance-single - ----------------
#NOTES:
     dance-single:
     :
     Medium:
     10:
     0.366700,0.400656,0.009650,0.019300,0.000000,266.000000,265.000000,1.000000,2.000000,0.000000,0.000000,0.366700,0.400656,0.009650,0.019300,0.000000,266.000000,265.000000,1.000000,2.000000,0.000000,0.000000:
0000
0000
0000
0000
,
0000
0000
0000
0000
,
0000
0000
0000
0000
,
0000
0000
0000
0000
,
1000
0001
0100
0010
,
0100
0000
0001
0000
1000
0001
1000
0001
,
1000
0010
0100
0010
,
1000
0000
0001
1000
0000
0001
0100
0000
,
0010
0100
0001
0010
,
1000
0000
0010
0000
0000
0001
0100
1000
,
0100
0001
0000
0000
1000
0000
0001
0000
,
1000
0000
0010
0100
0000
0000
0010
0000
,
2000
0001
3002
1000
,
0103
0000
0010
0000
1000
0010
1000
0010
,
1000
0100
0010
1000
,
0010
0100
0000
0001
,
1000
0001
0100
0010
,
0100
0000
0001
0000
0000
0000
1000
0001
,
1000
0001
1000
0000
0000
0000
0100
0000
,
0010
0100
0000
0001
,
1000
0001
0100
0010
,
0000
0000
0100
0000
0001
0100
0001
0000
,
0000
0000
1000
0000
0010
1000
0000
0010
,
0000
0100
0001
1000
,
0001
0000
0100
0000
0010
1000
0010
0000
,
0100
0000
0001
0000
0010
0001
0010
0000
,
0001
0000
0100
0000
0010
0100
0010
0000
,
1000
0000
0100
0000
1000
0001
1000
0000
,
0001
0000
0100
0000
0010
0100
0010
0000
,
0100
0000
0001
0000
1000
0001
0000
1000
,
0000
0000
0001
0000
0100
0010
0000
0100
,
0000
0001
0010
0001
,
0010
0000
0001
0000
0100
0000
0010
0010
,
0100
1000
0001
1000
,
0001
0100
0010
0100
,
0010
0000
1000
0001
1000
0000
0001
0100
,
0000
0000
0001
1000
,
0001
0100
0010
0100
,
0010
0000
1000
0000
0000
0001
0000
0100
,
0000
0010
1000
0010
,
0000
0100
0001
0010
,
0000
0000
0001
0000
0100
0010
0100
0000
,
0010
1000
0100
1000
,
0010
0000
0100
0010
0100
0000
0001
0100
,
0001
0000
1000
0000
0001
1000
0000
0001
,
1000
0000
0010
0100
0010
0000
0100
0001
,
0100
0001
1000
0010
,
1000
0000
0100
0010
0100
0010
0100
0000
,
0001
0000
0010
0001
0010
0000
0001
0100
,
0001
0000
1000
0000
0010
0100
0010
0000
,
1000
0001
1000
0000
0001
0000
0100
0000
,
0010
1000
0100
0010
,
0001
0000
0100
0010
0100
0010
0100
0000
,
0001
1000
0010
1000
,
0010
0000
0100
0000
0010
1000
0010
0000
,
1000
0001
0100
0010
,
0100
0000
0001
1000
0001
1000
0001
1000
,
0001
0100
0010
0100
,
0010
0000
1000
0000
0010
1000
0000
0001
,
0100
0000
0000
0000
,
0000
0000
0001
1000
0001
0000
1000
0001
,
1000
0000
0010
1000
0010
0000
0100
0000
,
0000
0000
0010
1000
0010
1000
0010
0000
,
0000
0000
0100
0000
0001
0100
0000
0101
;

//---------------dance-single - ----------------
#NOTES:
     dance-single:
     :
     Challenge:
     15:
     0.867121,0.830503,0.617600,0.299150,0.892624,629.000000,565.000000,64.000000,31.000000,0.000000,0.000000,0.867121,0.830503,0.617600,0.299150,0.892624,629.000000,565.000000,64.000000,31.000000,0.000000,0.000000:
// measure 0
0000
0000
0000
0000
,  // measure 1
0000
0000
0000
0000
,  // measure 2
0000
0000
0000
0000
,  // measure 3
0000
0000
0000
1001
,  // measure 4
1010
0000
0000
0000
0101
0000
0000
1001
0000
0000
0010
0000
0120
0000
0000
0000
,  // measure 5
1030
0000
0001
0100
0001
0000
0010
0000
1000
0000
0010
0000
0022
0000
0000
0000
,  // measure 6
0033
0000
1000
0000
1100
0000
0000
0101
0000
0000
0100
0000
1100
0000
1000
0000
,  // measure 7
0010
0000
1010
0000
0000
0000
0001
0000
0100
0010
0100
0010
0100
0000
0000
0000
,  // measure 8
0011
0000
0000
0000
1100
0000
0000
1001
0000
0000
0010
0000
0210
0000
0000
0000
,  // measure 9
0320
0000
1030
1000
0001
0001
2002
0000
,  // measure 10
0000
0000
3003
0000
0110
0000
0000
0101
0000
0000
0110
0000
1000
0001
1000
0000
,  // measure 11
0001
1000
0001
1000
0001
1000
0001
0000
0010
0100
0010
0000
2001
0000
0000
0000
,  // measure 12
3200
0000
0000
0000
0320
0000
0000
0000
0032
0000
0000
0000
1003
0000
0000
1100
,  // measure 13
0000
0000
0100
0000
0010
0001
0010
0000
0001
0100
0001
0000
1000
0000
1010
0000
,  // measure 14
0010
0000
0000
0100
0000
0000
0010
0000
0000
0000
0000
0000
1000
0000
0000
0000
0001
0000
0000
0000
1000
0000
0000
0000
0100
0000
0000
0000
0010
0000
0000
0000
0001
0000
0000
0000
0021
0000
0000
0000
0000
0000
0000
0000
0000
0000
0000
0000
,  // measure 15
1030
0000
0100
0001
0100
0000
1000
0000
0010
0100
0010
0000
0100
0000
0100
0000
,  // measure 16
1001
0000
0000
0000
0000
0000
1000
0000
0000
0000
0000
0000
0010
0000
0000
0000
0100
0000
0000
0000
0001
0000
0000
0000
0100
0000
0000
0000
1000
0000
0000
0000
0100
0000
0000
0000
0001
0000
0000
0100
0000
0000
0000
0000
0000
0000
0000
0000
,  // measure 17
0100
0010
0000
0000
1000
0000
0100
0000
0010
0000
0001
1000
0001
0000
0101
0000
,  // measure 18
0100
0000
0000
1010
0000
0000
0010
0000
0000
1000
0100
1000
0100
0000
0000
1000
0001
1000
0001
0000
0000
0100
0000
0000
,  // measure 19
0120
0000
0000
0000
0130
0000
0001
0010
0001
0000
1000
0100
1000
0000
0110
0000
,  // measure 20
0010
0000
0101
0000
0100
0000
1020
0000
0000
0000
1030
0001
1000
0001
0010
0000
,  // measure 21
0100
1000
1000
1010
0001
1000
0001
0101
,  // measure 22
0000
0000
0110
0000
1001
0000
0000
0000
1000
0100
0010
0001
0100
0000
0001
1000
,  // measure 23
0001
1000
0100
0001
0010
1000
0010
0011
,  // measure 24
0000
0101
0000
0000
0010
0000
0100
0001
1000
0000
0010
0000
0100
0000
0101
0000
,  // measure 25
0001
0000
1000
0000
0100
0000
0010
0000
0001
0100
0001
0000
1000
0000
0001
0000
,  // measure 26
0101
0000
0000
0000
0100
0000
0001
0000
0010
0001
0010
0100
1000
0000
1100
0000
,  // measure 27
0000
0110
0000
0000
0011
0000
0010
0100
0010
0000
0100
1000
0001
0000
0011
0000
,  // measure 28
0000
0000
0000
0101
0000
0000
0000
0000
0000
0000
0000
0000
0110
0000
0000
0000
0000
0000
0010
0000
0000
0000
1000
0000
0000
0000
0100
0000
0000
0000
1000
0000
0000
0000
0000
0000
0001
0000
0000
0000
0000
0000
0101
0000
0000
0000
0000
0000
,  // measure 29
0100
0000
0010
1000
0010
1000
0001
0000
0100
0000
0010
0000
1000
0000
1010
0000
,  // measure 30
0000
0000
0000
0000
0000
0000
1001
0000
0000
0000
0000
0000
0101
0000
0000
0000
0000
0000
0000
0000
0000
0000
0000
0000
1000
0000
0001
0000
1000
0000
0001
0000
0000
0010
0000
0000
0100
0000
0000
0000
0000
0000
1002
0000
0000
0000
0000
0000
,  // measure 31
0000
0000
0103
0000
0010
0000
1000
0100
0001
0100
1000
0010
0001
0010
2000
0000
,  // measure 32
0000
0000
3100
0001
0100
0000
0010
0001
1000
0000
0100
0000
1000
0000
0000
0001
,  // measure 33
0100
0000
0000
0001
1000
0000
0000
1000
0010
0000
0000
0000
1001
0000
0000
0100
,  // measure 34
0001
0100
0000
0001
1000
0001
0000
1000
0010
1000
0000
0010
0100
0001
1000
0100
,  // measure 35
1000
0100
1000
0001
0010
0000
0100
0000
0010
0001
0010
0001
1000
0000
0000
0000
,  // measure 36
0100
0000
0010
0001
0010
0100
1000
0000
2010
0000
0000
0000
3001
0000
0010
0100
,  // measure 37
0010
0100
0010
0100
0010
0100
1000
0001
1000
0001
0100
0000
0002
0000
0000
0000
,  // measure 38
0103
0000
0010
1000
0010
1000
0010
1000
0200
0000
0000
0000
0000
0000
0310
0001
,  // measure 39
0100
0000
0001
0100
0001
0000
1000
0010
0100
0010
1000
0000
0001
0000
0100
0000
,  // measure 40
0010
0000
1000
0001
0100
0000
0001
0010
0001
0010
0002
0000
0000
0000
1003
0100
,  // measure 41
1000
0100
1000
0100
1000
0000
0010
0000
0100
0001
0100
0001
0100
0000
0000
0000
,  // measure 42
1001
0000
0000
1000
0010
0000
0100
0010
1000
0100
1000
0001
1000
0000
0100
0010
,  // measure 43
0100
0010
0001
0010
0001
1000
0002
0000
1000
0000
1003
0000
1100
0000
0000
0000
,  // measure 44
0001
0000
1000
0001
0010
0001
0010
0001
0010
0001
0010
0000
0000
0000
0100
0010
,  // measure 45
0100
0000
0000
0010
0000
0000
0100
0000
0000
0010
0000
0000
0100
0000
0000
0010
0000
0000
0100
0000
0000
0000
0000
0000
1000
0000
0000
0000
0100
0000
0000
0000
0010
0000
0000
0000
0002
0000
0000
0000
0000
0000
0000
0000
0000
0000
0000
0000
,  // measure 46
0003
1000
0000
0010
1000
0000
1010
0000
0100
0000
1000
0001
1000
0000
0010
0100
,  // measure 47
0010
0001
0010
0100
0010
1000
0010
0000
1000
0001
2000
0000
0000
0000
3100
0000
,  // measure 48
0010
0000
0001
0000
0010
0000
0100
0010
0001
0010
0100
0000
0000
0000
1000
0100
,  // measure 49
1000
0100
1000
0100
1000
0000
0001
0000
1000
0001
0010
0100
2000
0000
0000
0000
,  // measure 50
3001
0000
0000
0000
0000
0000
1000
0000
0000
0000
0000
0000
0010
0000
0000
0000
0000
0000
0100
0000
0000
0000
0001
0000
0000
0000
1000
0000
0000
0000
0010
0000
0000
0000
1000
0000
0000
0000
0001
0000
0000
0000
1000
0000
0000
0010
0000
0000
,  // measure 51
1000
0000
1000
0001
1000
0000
0100
1000
0100
0000
0010
0100
0010
0000
0001
0010
,  // measure 52
0001
0000
0100
0000
0010
1000
0010
0000
1000
0001
2000
0000
0000
0000
3001
0100
,  // measure 53
0001
0100
0010
1000
0010
1000
0001
0100
0001
0000
0001
0100
0001
0000
1000
0001
,  // measure 54
1000
0000
0100
0000
1000
0010
0200
0000
0001
0000
0301
0000
0100
0000
0001
1000
,  // measure 55
0001
1000
0001
0100
0001
0000
0100
1000
0100
0000
0001
0010
0100
0000
1000
0001
,  // measure 56
0100
0000
0010
0000
0110
0000
0000
0000
0100
0000
0102
0000
0000
0000
1003
0100
,  // measure 57
1000
0100
1000
0000
0010
0000
0100
0001
0100
0001
0100
0000
0010
0000
1000
0001
,  // measure 58
1000
0001
1000
0000
0010
0000
0100
0010
0100
0010
0100
0010
0100
0000
2002
0000
,  // measure 59
0000
0000
0000
0000
0000
0000
0000
0000
0000
0000
3003
0000
0000
0000
0100
0001
,  // measure 60
0000
1001
0000
1010
0000
0000
1000
0010
0000
0011
0000
1010
0000
0000
1000
0100
,  // measure 61
0000
0000
0000
0010
0000
0000
0000
0000
0000
0001
0000
0000
1000
0000
0000
0001
0000
0000
1000
0000
0000
0000
0100
0000
0000
0000
0010
0000
0000
0000
0001
0000
0000
1000
0000
0000
0000
0000
0000
0001
0000
0000
0010
0000
0000
0001
0000
0000
,  // measure 62
0100
0001
0010
0000
0001
1000
0001
0000
0100
0000
0010
0000
0001
0000
0011
0000
,  // measure 63
0000
1010
1001
0000
0220
0000
0330
0000
;
