#TITLE:Natsuiro DIARY -Summer Dazzlin' Vacation miX-;
#SUBTITLE:;
#ARTIST:猫叉王子 feat. TAG;
#TITLETRANSLIT:;
#SUBTITLETRANSLIT:;
#ARTISTTRANSLIT:Nekomata Ouji feat. TAG;
#GENRE:;
#CREDIT:;
#BANNER:Natsuiro DIARY -Summer Dazzlin' Vacation miX-.png;
#BACKGROUND:Natsuiro DIARY -Summer Dazzlin' Vacation miX--bg.png;
#LYRICSPATH:;
#CDTITLE:;
#MUSIC:Natsuiro DIARY -Summer Dazzlin' Vacation miX-.ogg;
#OFFSET:-2.380000;
#SAMPLESTART:90.699921;
#SAMPLELENGTH:15.000000;
#SELECTABLE:YES;
#DISPLAYBPM:155.000000;
#BPMS:0.000000=154.929993
;
#STOPS:
;
#BGCHANGES:;
#KEYSOUNDS:;
#ATTACKS:;

//---------------dance-single - ----------------
#NOTES:
     dance-single:
     :
     Beginner:
     3:
     0.159656,0.186010,0.000000,0.436320,0.000000,146.000000,146.000000,0.000000,57.000000,0.000000,0.000000,0.159656,0.186010,0.000000,0.436320,0.000000,146.000000,146.000000,0.000000,57.000000,0.000000,0.000000:
0000
0000
0000
0000
,
0000
0000
0000
0000
,
0100
0000
0000
0000
,
0010
0010
0010
0000
,
1000
0000
0001
0000
,
1000
0001
1000
0000
,
0001
0000
0010
0000
,
0002
0000
2003
0000
,
3200
0000
0320
0000
,
0032
0000
2003
0000
,
3200
0000
2300
0000
,
3002
0000
0000
0000
,
2000
0000
0000
0000
,
0000
0000
0000
3003
,
1000
0000
0000
0000
,
0010
0010
0010
0000
,
0100
0000
0000
0000
,
0001
0001
0002
0000
,
1003
0000
1000
0000
,
0100
0100
0200
0000
,
0310
0000
0010
0000
,
0001
0001
0002
0000
,
1003
0000
1000
0000
,
0100
0100
0200
0000
,
0310
0000
0010
0000
,
0010
0010
0020
0000
,
0031
0000
0001
0000
,
2000
0000
3002
0000
,
1003
0000
1000
0000
,
0200
0000
0320
0000
,
0032
0000
2003
0000
,
3200
0000
2300
0000
,
3200
0000
0302
0000
,
0103
0000
1000
0000
,
0020
0000
0230
0000
,
0302
0000
2003
0000
,
3200
0000
0310
0000
,
0001
0000
1000
0000
,
0001
0000
0010
0000
,
0200
0000
0000
0000
,
2300
0000
0000
0000
,
3002
0000
0000
0000
,
2003
0000
0000
0000
,
3020
0000
0000
0000
,
0000
0030
0100
0001
,
0100
0000
0000
0000
,
0001
1000
0001
0000
,
1000
0000
0000
0000
,
0010
0000
0000
0000
,
2000
0000
3002
0000
,
2003
0000
3200
0000
,
2300
0000
3020
0000
,
0230
0000
0302
0000
,
0023
0000
0230
0000
,
2300
0000
0000
0000
,
3001
0000
0000
0000
,
1000
0000
0000
0000
,
0001
0000
0000
0000
,
1000
0000
0000
0001
,
0000
0000
1000
0000
,
0000
0000
0001
0000
,
1000
0000
0001
0000
,
1000
0000
0000
0000
,
0010
0000
0000
0000
,
1000
0000
0010
0000
,
1000
0000
0010
0000
,
0100
0000
0001
0001
,
0001
0000
1000
0000
,
0100
0000
0100
0000
,
0010
0000
0010
0000
,
0001
0000
0001
0000
,
1000
0000
1000
0000
,
0100
0000
0100
0000
,
2000
0000
3002
0000
,
2003
0000
3020
0000
,
0230
0000
0302
0000
,
2003
0000
3002
0000
,
0203
0000
0320
0000
,
1030
0000
0100
0000
,
2000
0000
3001
0000
,
0010
0000
0100
0000
,
1000
0000
0000
0000
;

//---------------dance-double - ----------------
#NOTES:
     dance-double:
     :
     Easy:
     6:
     0.227455,0.278441,0.022964,0.199023,0.000000,208.000000,205.000000,3.000000,26.000000,0.000000,0.000000,0.227455,0.278441,0.022964,0.199023,0.000000,208.000000,205.000000,3.000000,26.000000,0.000000,0.000000:
00000000
00000000
00000000
00000000
,
00000000
00000000
00000000
00000000
,
00000000
00000000
00000000
00000000
,
00000000
00000000
00000000
00000000
,
00000000
00000000
00000000
00000000
,
00010000
00000000
00100000
00000000
,
10000000
01000000
00010000
00010000
,
00001000
00000000
00010000
00000000
,
00100000
00010000
00001000
00010000
,
00011000
00000000
00000000
00000000
,
00000000
00000000
00000000
00000110
,
00000000
00000001
00000100
00001000
,
00020000
00030000
00010000
01000000
,
00000000
10000000
01000000
00010000
,
00002000
00003000
00001000
00010000
,
00001000
00000100
00000010
00000000
,
00000100
00001000
00010000
00001000
,
00010000
01000000
00100000
00000000
,
01000000
00010000
00001000
00010000
,
00001000
00000010
00000100
00000000
,
00000010
00001000
00010000
00001000
,
00020000
00030000
00200000
00300000
,
01000000
00100000
00010000
00001000
,
00010000
00001000
00000100
00000000
,
00000001
00000100
00001000
00010000
,
00001000
00010000
01000000
00000000
,
10000000
01000000
00010000
00001000
,
00000010
00000001
00000100
00000000
,
00001000
00010000
00100000
10000000
,
02000000
03000000
00020000
00030000
,
00002000
00003000
00000020
00000030
,
00000002
00000000
00000003
00000100
,
00001000
00010000
00001000
00000100
,
00002000
00000000
00003000
00010000
,
01000000
00010000
00001000
00010000
,
01000000
00000000
10000000
00000000
,
00100000
00010000
00001000
00000000
,
00010000
00001000
00000100
00000000
,
00000001
00000010
00001000
00010000
,
01000000
00100000
01000000
00000000
,
10000000
01000000
00010000
00001000
,
00020000
00000010
00031000
00010000
,
00100000
00010000
00001000
00010000
,
00002000
00100000
00013000
00001000
,
00000100
00000001
00000010
00001000
,
00010000
00000000
00000000
00000000
,
00000000
00000000
01000000
10000000
,
01000000
00000000
00010000
00000000
,
00001000
00000000
00000100
00000010
,
00000200
00000300
00002000
00000000
,
00000000
00003000
00010000
00010000
,
01000000
00000000
01000000
00010000
,
00000000
00010000
00001000
00000010
,
00000001
00000001
00000100
00000010
,
00000100
00001000
00010000
00001000
,
00010000
00100000
10000000
01000000
,
00010000
00001000
00000000
00001000
,
00020000
00030000
01000000
10000000
,
00200000
00300000
00010000
00001000
,
00000200
00000300
00000001
00000010
,
00002000
00003000
00010000
00011000
,
00000020
00000130
00000200
00001300
,
00002000
00013000
00020000
00130000
,
10000000
00100000
00010000
00001000
,
00000010
00001000
00010000
01000000
,
20000000
30000000
02000000
03000000
,
00020000
00030000
00001000
00000010
,
00000001
00000010
00001000
00010000
,
00001000
00000000
00000000
00100000
,
02000000
00000000
00000000
00000000
,
03000000
00000000
00000000
00000000
,
00010000
00010000
00001000
00001000
,
00000010
00000000
00000000
00001000
00000000
00000000
00010000
00000000
,
00000000
00000000
00000000
00000000
;

//---------------dance-double - ----------------
#NOTES:
     dance-double:
     :
     Medium:
     11:
     0.421011,0.446271,0.061238,0.045928,0.042101,385.000000,377.000000,8.000000,6.000000,0.000000,0.000000,0.421011,0.446271,0.061238,0.045928,0.042101,385.000000,377.000000,8.000000,6.000000,0.000000,0.000000:
00000000
00000000
00000000
00000000
,
00000000
00000000
00000000
00000000
,
00000000
00000000
00000000
00000000
,
00000000
00000000
00000000
00000000
,
00000000
00000000
00000000
00000000
,
00000200
00000300
00000020
00000030
,
00001000
00011000
01010000
00011000
,
00000200
00000300
00000020
00000030
,
00000001
00000100
00001000
00010000
,
00001000
00010000
00001000
00000100
00000000
00000001
00000100
00000010
,
00000000
00000100
00001000
00010000
00000000
00001000
00010000
00001000
,
00010000
01000000
10000000
00100000
,
00010000
00001000
00010000
00001000
00000100
00000010
00000100
00000000
,
00000001
00000010
00001000
00010000
,
00100000
00000000
00000000
10000000
00000000
00000000
01000000
00000000
00000000
00010000
00000000
00000000
00001000
00000000
00000000
00000000
,
00000010
00000000
00000001
00000000
00000010
00001000
00010000
00001000
,
00000000
00001000
00010000
00001000
00000100
00000010
00000100
00000000
,
00000100
00000000
00001000
00000000
00010000
00001000
00010000
01000000
,
00000000
00100000
01000000
00100000
01000000
00010000
00001000
00010000
,
01000000
00000000
00010000
00000000
00010000
00001000
00010000
00001000
,
00000000
00001000
00000100
00000010
00000100
00001000
00010000
00000000
,
00001000
00000000
00000100
00000001
00000010
00000000
00001000
00000000
,
00010000
00011000
01010000
00011000
,
00000100
00000000
00000010
00000000
00000001
00000100
00001000
00000100
,
00000000
00000100
00001000
00010000
00100000
00010000
00001000
00000000
,
00001000
00000000
00010000
00000000
01000000
00100000
01000000
00010000
,
00000000
01000000
10000000
01000000
00010000
00001000
00010000
00001000
,
00000010
00000000
00000001
00000000
00000010
00000100
00000010
00001000
,
00000000
00001000
00010000
00001000
00010000
00100000
01000000
00100000
,
00010000
00000000
00010000
00001000
00000010
00000000
00000010
00000100
,
00001000
00000000
00001000
00000010
00000100
00000000
00000000
00000000
,
00001000
00000000
00011000
00000000
00000000
00010000
00001000
00000100
,
00000000
00000010
00000000
00000100
00000000
00000100
00001000
00010000
,
00001000
00000000
00011000
00000000
00000000
00001000
00010000
01000000
,
00000000
00100000
00000000
01000000
00000000
01000000
00010000
00001000
,
00010000
00000000
00000010
00000100
00000000
00001000
00010000
00001000
,
00000000
00000100
00000010
00000100
00000001
00000000
00000010
00000000
,
00001000
00000000
00010000
00000000
00100000
01000000
00100000
00010000
,
00000000
00001000
00010000
00001000
00010000
00001000
00000010
00001000
,
00000010
00000000
00001000
00000000
00010000
00001000
00010000
00000010
,
00000000
00000100
00000010
00000100
00001000
00010000
00001000
00010000
,
01000000
00010000
01000000
00010000
00000000
00001000
00010000
00001000
,
00000000
00001000
00000010
00000100
00000010
00000000
00001000
00000000
,
00010000
00100000
01000000
00100000
00000000
00100000
00010000
00001000
,
00000000
00001000
00000100
00000010
00000100
00000000
00001000
00000000
,
00020000
00001000
00000000
00001000
,
00000000
00031000
00001000
00000010
,
00000001
00000000
00000100
00000010
00000000
00000100
00001000
00000000
,
00001000
00010000
00000000
00010000
00001000
00000000
00010000
00000000
,
01000000
00000000
00000000
10000000
00000000
00000000
00100000
00000000
00000000
00010000
00000000
00000000
00001000
00000000
00000000
00000010
,
00000000
00000000
00001000
00000000
00000000
00010000
00000000
00000000
00001000
00000000
00000000
00100000
00000000
00000000
00001000
00000000
,
00010000
00001000
00000000
00001000
00010000
00000000
01000000
00100000
,
00000000
00100000
01000000
00000000
10000000
00000000
01000000
00000000
,
00010000
00001000
00010000
00001000
00000000
00001000
00000100
00000010
,
00000000
00000010
00000100
00001000
00000000
00001000
00010000
00001000
,
00000000
00100000
00001000
00010000
00100000
00010000
00001000
00010000
,
00100000
01000000
00100000
01000000
00000000
01000000
00010000
00000000
,
00100000
00000000
00100000
01000000
00010000
00000000
00010000
00001000
,
00010000
00000000
00001000
00010000
00000100
00000000
00000010
00000100
,
00000010
00000000
00000001
00000100
00000001
00000000
00000100
00000000
,
00001000
00000000
00010000
00100000
,
10000000
01000000
10000000
01000000
00000000
01000000
00010000
00001000
,
00000000
00001000
00010000
00100000
00000000
00100000
00010000
00001000
,
00000000
00001000
00000010
00000100
00000010
00001000
00010000
00001000
,
00010000
01000000
00010000
01000000
00010000
00001000
00010000
00001000
,
00000010
00000001
00000100
00001000
,
00020000
00030000
00100000
00010000
,
00001000
00010000
00001000
00010000
00001000
00000100
00000010
00000100
,
00000010
00000000
00000000
00000100
00000000
00000000
00001000
00000000
00000000
00010000
00000000
00000000
01000000
00000000
00000000
00000000
,
10000000
00100000
00010000
00000000
00100000
00010000
00001000
00000000
,
00010000
00001000
00100000
00000000
00001000
00010000
00001000
00000000
,
00001000
00000010
00000100
00001000
00000010
00000100
00001000
00010000
,
00100000
00000000
00000000
00010000
00000000
00000000
00001000
00000000
00000000
00010000
00000000
00000000
01000000
00000000
00100000
00000000
,
00000000
00000000
00000000
00000000
;

//---------------dance-double - ----------------
#NOTES:
     dance-double:
     :
     Hard:
     15:
     0.624408,0.669407,0.206678,0.038274,0.298535,571.000000,544.000000,27.000000,5.000000,0.000000,0.000000,0.624408,0.669407,0.206678,0.038274,0.298535,571.000000,544.000000,27.000000,5.000000,0.000000,0.000000:
00000000
00000000
00000000
00000000
,
00000000
00000000
00000000
00000000
,
00000000
00000000
00000000
00000000
,
00000000
00000000
00000000
00000000
,
00000000
00000000
00000000
00000000
,
00010000
00001000
00010000
00001000
00010000
00000000
00000100
00000000
00000010
00000100
00000010
00000100
00000010
00000000
00001000
00000000
,
00010000
00001000
00010000
00000000
00001000
00000100
00000010
00000000
,
00000100
00000001
00000100
00000001
00000100
00000000
00001000
00000000
00010000
00001000
00010000
00001000
00010000
00000000
01000000
00000000
,
00100000
00000000
00001000
00000000
00010000
00000000
00100000
00000000
00010000
00000000
00000000
00001000
00010000
00000000
00000000
00000000
,
00001000
00000100
00000001
00000200
00000300
00001000
00010000
00200000
,
00300000
00010000
00001000
00000020
00000030
00001000
00010000
00000000
,
00010000
01000000
10000000
00100000
00010000
00001000
00000010
00000001
,
00000100
00000000
00001000
00000000
00010000
00000000
00001000
00010000
00001000
00000000
00000100
00000000
00000001
00000000
00000010
00000000
,
00001000
00000000
00010000
00000000
01000000
00000000
00010000
00000000
00001000
00000000
00000010
00000000
00000001
00000100
00000001
00000000
,
00000100
00000000
00000000
00011000
00000000
00000000
01010000
00000000
00000000
01100000
00000000
00000000
00011000
00000000
00000000
00000000
,
00001000
00000000
00000010
00000001
00000010
00001000
00010000
01000000
,
10000000
00100000
01000000
00100000
00010000
00001000
00000010
00000001
,
00000100
00000000
00001000
00010000
00100000
10000000
01000000
00010000
,
00001000
00000000
00000010
00000000
00001000
00000000
00010000
00000000
00001000
00000000
00000100
00000000
00000001
00000000
00000010
00000100
,
00000010
00000000
00001000
00010000
00100000
10000000
00100000
00010000
,
00001000
00000000
00000100
00000000
00000001
00000000
00000010
00000000
00001000
00000000
00010000
00000000
01000000
00000000
00100000
01000000
,
00100000
00000000
00000000
00000000
01000000
00000000
00010000
00000000
00001000
00000000
00000000
00000000
00010000
00000000
00001000
00010000
,
00001000
00000000
00000000
00000000
00000110
00000000
00000000
00000000
00000001
00000000
00000010
00000100
00000010
00000000
00000000
00000000
,
00001001
00000000
00000100
00001000
00010000
00100000
10000000
00100000
,
00010000
00001000
00010000
01000000
00010000
00001000
00000100
00000001
,
00000010
00000000
00001000
00010000
00001000
01000000
10000000
01000000
,
00010000
00000000
00100000
00000000
01000000
00000000
00010000
00000000
00001000
00000000
00000100
00000000
00000010
00000000
00000100
00000010
,
00000100
00000000
00001000
00010000
00001000
00100000
01000000
10000000
,
00100000
00000000
00010000
00000000
00001000
00000000
00000010
00000000
00000001
00000000
00000010
00000000
00001000
00000000
00010000
00001000
,
00010000
00000000
00001000
00000000
00000100
00000010
00000000
00000100
00000001
00000000
00000010
00000000
00001000
00010000
00000000
00001000
,
00100000
00000000
01000000
00000000
00100000
00000000
00001000
00000000
00010000
00001000
00010000
00000000
00001000
00010000
00001000
00000000
,
00020000
00000000
01000000
00000000
00031000
00000010
00000001
00000100
,
00001000
00000000
00010000
00000000
00100000
00000000
00010000
00000000
00001000
00000000
00010000
00001000
00010000
00000000
00000100
00000000
,
00020000
00000000
00001000
00000000
01030000
10000000
00100000
00010000
,
00001000
00000000
00000100
00000000
00000010
00000000
00000100
00000000
00001000
00000000
00010000
00001000
00010000
00000000
00001000
00000000
,
00010000
00001000
00000100
00000001
00000000
00001000
00010000
01000000
,
00000000
00000000
00001000
00000000
00010000
00000000
00001000
00000000
00100000
00000000
00000000
00001000
00010000
00000000
00001000
00000000
,
00000100
00000000
00000010
00000000
00000100
00000000
00000001
00000100
00000001
00000000
00000010
00000000
00001000
00000000
00010000
00000000
,
00000000
00000000
00001000
00000000
00010000
00000000
00000100
00000000
00000010
00000000
00001000
00010000
00001000
00000000
00010000
00000000
,
00100000
00000000
01000000
00000000
00010000
00000000
01000000
00010000
01000000
00000000
00100000
00000000
00010000
00000000
00001000
00000000
,
00000000
00000000
00000100
00000000
00000010
00000000
00000001
00000000
00000010
00000000
00001000
00000010
00001000
00000000
00000100
00000000
,
00010000
00001000
00010000
01000000
00000000
10000000
00100000
00010000
,
00000000
00001000
00000010
00000001
00000100
00000000
00001000
00000000
,
00100000
01000000
00000000
00011000
00000000
00000110
00000000
00011000
,
00000000
00000000
00100000
00000000
00010000
00000000
00001000
00000000
00010000
00001000
00010000
00000000
00000100
00000000
00000000
00000000
,
00000010
00000000
00001000
00010000
00001000
00000000
00100000
00000000
00001000
00010000
00001000
00000000
01000000
00000000
00001000
00010000
,
00001000
00000000
00000100
00000000
00000010
00000100
00000010
00000000
00000100
00000000
00001000
00010000
00001000
00000000
00010000
00000000
,
01000000
00100000
01000000
00000000
00100000
00000000
00001000
00010000
00001000
00000000
00010000
00000000
00100000
01000000
00100000
00000000
,
00010000
00000000
00001000
00010000
00001000
00000000
00010000
00000000
00001000
00000000
00000010
00000000
00000100
00000010
00000100
00000000
,
00000001
00000000
00000000
00001100
00000000
00000000
00011000
00000000
00000000
00101000
00000000
00000000
01100000
00000000
00000000
11000000
,
00000000
00000000
01010000
00000000
00000000
00011000
00000000
00000000
00001010
00000000
00000000
00000110
00000000
00000000
00001100
00000000
,
00010000
00001000
00010000
00001000
00000000
00000000
00001000
00000100
00001000
00000100
00000000
00000000
00000010
00000001
00000010
00000001
,
00000000
00000000
00000100
00000010
00000100
00000010
00000000
00000000
00001000
00000000
00010000
00001000
00010000
00000000
00000000
00000000
,
00001000
00010000
01000000
10000000
01000000
00010000
00001000
00010000
,
00001000
00000100
00000001
00000010
00001000
00010000
00001000
00000010
,
00000001
00000010
00001000
00010000
00100000
00010000
00001000
00000100
,
00000001
00000000
00000100
00000010
00000100
00000000
00000001
00000000
00000000
00000000
00000100
00000000
00001000
00000000
00010000
00000000
,
00100000
00000000
00010000
00001000
01000000
00100000
00010000
00001000
,
00000010
00000000
00001000
00010000
00100000
10000000
01000000
00010000
,
00001000
00000000
00000000
00000000
00000010
00000000
00000001
00000000
00000010
00000000
00000100
00000010
00000100
00000000
00001000
00000100
,
00001000
00000000
00000000
00000000
00011000
00000000
00000000
01000000
00100000
01000000
00100000
01000000
00100000
00000000
10000000
00000000
,
01000000
00010000
00001000
00000010
00001000
00010000
00001000
00000100
,
00001000
00010000
01000000
00010000
00001000
00010000
00100000
00010000
,
00001000
00000100
00000001
00000010
00001000
00010000
01000000
10000000
,
00100000
00000000
00010000
00000000
00001000
00000000
00000100
00000000
00000001
00000000
00000100
00000010
00000100
00000000
00000010
00000000
,
00000100
00001000
00010000
00000000
00010000
01000000
10000000
00000000
,
10000000
00000000
00100000
00000000
00010000
00000000
00001000
00010000
00001000
00000000
00000100
00000000
00000001
00000000
00000100
00000000
,
00001000
00000000
00010000
00000000
00001000
00010000
00000000
01000000
00100000
00000000
01000000
00000000
00010000
00001000
00000000
00001000
,
00010000
00000000
00000000
00101000
00000000
00000000
00011000
00000000
00000000
00010100
00000000
00000000
00000110
00000000
00000000
00000000
,
00000001
00000000
00000010
00000100
00000010
00000000
00000100
00000000
00010000
00001000
00010000
00000000
00001000
00000000
01000000
00010000
,
01000000
00000000
00100000
00000000
00010000
00001000
00010000
00000000
00001000
00000000
00000100
00000010
00000100
00000000
00000010
00000000
,
00000100
00001000
00010000
00100000
00010000
00001000
00010000
01000000
,
00010000
00000000
00000000
00001000
00000000
00000000
00000110
00000000
00000000
00011000
00000000
00000000
00000100
00000000
00000110
00000000
,
00000000
00000000
00000000
00000000
;

//---------------dance-single - ----------------
#NOTES:
     dance-single:
     :
     Easy:
     6:
     0.318218,0.435363,0.099512,0.398047,0.000000,291.000000,278.000000,13.000000,52.000000,0.000000,0.000000,0.318218,0.435363,0.099512,0.398047,0.000000,291.000000,278.000000,13.000000,52.000000,0.000000,0.000000:
0000
0000
0000
0000
,
0000
0000
0000
0000
,
1000
0000
0001
1000
,
0001
1000
0100
1000
,
0100
0010
0001
1000
,
0002
1003
0100
1000
,
0010
0100
0001
0010
,
0200
1300
2001
3000
,
1020
0030
1001
0001
,
0100
0010
1000
0100
,
0010
0001
1000
0100
,
2000
3002
0203
0320
,
2030
0000
0000
0000
,
0002
0000
0000
0000
,
3003
0000
0000
0000
,
1100
0100
0100
0100
,
0010
0001
0010
1000
,
0010
0010
0001
0100
,
0020
1030
0100
0010
,
0002
2003
3100
0010
,
0001
1000
0001
0010
,
0200
1300
0001
0010
,
0002
1003
0100
1000
,
0020
0130
0001
1000
,
0001
0000
0000
0000
,
0100
0010
1000
0010
,
2000
3001
1000
0001
,
1000
0010
0200
0310
,
0000
0000
1000
0001
,
1000
1000
0001
0100
,
0010
1000
0100
0001
,
0200
0000
0000
2000
0300
0000
0020
3000
,
0000
0002
0030
0000
0200
0003
2300
0000
,
3200
0000
0301
0010
,
0002
1003
0100
1000
,
0020
0130
0001
2000
,
3001
0100
0002
0013
,
0200
1300
0010
0200
,
0301
1000
0001
2000
,
3020
0000
0000
0200
0030
0000
0002
0300
,
0000
1003
0100
1000
,
0020
0130
0001
0010
,
0200
1300
0001
1000
,
0002
0013
0100
2000
,
3001
0100
0020
1030
,
0100
0010
0001
0010
,
0100
1000
0001
1000
,
1000
1001
0001
1001
,
1000
1010
0010
0010
,
0100
0100
0001
0001
,
1000
1000
0010
0010
,
0001
0011
0010
1010
,
1000
1100
0100
0101
,
0100
1100
1000
1010
,
0010
0100
0001
0010
,
0200
0000
0000
0000
,
0310
1000
0010
0000
,
1000
0001
0000
1000
,
0001
0000
0100
0010
,
0100
0001
0010
0100
,
1000
0001
0010
0001
,
2000
0000
3100
1000
,
0020
0000
0130
0001
,
0200
0300
0001
0010
,
0200
0000
1300
0010
,
1000
0001
0100
0010
,
1000
0010
0100
0001
,
0010
0100
1000
0001
,
1000
0010
1000
0100
,
0020
0000
0031
1000
,
0001
1000
1000
0010
,
0200
0000
0301
1000
,
0001
0010
0001
0100
,
0020
0000
1030
0000
,
1000
0000
0001
0001
,
0200
0000
0310
0010
,
1000
1000
0100
0100
,
0020
0031
0010
0001
,
0100
0010
0100
0010
,
2000
3001
1000
0001
,
0100
0010
1000
0100
,
0020
0030
0000
0000
;

//---------------dance-single - ----------------
#NOTES:
     dance-single:
     :
     Medium:
     11:
     0.404608,0.559753,0.237297,0.244952,0.000000,370.000000,339.000000,31.000000,32.000000,0.000000,0.000000,0.404608,0.559753,0.237297,0.244952,0.000000,370.000000,339.000000,31.000000,32.000000,0.000000,0.000000:
0000
0000
0000
0000
,
0000
0000
0000
0000
,
1000
0000
0001
0000
1000
0001
1000
0000
,
0020
0000
0130
0000
0001
0100
0001
0000
,
1000
0010
0100
0010
,
1010
0000
1000
0000
0100
0010
0001
0000
,
0010
0100
1000
0001
,
1001
1000
1010
0010
,
0110
0100
0101
0001
,
1001
1001
0110
0110
,
1100
1100
0011
0011
,
0001
1000
0001
1000
0001
1000
0001
1000
,
0001
1000
0001
1000
0001
1000
0001
1000
,
0002
0000
0000
0000
,
1003
0000
0000
0000
,
1010
0000
0010
0000
0100
0001
0010
0000
,
0100
1000
0001
1000
,
0001
0000
0100
0000
0010
1000
0100
0020
,
0000
0031
0100
0010
0000
0000
0000
0000
,
1000
0000
0100
0000
1000
0100
1000
0200
,
0000
0300
0010
0000
0000
0001
0010
0001
,
0010
0000
1001
0000
1000
0100
1000
0200
,
0000
0310
0001
0100
0001
1000
0001
0010
,
0002
0000
2003
0000
3010
0100
0000
0101
,
0000
0001
0000
1000
0000
0100
1000
0100
,
1000
0000
0010
0000
0100
0001
0100
0001
,
0000
1000
0001
1000
0000
0010
1000
0000
,
0010
0000
1000
0000
0100
0010
0100
0010
,
0000
0001
1000
0001
,
1000
0100
0010
0100
,
1000
0001
1000
0001
,
0200
0000
0000
0320
0000
0000
2030
0000
,
0000
3200
0000
0000
0320
0000
0032
0000
,
2003
0000
0000
0000
0000
3000
0001
1000
,
0200
0000
0000
2300
0000
0000
3002
0000
,
0013
0001
0010
0100
0000
1000
0100
1000
,
0010
1000
0000
0001
0100
0000
0010
0000
,
0100
0001
0100
0000
0000
0000
0010
0000
,
1000
0000
0100
0000
1000
0001
1000
0000
,
0002
0000
0000
0203
0000
0000
0320
0000
,
0000
2030
0000
0000
3200
0000
0320
0000
,
0032
0000
0000
0000
0000
0000
1003
0100
,
1000
0001
0010
0001
,
0100
0010
0100
0010
0000
1000
0010
1000
,
0010
0000
0000
0100
0001
0100
0001
0000
,
1000
0100
1000
0010
,
0100
0001
1000
0001
,
0200
0000
0320
0000
,
2030
0000
3200
0000
,
2300
0000
0001
0000
0002
3000
0100
0000
,
0203
0010
0310
0100
,
1000
0100
1000
0001
,
0011
0010
0110
0100
,
1100
1100
0101
0101
,
1100
1001
0110
1001
,
1001
0000
0000
0000
,
0000
0000
0000
0000
,
1000
0100
1000
0000
0001
0000
0010
0000
,
0001
0010
0001
0000
0100
0000
0010
0000
,
1000
0100
0010
0001
,
0010
1000
0010
0001
,
1001
1000
0010
0100
,
0010
1000
1100
0100
,
0001
0100
1000
0010
,
0001
0010
1000
0001
,
0100
0001
0100
0001
0000
0100
0001
0100
,
0000
0010
0000
0000
1000
0000
0100
0000
,
0010
0001
0010
0001
,
0100
0000
0010
0000
0100
0010
0100
0000
,
0001
0010
0001
0000
1000
0000
0001
0000
,
1000
0100
0010
0001
,
0100
0110
0010
1000
,
0100
1000
0001
0100
,
0010
0100
0010
0000
0100
0000
0001
0000
,
1000
0000
0001
0000
1000
0001
1000
0000
,
0001
0000
0100
0000
0010
0100
0010
0000
,
0100
0001
1000
0100
,
1100
1000
0010
0100
,
0001
0000
0010
0000
0100
0010
0100
0000
,
0010
0100
1000
0001
,
0100
0000
0001
0000
0100
0001
0100
0000
,
0002
0003
0000
0000
;

//---------------dance-single - ----------------
#NOTES:
     dance-single:
     :
     Hard:
     15:
     0.785158,0.870727,0.505213,0.290880,0.581760,718.000000,652.000000,66.000000,38.000000,0.000000,0.000000,0.785158,0.870727,0.505213,0.290880,0.581760,718.000000,652.000000,66.000000,38.000000,0.000000,0.000000:
// measure 0
0000
0000
0000
0000
,  // measure 1
0000
0000
0000
0000
,  // measure 2
0000
0000
0000
0000
,  // measure 3
0001
0000
0101
0000
1000
0010
1000
0001
,  // measure 4
0100
0010
0100
0000
0001
0100
1000
0100
,  // measure 5
0001
0010
0001
0100
0010
0010
0010
0000
,  // measure 6
1000
0100
1000
0000
0001
0000
0100
0001
0100
0001
0100
0000
0010
0000
1000
0000
,  // measure 7
1001
0001
0101
0100
,  // measure 8
0110
0010
1010
1000
,  // measure 9
1100
0110
0011
1001
,  // measure 10
1010
0110
0101
0011
,  // measure 11
1010
1000
0100
0010
0001
1000
0100
0010
,  // measure 12
0001
0010
1000
0010
0001
0100
1000
0100
,  // measure 13
0001
1000
0001
1000
0010
0100
0010
0100
0001
0010
0001
0010
0100
1000
0100
1000
,  // measure 14
0001
0000
0000
1001
,  // measure 15
0101
0000
0000
0000
0110
0000
0000
0000
0010
0000
1000
0000
0100
0000
0001
0100
,  // measure 16
0000
0000
0100
1000
0000
0000
1000
0001
0000
0000
0001
0000
0100
0000
0000
0000
,  // measure 17
1100
0000
0110
0000
1000
0010
0001
0010
,  // measure 18
0100
0000
0000
0100
0001
0000
0010
0000
0001
0000
1000
0000
0100
0000
1000
0000
,  // measure 19
1001
0000
0101
0000
0100
0010
0001
0010
,  // measure 20
2000
0000
3001
0100
0001
0010
0210
0000
,  // measure 21
1300
0000
1001
0000
0001
0100
1000
0200
,  // measure 22
0000
0000
0310
0000
1000
0100
1000
0000
0001
1000
0001
0000
0010
0001
0010
0000
,  // measure 23
0101
0000
0000
0000
0110
0000
0000
0000
0010
1000
0010
0000
1000
0000
0001
0100
,  // measure 24
0001
0000
0100
0010
0100
0000
0010
0000
0000
0000
1000
0000
0001
0000
0010
0000
,  // measure 25
0001
0100
0001
0000
0100
0010
0100
0000
0010
0000
1000
0000
0100
0000
0010
0001
,  // measure 26
0010
0001
0100
1000
0100
0001
0010
0100
,  // measure 27
1000
0001
1000
0000
0001
0100
0001
0000
0100
0000
0010
0000
1000
0000
0100
0000
,  // measure 28
0010
0000
0100
0000
1000
0000
0001
0000
0010
0000
0001
0100
0002
0000
0000
0000
,  // measure 29
1003
0010
1000
0000
0001
1000
0001
0000
0100
0001
0100
0000
0010
0000
1000
0001
,  // measure 30
1000
0001
0100
0010
0100
0010
1000
0100
1000
0100
0010
0001
0010
0001
0100
0000
,  // measure 31
0001
1000
0020
0000
0000
0000
0130
0001
2000
0000
0000
0000
3001
0100
0002
0000
,  // measure 32
0000
0000
1003
0010
2000
0000
0000
0000
3010
0100
0001
0000
0100
0010
1000
0000
,  // measure 33
0001
1000
0000
0010
0000
0100
0001
0010
,  // measure 34
0002
0000
0000
0000
0103
0000
0010
1000
0100
0000
1000
0000
0001
0000
0010
0000
,  // measure 35
0001
0100
0010
0000
1000
0000
0010
0000
0000
0000
1000
0000
0100
0001
0100
0000
,  // measure 36
1000
0000
0010
0000
0000
0000
0100
0000
0001
0010
0001
0000
1000
0000
0100
0000
,  // measure 37
0010
0100
0010
0000
0001
0000
2000
0000
0000
0000
3001
0000
0100
0010
1000
0000
,  // measure 38
0001
1000
0002
0000
0000
0000
0103
0000
0010
1000
0100
1000
0001
0010
0001
0100
,  // measure 39
0020
1000
1000
0032
0100
0100
2003
0100
,  // measure 40
0100
3002
0010
0010
0203
0000
2300
0001
,  // measure 41
3001
0000
0100
0010
1000
0000
0010
0000
0100
0000
0001
0000
1000
0001
0010
0001
,  // measure 42
2000
0100
0100
3002
0100
0100
1003
0100
,  // measure 43
0010
0000
0010
0000
0001
1000
0020
0000
0000
0000
1030
0000
0100
0000
0100
0000
,  // measure 44
0010
0001
0200
0000
0000
0000
0310
0000
1000
0001
0010
0001
0100
0010
1000
0010
,  // measure 45
0100
0000
0001
0000
0011
0000
0010
1000
0010
0000
0001
0000
0100
1000
0100
0000
,  // measure 46
0001
0000
0010
0100
0010
0000
0100
0000
1000
0001
1000
0001
0100
0000
0010
0000
,  // measure 47
1000
0000
0000
1100
0000
0000
0110
0000
0011
0000
0000
0101
0000
0000
0110
0000
,  // measure 48
1010
0000
0000
1001
0000
0000
0011
0000
0110
0000
0000
1100
0000
0000
1010
0000
,  // measure 49
0110
0000
0000
0101
0000
0000
1001
0000
1001
0000
0000
1010
0000
0000
0110
0000
,  // measure 50
0110
0000
0000
0101
0000
0000
1001
0000
1010
0000
0000
0110
0000
0000
0101
0000
,  // measure 51
1001
0110
1001
0110
,  // measure 52
1100
0011
1100
0011
,  // measure 53
1000
1000
0010
0010
0100
0100
0001
0001
,  // measure 54
1000
0100
1000
0100
0010
0001
0010
0001
0100
0010
0100
0010
1000
0001
1000
0000
,  // measure 55
0000
0000
0000
0000
,  // measure 56
0000
0000
0000
0000
1000
0001
1000
0000
0010
0000
0100
0000
0101
0000
0000
0000
,  // measure 57
0001
0000
0010
0000
0100
1000
0010
0000
1000
0000
0010
0100
0001
0000
0100
0010
,  // measure 58
1000
0000
0010
0000
1000
0000
0001
0000
0001
0000
0100
0000
0010
0000
1000
0100
,  // measure 59
0010
0000
0001
0000
1000
0000
0010
0000
1000
0000
0001
0100
0010
0100
0001
0000
,  // measure 60
1000
0000
0010
1000
0001
1000
0010
0000
0100
0000
0001
0010
0100
0010
0001
0000
,  // measure 61
1000
0010
0200
0000
0000
0000
0310
0000
1000
0001
0200
0000
0000
0000
0301
0000
,  // measure 62
0010
0100
2000
0000
0000
0000
3001
0000
0100
0010
2000
0000
0000
0000
3010
0000
,  // measure 63
0100
0001
0020
0000
0000
0000
0130
0000
1000
0000
0001
1000
0010
0000
1000
0010
,  // measure 64
0100
0000
0001
0000
0010
0000
0100
1000
0001
0000
0000
0000
1001
0000
0000
0000
,  // measure 65
1000
0000
0010
0000
0100
0001
0010
0000
0100
0000
1000
0001
0010
0000
0001
0100
,  // measure 66
0010
0000
1000
0000
0010
0100
0000
0010
0000
0100
0001
0010
0100
1000
0001
1000
,  // measure 67
0000
1010
0000
0010
0100
0000
0001
0000
0010
0001
0100
0010
0100
0001
0010
0100
,  // measure 68
1000
0000
0010
1000
0010
0000
0100
0001
0100
0000
0001
0010
0100
1000
0001
0010
,  // measure 69
0002
2003
3020
0230
,  // measure 70
0301
0001
1000
0010
2010
0000
3002
0000
,  // measure 71
0203
0000
0320
0000
1030
0100
0010
0001
,  // measure 72
0100
0000
0001
0000
1000
0000
0010
0000
0100
0001
0100
0001
1000
0001
1000
0001
,  // measure 73
0100
0000
0000
0000
0110
0000
0010
1000
0010
0000
1000
0000
0100
1000
0000
0001
,  // measure 74
0010
0001
0100
0000
0010
1000
0010
1000
0100
0000
0010
0001
1000
0000
0100
0000
,  // measure 75
0010
1000
0010
0000
0001
0000
1000
0010
1000
0000
0001
0000
0010
0100
1000
0000
,  // measure 76
0001
0010
0100
0010
0001
2002
0000
3003
,  // measure 77
0101
0000
0001
0000
0100
0010
0100
0000
0001
1000
0010
1000
0100
1000
0000
0001
,  // measure 78
0000
0100
0010
0100
0010
1000
0001
0000
1000
0000
0010
0000
1000
0100
1000
0000
,  // measure 79
1001
0000
0000
0000
0011
0000
0010
0000
0100
1000
0000
1000
0001
0000
0100
0000
,  // measure 80
0001
0010
0000
0100
1000
0000
0001
1000
0000
0010
1000
0000
0002
0000
0000
0000
,  // measure 81
2000
3003
0000
0000
;
