#TITLE:Myosotis;
#SUBTITLE:;
#ARTIST:M2U & NICODE;
#TITLETRANSLIT:;
#SUBTITLETRANSLIT:;
#ARTISTTRANSLIT:;
#GENRE:;
#CREDIT:;
#BANNER:Myosotis.png;
#BACKGROUND:Myosotis-bg.png;
#LYRICSPATH:;
#CDTITLE:;
#MUSIC:Myosotis.ogg;
#OFFSET:-1.600000;
#SAMPLESTART:43.516987;
#SAMPLELENGTH:15.000000;
#SELECTABLE:YES;
#BPMS:0.000000=80.000000
,24.000000=160.000000
,320.000000=80.000000
;
#STOPS:
;
#BGCHANGES:;
#KEYSOUNDS:;
#ATTACKS:;

//---------------dance-single - ----------------
#NOTES:
     dance-single:
     :
     Beginner:
     4:
     0.133706,0.168469,0.000000,0.374377,0.000000,140.000000,140.000000,0.000000,56.000000,0.000000,0.000000,0.133706,0.168469,0.000000,0.374377,0.000000,140.000000,140.000000,0.000000,56.000000,0.000000,0.000000:
0000
0000
1000
0000
,
0001
0000
1000
0000
,
0010
0000
0100
0000
,
1000
0000
0001
0000
,
0100
0000
0010
0000
,
1000
0000
1000
0000
,
0001
0000
0000
0000
,
1000
0000
0000
0000
,
0010
0000
0000
0000
,
0100
0000
0000
0000
,
0001
0000
0000
0000
,
1000
0000
1000
0000
,
0010
0000
0010
0000
,
0100
0000
0000
0000
,
0001
0000
0000
0000
,
1000
0000
1000
0000
,
0010
0000
0000
0000
,
0100
0000
0000
0000
,
0100
0000
0100
0000
,
0001
0000
0000
0000
,
0001
0000
1000
0000
,
0001
0000
0000
0000
,
0200
0000
0000
0000
,
0320
0000
0000
0000
,
2030
0000
3002
0000
,
2003
0000
0000
0000
,
3200
0000
2300
0000
,
3200
0000
0320
0000
,
0032
0000
2003
0000
,
3002
0000
0103
0100
,
0200
0000
0320
0000
,
2030
0000
3002
0000
,
2003
0000
3200
0000
,
2300
0000
3020
0000
,
0230
0000
0302
0000
,
0023
0000
0032
0000
,
2003
0000
3002
0000
,
0203
0000
0000
0000
,
0310
0000
0020
0000
,
2030
0000
0000
0000
,
3001
0000
0001
0000
,
0100
0000
0010
0000
,
0100
0000
0010
0000
,
2000
0000
0000
0000
,
0000
0000
0000
0000
,
3001
0001
0001
0000
,
0100
0000
0010
0000
,
0100
0000
0000
0000
,
0010
0010
0010
0000
,
1000
0000
1000
0000
,
0001
0000
0001
0000
,
0100
0000
0100
0000
,
0010
0000
0010
0000
,
1000
0000
1000
0000
,
0001
0000
0001
0000
,
0100
0000
0100
0000
,
0010
0000
0010
0000
,
1000
0000
0000
0000
,
1000
0000
0001
0000
,
0100
0000
0100
0000
,
0010
0000
0010
0000
,
1000
1000
1000
0000
,
0001
0000
0000
0000
,
0002
0000
0203
0000
,
0320
0000
2030
0000
,
3200
0000
0302
0000
,
0203
0000
2300
0000
,
3020
0000
0032
0000
,
0023
0000
2030
0000
,
3200
0000
0320
0000
,
0032
0000
2003
0000
,
3200
0000
0000
0000
,
2300
0000
0000
0000
,
3002
0000
0000
0000
,
0203
0000
0000
0000
,
0310
0000
1000
0000
,
0020
0000
0230
0000
,
0302
0000
2003
0000
,
3002
0000
0000
0000
,
2003
0000
0000
0000
,
3001
0000
0000
0000
,
0001
0000
0000
0000
,
1000
0000
0000
0000
,
1000
0000
0000
0000
,
0010
0000
0000
0000
;

//---------------dance-single - ----------------
#NOTES:
     dance-single:
     :
     Easy:
     6:
     0.243536,0.251952,0.020056,0.314209,0.000000,255.000000,252.000000,3.000000,47.000000,0.000000,0.000000,0.243536,0.251952,0.020056,0.314209,0.000000,255.000000,252.000000,3.000000,47.000000,0.000000,0.000000:
0000
0000
0000
0000
,
0001
1000
0001
0010
,
0001
0100
1000
0001
,
0010
1000
0001
1000
,
0002
0000
0000
0000
,
1003
0100
0010
0001
,
1000
0000
1000
0000
,
0010
0000
0100
0100
,
0002
0000
2003
0000
,
3200
0000
0320
0000
,
0032
0000
0003
0000
,
1002
0000
0103
0010
,
1000
0000
0010
0100
,
0002
0000
0000
0000
,
0000
0000
0000
0000
,
0013
0010
0100
1000
,
1001
0000
0001
0100
,
1000
0100
0001
0010
,
1000
0010
0001
0100
,
0020
0000
2030
0000
,
3200
0000
0302
0000
,
0203
0000
2300
0000
,
3010
0001
0100
1000
,
0100
0000
0001
0010
,
1000
0010
0001
0100
,
0020
0000
1030
0100
,
2000
0000
3002
0000
,
0023
0000
0031
0100
,
0010
1000
0010
0100
,
0002
0000
2003
0000
,
3100
0000
1000
0000
,
0010
0000
1000
0001
,
1000
0001
0100
0010
,
0200
0000
0302
0000
,
0013
0000
0100
0000
,
1000
0001
1000
0001
,
0010
0001
0010
0001
,
0200
0000
0310
1000
,
0010
1000
0100
1000
,
0100
1000
0001
0010
,
0001
0010
0001
0100
,
0020
0000
1030
0100
,
1000
0001
0010
0001
,
0200
0000
0320
0000
,
0000
0000
0000
0000
,
1030
0001
1000
0001
,
0100
0010
0100
0100
,
0010
1000
0100
1000
,
0100
0001
0100
0001
,
0010
0001
0010
1000
,
0010
1000
0010
0001
,
0100
0010
1000
0010
,
0100
0001
0010
0001
,
1000
1000
0100
1000
,
0010
0100
0001
0001
,
0010
0001
0100
0010
,
1000
0010
0100
0001
,
0010
0001
0100
0010
,
1000
0100
0010
0001
,
1000
0001
1000
0001
,
0100
0010
1000
0100
,
0020
0032
0203
0320
,
2030
0000
0000
0000
,
3001
1000
0002
0000
,
0103
0010
1000
0010
,
0200
0000
0301
1000
,
0002
0000
0013
0100
,
2000
0000
3100
0010
,
0002
0000
1003
0100
,
1000
0010
0100
0001
,
0020
0000
0230
0000
,
1300
0001
2000
0000
,
3002
0000
0013
0100
,
2000
0000
3100
0010
,
0002
0000
1003
0001
,
2000
0000
3010
0100
,
0002
0000
0103
0010
,
2000
0000
3010
0100
,
0002
0000
1003
0000
,
0100
0000
0010
0000
,
1001
0000
0001
0000
,
1000
0000
1000
0000
,
0010
0000
0010
0000
,
0100
0000
0200
0300
;

//---------------dance-single - ----------------
#NOTES:
     dance-single:
     :
     Medium:
     12:
     0.440275,0.671872,0.187188,0.628418,0.030084,461.000000,433.000000,28.000000,94.000000,0.000000,0.000000,0.440275,0.671872,0.187188,0.628418,0.030084,461.000000,433.000000,28.000000,94.000000,0.000000,0.000000:
0000
0000
0000
0000
,
1001
0000
1000
0010
0100
0001
0010
0100
,
2000
0000
3001
0010
0002
0000
0103
0010
,
2000
0000
3010
0100
0002
0000
0023
0000
,
0230
0000
1300
0001
1000
0001
0010
0001
,
0100
0010
0100
0010
1000
0001
1000
0001
1000
0100
0010
0001
0010
0100
1000
0000
,
1100
0000
0000
0000
1000
0000
0000
1000
0001
0000
0010
0000
0001
0000
0000
0000
,
0100
0000
0010
0000
1000
0100
0010
0001
,
1000
0000
1001
0000
0001
0100
1000
0000
,
0100
0000
0001
0000
1000
0001
1000
0001
,
1000
0010
0100
0010
,
1100
0000
0100
0000
0010
0001
1000
0001
,
1000
0010
0100
0000
0100
0010
1000
0000
,
0020
0000
0000
0000
0130
0001
0010
0100
,
2000
0000
0002
0000
0000
3003
0000
0000
,
1000
0000
0100
0000
1000
0100
1000
0100
,
1000
0010
0100
0001
,
0010
0000
0001
0000
0101
0000
0100
0001
,
1000
0010
1000
0000
1100
0000
0110
0000
,
0011
0000
0001
0000
1000
0001
1000
0001
,
1000
0001
0010
0001
,
0100
0000
0010
1000
0001
1000
0010
0000
,
0210
0000
0301
0000
2001
0000
3000
0001
,
0200
0310
2000
3200
,
0320
0032
2003
3020
,
0130
0000
0001
0100
1000
0100
0001
0000
,
1001
0000
1000
0010
1000
0000
0010
0000
,
0100
0001
1000
0000
0001
0000
1000
0000
,
1100
0100
0010
0001
,
1000
0000
0001
1000
0001
1000
0010
0000
,
0200
0000
0302
0000
,
1003
0100
0002
0000
0203
0000
2300
0000
,
3200
0302
0023
0032
,
0203
0000
0000
0000
0310
1000
0002
0000
,
2003
0000
3020
0000
,
0130
0001
1000
0001
1000
0000
1010
0000
,
0010
1000
0001
0000
0100
0001
0100
0000
,
1002
0000
1003
0010
1000
0000
0001
0000
,
0100
0000
0010
1000
0002
0000
0023
0000
,
0230
1000
0320
0032
,
1003
0001
1000
0001
0100
0010
0100
0010
,
2000
0000
3002
0203
,
0320
2030
3200
0302
,
0203
0000
0000
0000
,
2300
0000
0000
0000
,
3001
0000
0110
0000
1000
0100
1000
0010
,
0100
0001
0010
0001
1000
0000
1010
0000
,
0100
0000
0010
0100
0010
0100
0001
0010
,
0100
1000
0100
0010
0001
1000
1100
0000
,
0100
0000
1001
0000
0001
0010
0001
0010
,
0100
1000
0100
1000
0001
0100
0001
0100
,
0010
0000
1000
0001
1000
0001
1000
0001
,
1000
0010
0100
0000
0001
0001
1000
1000
,
0010
0000
0110
0000
0001
0100
0001
0000
,
1000
0001
1000
0000
0001
1000
0010
0000
,
0100
0000
0110
0000
0010
1000
0100
0000
,
0010
0001
0010
0000
0100
1000
0001
0000
,
0101
0000
0110
0000
1000
0001
1000
0001
,
1000
0001
1000
0001
1000
0000
1100
0000
,
0100
0010
0001
0010
,
0100
1000
0100
0010
0001
0010
0100
1000
,
0100
0010
0011
0100
,
2000
3020
0230
0302
,
2003
0000
3100
0100
0020
0000
0032
0000
,
2003
3002
0203
0320
,
2030
3200
0320
0032
,
2003
0000
3100
0000
1000
0001
0010
0001
,
0100
0010
1000
0000
0010
0100
0010
0100
,
0020
1000
1030
0001
,
0100
0001
1000
0000
0001
1000
0001
1000
,
0001
0100
0010
1000
,
0200
0000
0320
0000
,
0031
1000
0001
1000
0001
0000
1000
0000
,
0100
0010
0001
0100
,
0020
1030
0200
1300
,
0002
0103
0010
1000
,
2100
0000
3200
0000
0310
0001
1000
0000
,
0001
0010
0001
0100
0010
1000
0010
0000
,
1000
0001
1000
0000
2002
0000
0000
0000
,
0000
0000
0000
3003
,
0010
1000
0010
0100
1002
0000
2003
0000
,
3020
0230
0302
0023
0230
2300
3002
0103
,
0120
2030
3002
0023
2030
3020
0032
0203
,
2300
0000
0000
0000
3200
0000
0000
0000
0302
0000
0000
0000
0023
0000
0000
0000
0130
2000
0000
0000
0000
0000
0000
0000
3000
0000
0000
0000
0000
0000
0000
0000
;

//---------------dance-single - ----------------
#NOTES:
     dance-single:
     :
     Hard:
     15:
     0.674260,1.123130,0.441230,0.621733,0.444572,706.000000,640.000000,66.000000,93.000000,0.000000,0.000000,0.674260,1.123130,0.441230,0.621733,0.444572,706.000000,640.000000,66.000000,93.000000,0.000000,0.000000:
// measure 0
0000
0000
0000
0000
,  // measure 1
0110
0000
1001
1000
0010
0100
0001
0010
,  // measure 2
0100
1000
0100
0010
1001
0000
0010
0100
,  // measure 3
0002
0000
0103
0010
2000
0000
3002
0000
,  // measure 4
2003
0000
0000
0000
3010
0100
0001
0100
0010
1000
0100
0010
0001
1000
0001
0010
,  // measure 5
0100
0000
1000
0000
0001
0010
0001
0010
0001
0000
0100
0000
0010
0000
1000
0000
0001
0010
0001
0010
0100
1000
0100
1000
0001
1000
0001
1000
0001
0100
0001
0100
,  // measure 6
0001
0000
0000
0000
1000
0000
0000
1000
0010
0000
0000
0000
0110
0000
0000
0000
,  // measure 7
0101
0000
0011
0000
0010
0100
1000
0001
,  // measure 8
0100
0010
0100
0010
0100
0010
0100
0000
0010
0000
1000
0000
0001
1000
0001
0000
,  // measure 9
1000
0000
0001
0100
0001
0100
0001
0000
1000
0000
0010
0000
0001
0000
0010
0000
,  // measure 10
1010
0000
0000
0000
1100
0000
0000
0100
0001
0000
0100
0000
1000
0000
0001
0000
,  // measure 11
0010
0001
0010
0001
0010
0001
0010
0000
0001
0000
0100
0000
0010
0000
1000
0000
,  // measure 12
0010
0000
0100
0001
0100
0001
0100
0000
0010
0000
1000
0001
1000
0001
1000
0000
,  // measure 13
0020
0000
0000
0000
0000
0000
0000
0000
0130
0000
0001
0010
0100
1000
0100
0010
,  // measure 14
0002
0000
2000
0000
0000
3003
0100
0010
,  // measure 15
1000
0000
1001
0000
0001
0100
1000
0100
,  // measure 16
0001
0000
0010
0100
1000
0100
0010
0001
,  // measure 17
1001
0000
1100
0000
0110
0000
0010
0001
,  // measure 18
0100
0000
0010
0000
1000
0000
0100
0000
1000
0001
0000
0000
0011
0000
0000
0000
,  // measure 19
0110
0000
1100
0000
1000
0010
0001
1000
,  // measure 20
0100
0000
0001
0000
1000
0000
0000
0000
0001
0000
0100
0000
0010
1000
0100
1000
,  // measure 21
0100
0000
0010
0000
0001
0000
0100
0000
0001
1000
0010
1000
0010
1000
0010
0000
,  // measure 22
2002
0000
3003
0000
0202
0000
0303
0100
,  // measure 23
2020
0000
3030
1000
0100
0010
0001
0100
,  // measure 24
0120
0000
2030
0100
3200
0000
0320
0001
,  // measure 25
0031
0000
0010
0100
1000
0000
0001
0000
1000
0000
0010
0001
0010
0000
1000
0000
,  // measure 26
1200
0000
0310
0000
2001
0000
3001
0010
,  // measure 27
0001
0100
0000
0000
0100
0010
0000
0000
0010
1000
0000
0000
1000
0100
0000
0000
,  // measure 28
0100
0001
0100
0010
0001
0010
0100
1000
,  // measure 29
0002
0000
0000
0000
0103
0000
0001
0000
0101
0000
0100
0010
1000
0000
0100
0000
,  // measure 30
0020
0000
0000
0031
1000
0100
1000
0001
,  // measure 31
0201
0000
0310
0000
1000
0100
0001
0100
,  // measure 32
1000
0010
0000
0000
0010
0100
0000
0000
0100
0001
0000
0000
0001
1000
0000
0000
,  // measure 33
1000
0000
0010
0000
0100
0000
0001
0000
0010
0000
0001
1000
0002
0000
0000
0000
,  // measure 34
0103
0100
0010
1000
1100
0100
0010
0001
,  // measure 35
1001
0000
0000
1000
0100
0000
0000
0100
0010
0000
0000
0010
0001
0000
0000
0000
,  // measure 36
1001
0000
0001
0010
1000
0001
0100
1000
,  // measure 37
1001
0000
0100
0100
0100
0000
0010
1000
,  // measure 38
0100
0000
0010
0001
0100
0010
1000
0001
,  // measure 39
0100
0100
0001
0001
1000
1000
0001
0001
,  // measure 40
1000
0100
1000
0100
0010
0001
0010
0001
1000
0001
1000
0001
0200
0000
0000
0000
,  // measure 41
0310
1000
0002
0000
0000
0000
0003
0000
1000
0000
0010
0000
1000
0000
0100
0000
,  // measure 42
0010
0000
0001
0000
0100
0000
0010
0000
0100
0000
0001
0000
1000
0010
1000
0000
,  // measure 43
0002
0000
0000
0000
0000
0000
0000
0000
0203
0000
0000
0000
0310
1000
0020
0000
,  // measure 44
0000
0000
0000
0000
0000
0000
1030
0001
1000
0010
1000
0001
0100
0010
0100
0001
,  // measure 45
0100
0000
0000
0000
0110
0000
0000
0000
1010
0000
0000
0000
1000
0100
1000
0100
,  // measure 46
0000
0010
0001
0000
1001
0000
0000
0000
1010
0000
0010
0000
0220
0000
0330
0000
,  // measure 47
0100
0000
0001
0000
0021
0000
0100
0000
0130
0000
1000
0100
1000
0000
0001
1000
,  // measure 48
0010
0000
0100
0000
0110
0000
0100
0000
0101
0000
0001
1000
0000
0010
1000
0000
,  // measure 49
1100
0000
0000
0110
0000
0000
0011
0000
0001
1000
0010
0000
0110
0000
0100
0001
,  // measure 50
0000
0010
0100
0000
1000
0000
0001
0010
0001
0100
0001
0010
0001
0000
0000
0000
,  // measure 51
1001
0000
1000
0000
0010
0000
0100
0001
0010
0000
0000
0110
0000
0000
0000
1100
,  // measure 52
0000
0000
0000
2002
0000
0000
3003
0000
0001
0000
0010
0000
0100
0000
1000
0000
,  // measure 53
1001
0000
0000
0000
0101
0000
0000
0000
0100
0010
1000
0000
0010
0100
0001
0100
,  // measure 54
0010
0000
0100
0001
0000
0000
0010
0100
0010
0001
1000
0100
1000
0000
0001
0000
,  // measure 55
1001
0000
1000
0000
1010
0000
0010
0000
0100
0001
0010
0001
2000
0000
0000
3010
,  // measure 56
0000
0000
0100
0000
0001
0000
0010
1000
0010
0000
0001
0100
0000
1000
0100
0000
,  // measure 57
0202
0000
0303
0022
0000
0033
1010
0000
0011
0000
0001
0000
0100
0010
0100
0001
,  // measure 58
0000
1000
0001
0000
1000
0000
0010
0000
0100
0001
0100
0001
0020
0000
0000
0000
,  // measure 59
0130
0000
0100
0000
1001
0000
1001
0000
0010
0000
0010
1000
0010
1000
0001
0000
,  // measure 60
0100
0220
0000
0330
2002
0000
0000
3003
,  // measure 61
0101
0000
0000
0000
0110
0000
0000
0010
1000
0000
0000
0000
1001
0000
0000
0000
,  // measure 62
0102
0203
0320
2030
,  // measure 63
3200
0000
0000
0000
0310
0000
0001
0010
0002
0000
0000
0000
2003
0000
0000
0000
,  // measure 64
3020
0000
0000
0000
0032
0000
0000
0000
1003
0100
2000
0000
0000
0000
3001
0000
,  // measure 65
0020
0000
0000
0000
0031
0000
0100
0000
0010
0000
1000
0000
0100
0000
0010
0001
,  // measure 66
0020
0000
0000
0000
0031
0000
1000
0001
1000
0000
1000
0000
0010
0000
0010
0000
,  // measure 67
0100
0100
0001
0001
0010
0010
0100
0100
,  // measure 68
2200
0000
0000
0000
3300
0000
0001
1000
0001
0000
0000
0001
0100
0000
0010
0000
,  // measure 69
1000
0000
0100
0000
0010
0000
0001
0000
1000
0000
0010
0000
1000
0100
1000
0001
,  // measure 70
0020
0000
0000
0000
0031
0100
0010
0100
0001
0000
1000
0000
0001
0000
1000
0000
,  // measure 71
2020
0000
0000
3030
0202
0000
0000
0303
,  // measure 72
1000
0100
0010
1000
0010
0001
0010
0100
,  // measure 73
0001
0100
1000
0010
0100
0001
0010
0100
,  // measure 74
2200
0000
3300
0001
0022
0000
0033
0100
,  // measure 75
0010
1000
0010
0100
0001
0010
0100
1000
,  // measure 76
0001
0010
0001
1000
0002
0000
0000
0000
2003
0000
0000
0000
3020
0000
0000
0000
,  // measure 77
0130
0000
0001
0000
0010
0000
0001
0000
1000
0000
0100
0000
1000
0010
1000
0000
,  // measure 78
0002
0000
0000
0000
0000
0000
0000
0000
0103
0000
0010
0000
1000
0001
1000
0001
,  // measure 79
0200
0000
0000
0000
,  // measure 80
0310
1000
0010
0100
1002
0000
2003
0000
,  // measure 81
3020
0230
0302
0023
0230
2300
3002
0103
,  // measure 82
0120
2030
3002
0023
2030
3020
0032
0203
,  // measure 83
2300
0000
0000
0000
3200
0000
0000
0000
0302
0000
0000
0000
0023
0000
0000
0000
0031
2000
0000
0000
0000
0000
0000
0000
0000
0000
0000
0000
0000
0000
0000
0000
,  // measure 84
3000
0000
0000
0000
;
