#TITLE:Mind Mapping (kors k mix);
#SUBTITLE:;
#ARTIST:Ryu;
#TITLETRANSLIT:;
#SUBTITLETRANSLIT:;
#ARTISTTRANSLIT:;
#GENRE:;
#CREDIT:;
#BANNER:Mind Mapping (kors k mix).png;
#BACKGROUND:;
#LYRICSPATH:;
#CDTITLE:;
#MUSIC:Mind Mapping (kors k mix).ogg;
#OFFSET:-1.695001;
#SAMPLESTART:55.472980;
#SAMPLELENGTH:10.000002;
#SELECTABLE:YES;
#BPMS:0.000000=183.009995
;
#STOPS:
;
#BGCHANGES:;
#KEYSOUNDS:;
#ATTACKS:;

//---------------dance-single - ----------------
#NOTES:
     dance-single:
     :
     Easy:
     4:
     0.256178,0.315017,0.000000,0.000000,0.000000,187.000000,187.000000,0.000000,0.000000,0.000000,0.000000,0.256178,0.315017,0.000000,0.000000,0.000000,187.000000,187.000000,0.000000,0.000000,0.000000,0.000000:
0000
0000
0000
0000
,
0000
0000
0000
0000
,
0000
0000
0000
0000
,
1000
0000
0001
0000
,
1000
0000
0010
0000
,
0100
0010
0100
0000
,
0010
0000
1000
0000
,
0001
0010
0001
0000
,
0100
0000
0010
1000
,
0010
0000
1000
0000
,
0001
0000
1000
0100
,
1000
0000
0001
0000
,
0100
0000
0010
0100
,
0010
0000
0100
0000
,
0001
1000
0001
0000
,
1000
0000
0000
0000
,
0000
0000
0000
0000
,
0001
0010
0001
0000
,
1000
0001
1000
0000
,
0001
0100
0001
0000
,
0100
0010
0100
0010
,
0100
0000
0010
0000
,
1000
0000
1000
0000
,
0001
0001
0001
0000
,
0100
0100
0100
0100
,
0100
0000
0010
0000
,
1000
1000
1000
0000
,
0001
0001
0001
0000
,
0100
0000
0010
0000
,
0100
0001
0010
0000
,
0001
1000
0100
0000
,
1000
0001
0010
0001
,
0100
0000
0010
0000
,
0100
0000
0001
0000
,
1000
0000
0001
0000
,
0010
0000
0001
0000
,
0100
0000
0010
0000
,
0100
0000
0001
0000
,
1000
1000
0010
0010
,
0100
0100
0001
0001
,
1000
0001
1000
0000
,
0010
0100
0010
0000
,
0100
0001
0100
0000
,
0001
1000
0001
0000
,
1000
0000
0010
0000
,
0100
0001
0010
0000
,
0001
1000
0100
0000
,
1000
0001
1000
0000
,
0001
0010
0001
0000
,
0100
0010
0100
0000
,
0010
1000
0010
0000
,
1000
0000
0001
0000
,
0100
0000
0010
0000
,
0100
0001
0100
0000
,
0001
1000
0001
0000
,
1000
0010
1000
0000
,
0010
0000
0100
0000
,
0010
1000
0001
0000
,
1000
0000
0001
0000
,
0100
0001
1000
0000
,
0010
0000
0100
0000
,
0010
1000
0001
0000
,
0100
0000
0001
0000
,
1000
0010
1000
0000
,
0001
0100
0001
0000
,
1000
0010
1000
0010
,
0100
0000
1000
0000
,
0001
0010
0001
0010
,
0001
0000
0100
0000
,
0010
1000
0001
1000
,
0010
0000
0100
0000
,
0001
1000
0001
0000
,
1000
0000
0010
0000
,
1000
0000
0000
0000
;

//---------------dance-single - ----------------
#NOTES:
     dance-single:
     :
     Beginner:
     2:
     0.152063,0.175010,0.000000,0.000000,0.000000,111.000000,111.000000,0.000000,0.000000,0.000000,0.000000,0.152063,0.175010,0.000000,0.000000,0.000000,111.000000,111.000000,0.000000,0.000000,0.000000,0.000000:
0000
0000
0000
0000
,
0000
0000
0000
0000
,
0000
0000
0000
0000
,
0010
0000
0010
0000
,
1000
0000
0000
0000
,
1000
0000
1000
0000
,
1000
0000
0000
0000
,
0001
0000
0010
0000
,
0001
0000
0000
0000
,
0100
0000
0010
0000
,
0100
0000
0000
0000
,
0001
0000
1000
0000
,
0001
0000
0000
0000
,
1000
0000
0100
0000
,
1000
0000
0000
0000
,
0100
0000
0000
0000
,
0000
0000
0000
0000
,
0010
0000
0001
0000
,
0010
0000
0001
0000
,
1000
0000
0000
0000
,
0001
0000
0001
0000
,
0001
0000
0000
0000
,
0100
0000
0100
0000
,
0100
0000
0000
0000
,
0010
0000
0010
0000
,
0010
0000
0000
0000
,
1000
0000
1000
0000
,
1000
0000
0001
0000
,
0001
0000
0001
0000
,
0100
0000
0100
0000
,
0010
0000
0010
0000
,
1000
0000
1000
0000
,
0001
0000
0001
0000
,
1000
0000
0000
0000
,
0001
0000
0000
0000
,
1000
0000
0000
0000
,
0010
0000
0000
0000
,
1000
0000
0000
0000
,
0001
0000
0000
0000
,
0100
0000
0000
0000
,
0001
0000
0000
0000
,
1000
0000
0010
0000
,
1000
0000
0000
0000
,
0001
0000
0100
0000
,
0001
0000
0000
0000
,
1000
0000
0010
0000
,
1000
0000
0000
0000
,
0001
0000
0100
0000
,
0001
0000
0000
0000
,
1000
0000
0001
0000
,
1000
0000
0000
0000
,
0010
0000
0100
0000
,
0010
0000
0000
0000
,
1000
0000
0001
0000
,
1000
0000
0000
0000
,
0001
0000
0001
0000
,
0100
0000
0100
0000
,
0010
0000
0010
0000
,
1000
0000
1000
0000
,
0001
0000
0001
0000
,
0100
0000
0100
0000
,
0010
0000
0010
0000
,
1000
0000
1000
0000
,
0001
0000
0001
0000
,
0100
0000
0000
0000
,
0010
0000
0010
0000
,
0010
0000
1000
0000
,
1000
0000
0001
0000
,
0001
0000
0100
0000
,
0010
0000
0010
0000
,
1000
0000
0000
0000
,
0001
0000
0001
0000
,
0100
0000
0100
0000
,
0010
0000
0000
0000
;

//---------------dance-single - ----------------
#NOTES:
     dance-single:
     :
     Medium:
     9:
     0.421941,0.455025,0.124664,0.009590,0.000000,308.000000,295.000000,13.000000,1.000000,0.000000,0.000000,0.421941,0.455025,0.124664,0.009590,0.000000,308.000000,295.000000,13.000000,1.000000,0.000000,0.000000:
0000
0000
0000
0000
,
0000
0000
0000
0000
,
0000
0000
0000
0000
,
0001
1000
0001
0000
1000
0000
0010
0000
,
0100
0000
0010
0000
1000
0001
1000
0000
,
0001
0100
0010
0100
,
0011
0100
1000
0001
,
0100
0010
0100
0000
0001
0000
1000
0000
,
0001
0010
0001
0100
,
0110
0010
1000
0100
,
1000
0001
0100
0010
,
0110
0010
1000
0100
,
1000
0001
0100
0010
,
0110
0100
0110
0010
,
1010
1000
0001
0100
,
0020
0000
0000
0000
,
0000
0000
0000
0000
,
1030
0001
1000
0000
0001
0100
0001
0000
,
1000
0010
1000
0000
0001
1000
0001
0000
,
1000
0010
0100
0010
,
1000
0100
0010
0001
,
1000
0001
1000
0000
0001
0100
0001
0000
,
0100
0010
0100
0000
0010
1000
0010
0000
,
1000
0001
0010
0100
,
1000
0100
0001
0100
,
1000
0001
1000
0000
0001
0100
0001
0000
,
0100
0010
1000
0010
,
0100
0001
0011
0010
,
0100
1000
1001
0001
,
0100
0010
0100
0001
,
0010
0100
1000
0001
,
0100
0001
0100
0000
0001
1000
0001
0000
,
1000
0010
0100
0010
,
1000
0001
0100
0010
,
0100
0001
1000
0001
,
0100
0010
1000
0010
,
0100
0001
0010
0001
,
1000
0001
1000
0100
,
1000
0010
0100
0010
,
1000
0001
0100
0010
,
0110
0000
0000
0000
,
0100
0000
0001
0000
0010
0000
0001
1000
,
0001
1000
0100
0010
,
0001
0100
0001
0000
1000
0001
1000
0000
,
0010
1000
0100
1000
,
0010
1000
0010
0000
1000
0000
0100
0000
,
0010
0001
0101
0100
,
0010
1000
0100
1000
,
0001
0100
0010
0100
,
0001
1000
1100
0100
,
0010
0001
0011
0010
,
0100
1000
0001
1000
,
0100
0010
0001
1000
,
0001
1000
0001
0000
0100
0000
0010
0000
,
0100
0010
0100
0000
0010
0000
1000
0000
,
0100
1000
0001
0100
,
0110
0010
1000
0001
,
1000
0001
1000
0000
0001
0000
0100
0000
,
0010
0100
0001
0010
,
0100
1000
0100
0000
1000
0000
0001
0000
,
0100
0001
0100
0000
,
0010
1000
0010
0000
1000
0000
0001
0000
,
0100
0010
0100
0001
,
1000
0100
1000
0010
,
0100
0000
0001
0000
,
1000
0100
1000
0000
0001
0000
0100
0000
,
0010
0100
0001
1000
,
0001
1000
0001
0000
0100
0000
0010
0000
,
0100
0001
1000
0000
,
0010
0100
0010
0000
0100
0000
0001
0000
,
0010
0001
1000
0100
,
1000
0001
1000
0000
0001
0000
0100
0000
,
0010
0100
0001
1000
,
0001
0000
0000
0000
;

//---------------dance-single - ----------------
#NOTES:
     dance-single:
     :
     Hard:
     12:
     0.691819,0.669591,0.460299,0.287687,0.019179,505.000000,457.000000,48.000000,30.000000,0.000000,0.000000,0.691819,0.669591,0.460299,0.287687,0.019179,505.000000,457.000000,48.000000,30.000000,0.000000,0.000000:
// measure 0
0000
0000
0000
0000
,  // measure 1
0000
0000
0000
0000
,  // measure 2
0000
0000
0000
0000
,  // measure 3
1000
0100
0010
0001
0000
1001
0000
0101
,  // measure 4
0000
0100
1000
0100
0001
0010
0001
0100
,  // measure 5
0001
0010
0100
1000
0000
1000
0001
0010
,  // measure 6
0001
0100
1000
0001
0010
1000
0001
0010
,  // measure 7
0100
1000
0001
1000
0000
1100
0000
1010
,  // measure 8
0000
0010
0100
0001
0010
0100
1000
0001
,  // measure 9
1000
0010
0100
0010
0000
0011
0000
1010
,  // measure 10
0000
1001
0000
0001
0010
1000
0001
0100
,  // measure 11
1000
0010
0100
0001
0000
1010
0000
1001
,  // measure 12
0000
0001
0001
0100
0010
0100
1000
0100
,  // measure 13
0010
1000
0001
1000
0000
0001
0100
1000
,  // measure 14
0100
0001
1000
0001
0010
1000
0010
0001
,  // measure 15
0100
0000
0000
0000
,  // measure 16
0000
0000
0000
0000
,  // measure 17
0001
0010
0100
1000
0001
0001
1000
0010
,  // measure 18
0100
0100
0001
1000
0010
0010
0100
0100
,  // measure 19
0010
0001
0010
0010
0100
0100
0001
1000
,  // measure 20
0010
0010
1000
1000
0100
0100
0001
0001
,  // measure 21
0100
0100
0010
0001
0010
0010
1000
1000
,  // measure 22
0010
0001
0010
0100
1000
1000
0010
0010
,  // measure 23
0100
0001
0010
0100
1000
1000
0001
0100
,  // measure 24
0010
0010
1000
1000
0100
0100
0010
0010
,  // measure 25
0001
0010
0100
1000
1001
0000
0001
0010
,  // measure 26
0100
0001
0100
1000
1001
0000
0011
0000
,  // measure 27
0010
0100
1000
0001
0101
0000
0010
0110
,  // measure 28
0000
0000
0101
0000
0000
0000
0001
0000
1001
0000
0000
0000
1000
0001
1000
0000
,  // measure 29
0001
0100
0010
0100
0001
1000
0001
0100
,  // measure 30
0010
1000
0100
0010
0001
0000
1001
0000
,  // measure 31
1000
0100
1000
0100
0010
0001
0010
0001
,  // measure 32
0000
1100
0000
0101
0000
1001
0000
1010
,  // measure 33
0000
0110
0000
0101
0000
0011
0000
0110
,  // measure 34
0000
1100
0000
1001
0000
0101
0000
0100
,  // measure 35
0010
1000
0010
0100
0001
0010
0001
1000
,  // measure 36
0010
0100
0010
1000
0001
0100
0001
0100
,  // measure 37
0010
0100
0010
1000
0010
1000
0010
0100
,  // measure 38
0001
0010
0100
1000
0100
0010
0001
0010
,  // measure 39
0100
1000
0001
1000
0010
1000
0010
1000
,  // measure 40
0001
0100
1000
0001
0010
1000
1002
0000
,  // measure 41
0103
0010
1000
0010
0100
0000
0001
0010
,  // measure 42
1000
0010
0001
1000
1001
0000
0101
0000
,  // measure 43
0100
0010
1000
0010
0210
0000
0301
0011
,  // measure 44
0000
0000
1010
0000
0000
0000
1000
0000
2002
0000
3003
0000
0001
0100
0001
0000
,  // measure 45
0100
0010
1000
0010
0210
0000
0310
1000
,  // measure 46
0001
1000
0100
0001
0100
0000
1100
0000
,  // measure 47
0001
0010
0100
0010
0001
0000
1000
1100
,  // measure 48
0000
0000
1001
0000
0000
0000
0001
0000
0100
0000
0010
0000
0100
0001
0100
0000
,  // measure 49
0010
1000
0100
1000
0010
0000
1000
0100
,  // measure 50
0010
0100
0001
0100
1000
0000
0001
0001
,  // measure 51
0100
0010
1000
0010
0100
0000
0001
0010
,  // measure 52
0000
0000
1001
0000
0000
0000
0010
0000
0100
0000
0000
0000
1000
0010
1000
0000
,  // measure 53
0001
0100
1000
0100
0001
0000
1000
0010
,  // measure 54
0100
0010
0001
0010
1010
0000
1000
0001
,  // measure 55
0100
0010
1000
0010
0100
0001
0010
0001
,  // measure 56
2001
3200
0320
0032
,  // measure 57
1003
0010
1000
0002
0000
0203
0000
0320
,  // measure 58
0000
0230
0000
0302
0000
2003
0000
3020
,  // measure 59
0000
0130
0001
0200
0000
0302
0000
1003
,  // measure 60
0010
0100
0010
2000
0000
3001
0010
0001
,  // measure 61
0100
0010
0100
0002
0000
1003
0010
0100
,  // measure 62
0001
0010
0100
1000
0010
0100
0001
0010
,  // measure 63
0001
1000
0010
0200
0000
0302
0000
0023
,  // measure 64
0000
0032
0000
2003
0000
3010
0100
0001
,  // measure 65
0100
0010
1000
0010
0100
0001
0100
0000
,  // measure 66
0001
1000
0001
0000
1000
0010
1000
0000
,  // measure 67
0010
0100
0001
0200
0000
0310
1000
0010
,  // measure 68
0100
0001
0100
0000
0001
1000
0001
0000
,  // measure 69
1000
0010
0110
0000
0101
0000
1001
0000
,  // measure 70
1010
0000
0011
0000
0110
0000
0100
1000
,  // measure 71
0010
0100
0010
2000
0000
3002
0000
0023
,  // measure 72
0000
0031
0100
0001
1000
0010
1000
0001
,  // measure 73
0200
0000
0300
0000
;
