#TITLE:Mermaid girl Akiba Koubou MIX;
#SUBTITLE:;
#ARTIST:Cream puff;
#TITLETRANSLIT:;
#SUBTITLETRANSLIT:;
#ARTISTTRANSLIT:;
#GENRE:;
#CREDIT:;
#BANNER:Mermaid girl -Akiba Koubou MIX-.png;
#BACKGROUND:Mermaid girl -Akiba Koubou MIX--bg.png;
#LYRICSPATH:;
#CDTITLE:;
#MUSIC:Mermaid girl -Akiba Koubou MIX-.ogg;
#OFFSET:-5.199999;
#SAMPLESTART:55.999989;
#SAMPLELENGTH:15.000000;
#SELECTABLE:YES;
#DISPLAYBPM:150.000000;
#BPMS:0.000000=150.009995
;
#STOPS:
;
#BGCHANGES:;
#KEYSOUNDS:;
#ATTACKS:;

//---------------dance-single - ----------------
#NOTES:
     dance-single:
     :
     Beginner:
     2:
     0.115775,0.141606,0.000000,0.000000,0.000000,93.000000,93.000000,0.000000,0.000000,0.000000,0.000000,0.115775,0.141606,0.000000,0.000000,0.000000,93.000000,93.000000,0.000000,0.000000,0.000000,0.000000:
0000
0000
0000
0000
,
0000
0000
0000
0000
,
0000
0000
0000
0000
,
1000
0000
0000
0000
,
0001
0000
0000
0000
,
0100
0000
0100
0000
,
0010
0000
0010
0000
,
1000
0000
0000
0000
,
0001
0000
0001
0000
,
0100
0000
0100
0000
,
0010
0000
0000
0000
,
0010
0000
0010
0000
,
1000
0000
1000
0000
,
0001
0000
0001
0000
,
1000
0000
1000
0000
,
0010
0000
0000
0000
,
0100
0000
0000
0000
,
0100
0000
0000
0000
,
0001
0000
0000
0000
,
0001
0000
0000
0000
,
1000
0000
0000
0000
,
1000
0000
0001
0000
,
1000
0000
0000
0000
,
0010
0000
0000
0000
,
0100
0000
0010
0000
,
0100
0000
0000
0000
,
0001
0000
0010
0000
,
0001
0000
0000
0000
,
1000
0000
0100
0000
,
1000
0000
0000
0000
,
0001
0000
0010
0000
,
0100
0000
0000
0000
,
0100
0000
0100
0000
,
1000
0000
1000
0000
,
0001
0000
0001
0000
,
0100
0000
0000
0000
,
0100
0000
0100
0000
,
0010
0000
0010
0000
,
1000
0000
0000
0000
,
0001
0000
0001
0000
,
1000
0000
1000
0000
,
0100
0000
0000
0000
,
0100
0000
0000
0000
,
0010
0000
0000
0000
,
0010
0000
0001
0000
,
0001
0000
1000
0000
,
1000
0000
0000
0000
,
0100
0000
0000
0000
,
1000
0000
0000
0000
,
0001
0000
0000
0000
,
0010
0000
0001
0000
,
0010
0000
0001
0000
,
0100
0000
0010
0000
,
0100
0000
0100
0000
,
0010
0000
0000
0000
,
1000
0000
0000
0000
,
0001
0000
1000
0000
,
0001
0000
0000
0000
,
0100
0000
0010
0000
,
0100
0000
0000
0000
,
0001
0000
0010
0000
,
0001
0000
0000
0000
,
1000
0000
0000
0000
,
0100
0000
0000
0000
,
1000
0000
0001
0000
,
1000
0000
0000
0000
;

//---------------dance-single - ----------------
#NOTES:
     dance-single:
     :
     Easy:
     4:
     0.202917,0.254891,0.008714,0.000000,0.000000,163.000000,162.000000,1.000000,0.000000,0.000000,0.000000,0.202917,0.254891,0.008714,0.000000,0.000000,163.000000,162.000000,1.000000,0.000000,0.000000,0.000000:
0000
0000
0000
0000
,
0000
0000
0000
0000
,
0000
0000
0000
0000
,
0001
0000
0001
0000
,
0100
0000
0100
0000
,
0010
0000
0010
0000
,
1000
0000
1000
0000
,
0000
0010
0000
0000
,
0001
0000
0100
0000
,
0010
0000
0100
0000
,
0001
1000
0001
0000
,
1000
0000
0010
0000
,
0100
0010
0100
0000
,
0010
0000
1000
0000
,
0001
0000
0100
0000
,
0010
0000
0000
0000
,
0100
0001
0100
0000
,
0001
0010
0001
0000
,
1000
0100
1000
0000
,
0010
0100
0010
0000
,
0100
0001
0010
0000
,
0100
1000
0010
0000
,
0100
0001
0100
0000
,
0001
0010
0000
0000
,
0100
1000
0100
1000
,
0010
0000
0100
0000
,
0010
1000
0010
1000
,
0001
1000
0001
1000
,
0100
0000
0010
0000
,
0001
0100
0100
0000
,
0010
0100
0100
0001
,
1001
0000
1000
0000
,
0010
0000
0100
0001
,
0010
0000
0100
1000
,
0010
0000
0100
0001
,
0010
0000
1000
0010
,
0001
0000
0100
1000
,
0100
0000
0001
0010
,
1000
0010
0001
0100
,
1000
0100
0001
0010
,
0100
1000
0100
0010
,
0001
0001
1000
1000
,
0010
0000
0010
0000
,
0100
0100
0001
0000
,
0001
0001
1000
0000
,
1000
1000
0010
0000
,
0010
0010
0100
0100
,
0001
0001
1000
1000
,
0010
0000
0010
0000
,
0100
0000
0100
0000
,
0001
0000
0001
0000
,
1000
0000
0001
0000
,
1000
0000
0100
0000
,
1000
1000
1000
0000
,
0001
0000
0010
0000
,
0001
0000
0000
0000
,
0100
0000
0000
0000
,
0010
0000
0100
0000
,
0010
0000
0100
0000
,
0001
0000
0010
0000
,
0001
0000
1000
0000
,
0001
0000
0100
0000
,
0001
0000
0010
0000
,
0001
0000
1000
0000
,
0001
0000
0100
0100
,
0100
0000
0000
0000
;

//---------------dance-single - ----------------
#NOTES:
     dance-single:
     :
     Medium:
     8:
     0.388405,0.396497,0.243998,0.000000,0.000000,312.000000,284.000000,28.000000,0.000000,0.000000,0.000000,0.388405,0.396497,0.243998,0.000000,0.000000,312.000000,284.000000,28.000000,0.000000,0.000000,0.000000:
0000
0000
0000
0000
,
0000
0000
0000
0000
,
0000
0000
0000
0000
,
1000
1000
1000
1000
,
0001
0001
0001
0001
,
0100
0010
0100
0000
0010
0000
1000
0000
,
0100
1000
0100
0000
0010
0000
0001
0000
,
0100
0001
0100
0000
0010
0000
1000
0000
,
0100
1000
0100
0000
0010
0000
0001
0000
,
0010
0100
1000
1001
,
0001
0100
0010
0110
,
0100
0000
0001
0000
0010
0100
0010
0000
,
0100
1000
0100
0000
1000
0001
1000
0000
,
0001
0100
1000
0100
,
0001
0010
1000
0010
,
1001
0100
0000
0000
,
0010
0000
1000
0000
0100
0000
0010
0001
,
0010
0001
0010
0000
0001
0000
0100
0000
,
0010
0000
0100
0000
0010
0000
1000
0100
,
1000
0010
0100
0001
,
0010
0001
1000
0100
,
1100
1000
1100
0100
,
0110
0010
0011
0001
,
0100
0001
0100
0000
0010
0000
1000
0000
,
0100
0000
0010
0000
0001
0010
0100
0000
,
1000
0100
0001
0100
,
1000
0010
0001
0010
,
1000
0001
1000
0000
0001
1000
0001
0000
,
0100
0010
0100
0010
,
1001
0100
1001
0010
,
0100
0001
0010
0100
,
1001
0100
0110
0001
,
0100
0010
0100
0000
0010
0000
1000
0000
,
0100
1000
0100
0000
0010
0000
0001
0000
,
0100
0000
1000
0000
0100
0001
0100
0000
,
1000
0010
0001
0010
,
1000
0000
0100
0000
0001
0100
1000
0000
,
0010
0001
0010
0000
1000
0100
0001
0000
,
0100
0000
1000
0000
0010
0100
0010
0000
,
1000
0001
0100
0010
,
0100
0000
0001
0000
0010
0001
0010
0000
,
0001
1000
0001
1000
0001
1000
0001
0000
,
0100
0010
0100
0010
,
1000
0010
1000
0010
1000
0000
0001
0000
,
0100
0010
0100
0001
,
0110
1000
1100
0100
,
0110
0010
0011
0001
,
0101
0100
0110
0010
,
1010
0000
0100
0000
0010
0001
0010
0000
,
0100
1000
0100
0010
,
0001
1000
0100
1000
,
0010
0100
0010
0000
0100
0010
0100
0000
,
0010
1000
0100
0001
,
0100
1100
1001
0010
,
0100
0010
0001
0100
,
1100
0101
1100
0000
,
1001
0010
0100
0010
,
1010
0000
1000
0000
0100
0010
0001
0000
,
0010
0100
1000
0000
0100
0010
0001
0000
,
1000
0000
0001
0000
0100
0010
0100
0000
,
0001
0010
0100
1000
,
0001
1000
0001
0000
1000
0000
0100
0000
,
1000
0100
1000
0000
0100
0000
0010
0000
,
0001
0010
0001
0000
0100
0000
0010
0000
,
0100
0010
0100
0000
1010
0000
1001
0000
,
0101
0000
0000
0000
;

//---------------dance-single - ----------------
#NOTES:
     dance-single:
     :
     Challenge:
     13:
     0.642362,0.661409,0.243998,0.008714,0.400854,516.000000,488.000000,28.000000,1.000000,108.000000,0.000000,0.642362,0.661409,0.243998,0.008714,0.400854,516.000000,488.000000,28.000000,1.000000,108.000000,0.000000:
// measure 0
0000
0000
0000
0000
,  // measure 1
0000
0000
0000
0000
,  // measure 2
0000
0000
0000
0000
,  // measure 3
1001
0000
0000
1100
0000
0000
0100
0000
1000
0100
1000
0000
0100
0010
0100
0000
,  // measure 4
0011
0000
0000
0110
0000
0000
1000
0000
0010
0000
0100
0000
0001
0100
0001
0000
,  // measure 5
1000
0000
0010
1000
0000
0001
1000
0000
0100
0000
0001
0000
0100
0000
0000
0000
,  // measure 6
1000
0000
0010
0001
0000
0010
1000
0000
0001
0100
0001
0000
0010
0000
0100
0000
,  // measure 7
0001
0000
0100
1000
0000
0001
1000
0001
0100
0000
0001
0000
MMMM
0000
0000
0000
,  // measure 8
0001
1000
0001
0000
0010
0000
0100
0000
1000
0000
0010
0000
0100
0000
0000
0000
,  // measure 9
0010
0000
1000
0010
0000
1000
0001
0000
0010
0000
0001
0000
1000
0001
1000
0000
,  // measure 10
0100
0000
0001
0100
0000
1000
0100
0000
0001
0100
1000
0000
MMMM
0000
0000
0000
,  // measure 11
0010
0000
1000
0010
0000
1000
0001
0000
0010
0000
0001
0000
0100
0000
0000
0000
,  // measure 12
0010
1000
0010
1000
0100
0000
0010
0000
1000
0000
0010
0000
0001
0000
0000
0000
,  // measure 13
0001
1000
0001
0000
1000
0000
0010
0000
0100
0010
0100
0000
0001
0000
1000
0000
,  // measure 14
0001
0000
0000
0101
0000
0000
0100
0000
1000
0000
0100
0000
MMMM
0000
0010
0000
,  // measure 15
0001
1001
0000
0000
,  // measure 16
0010
0100
0010
1000
0001
0100
1000
0100
,  // measure 17
0001
0010
0001
0100
0010
0000
0010
1000
,  // measure 18
0100
1000
0001
0100
0001
0010
0001
1000
,  // measure 19
0010
0000
1000
0000
0100
0000
0010
0000
0001
0000
1000
0010
1000
0000
0010
0000
,  // measure 20
0100
0001
0010
0100
MMMM
0000
1100
0000
,  // measure 21
0101
0000
0011
0000
MMMM
0000
0010
0100
,  // measure 22
0001
0000
0100
0010
0100
0000
0001
0000
0100
0000
1000
0000
0100
0000
0001
0000
,  // measure 23
0010
0000
MMMM
0000
1001
0000
MMMM
0000
1000
0010
1000
0000
0001
0000
0100
0000
,  // measure 24
0010
1000
0100
0001
0100
1000
0010
0001
,  // measure 25
0000
0000
0010
0000
1000
0000
0100
0000
0010
0001
0010
0000
0001
0100
0001
0000
,  // measure 26
1001
1100
0110
0011
,  // measure 27
0100
0000
0010
0000
1000
0010
0000
0100
0001
0010
0001
0000
MMMM
0000
0000
0000
,  // measure 28
0001
0010
0001
0100
0010
1000
0100
1000
,  // measure 29
1010
0000
MMMM
0000
1001
0000
MMMM
0000
0001
0010
0001
0000
1000
0000
0010
0000
,  // measure 30
1000
0000
0001
0000
0101
0000
0000
0000
0010
0000
1000
0000
0100
0010
0100
0000
,  // measure 31
0011
0000
MMMM
0000
1001
0000
MMMM
0000
1000
0100
1000
0000
0100
0000
0010
0000
,  // measure 32
0001
0000
0100
0001
0100
0000
0010
0000
1000
0000
0010
0000
MMMM
0000
0000
0000
,  // measure 33
0100
0000
0001
1000
0001
1000
0100
0000
1000
0000
0100
0000
0010
0000
0001
0000
,  // measure 34
0100
0000
0001
1000
0000
0010
1000
0000
0100
0000
0010
0000
0100
0000
0010
0000
,  // measure 35
0001
0000
0100
0000
0001
0000
0100
0000
0010
1000
0010
0000
1000
0010
1000
0000
,  // measure 36
MMMM
0000
1000
0001
1000
0000
0001
0000
0010
0000
0100
0000
1000
0000
0010
0000
,  // measure 37
0100
0000
0001
1000
0001
0000
1000
0000
0100
0000
0010
0000
0001
0000
0000
0000
,  // measure 38
1000
0000
0010
1000
0000
0010
0100
0000
0001
0000
0010
0000
0001
0000
0100
0000
,  // measure 39
0010
0000
1000
0100
0000
0010
0001
0000
0100
0010
0100
0000
0010
1000
0010
0000
,  // measure 40
1000
0000
0100
0001
0000
0100
1000
0000
0001
0100
0001
0000
MMMM
0000
0000
0000
,  // measure 41
0001
0001
0010
0010
0100
0100
1000
MMMM
,  // measure 42
0101
0000
0001
0100
0001
0000
1000
0100
1000
0000
0100
0000
MMMM
0000
0000
0000
,  // measure 43
0001
0000
0010
0000
0100
0000
1000
0000
0001
1000
0001
0000
MMMM
0000
0010
0000
,  // measure 44
1000
0010
1000
0010
0100
0000
0001
0000
0010
0000
0100
0000
1000
0000
0000
0000
,  // measure 45
0001
1000
0001
0000
0010
0000
0100
0000
1000
0000
1001
0000
MMMM
0000
0000
0000
,  // measure 46
0100
0010
0100
0010
0100
0000
0001
0000
1000
0100
1000
0100
1000
0000
0010
0000
,  // measure 47
0100
0000
0001
0010
0000
0010
0001
0000
1000
0001
1000
0000
0001
0100
0001
0000
,  // measure 48
MMMM
0000
1000
0000
0100
0001
0100
1000
,  // measure 49
0000
0010
0001
0010
1000
0000
MMMM
0000
,  // measure 50
0101
0011
0110
1100
,  // measure 51
1000
0000
0100
0000
0010
0000
1000
0000
0010
0001
0010
0000
MMMM
0000
0000
0000
,  // measure 52
0001
0010
0100
0001
0100
1000
0100
0010
,  // measure 53
1000
0010
0001
0100
0010
MMMM
0001
0100
,  // measure 54
0001
0000
1000
0000
0001
0000
0000
0000
1000
0000
0001
0000
1000
0010
1000
0000
,  // measure 55
0001
0000
0000
0000
0101
0000
0000
0000
0100
0010
0100
0000
MMMM
0000
0000
0000
,  // measure 56
0001
0000
0010
0100
0000
1000
0100
0000
0010
0000
0001
0000
0100
0000
0010
0000
,  // measure 57
1000
0000
0100
1000
0000
0001
1000
0000
0010
0000
0100
0000
0001
0010
0001
0000
,  // measure 58
0100
0000
0010
0000
1000
0100
1000
0000
0010
0000
0010
0000
1001
0000
0000
0000
,  // measure 59
0001
0000
0100
0010
0000
0100
0010
0000
1000
0000
0100
0000
MMMM
0000
0000
0000
,  // measure 60
0001
0000
0001
0000
0100
0000
0100
0000
0010
1000
0010
0000
MMMM
0000
0000
0000
,  // measure 61
0001
0000
0100
1000
0000
1000
0100
0000
0001
0000
0010
0000
0100
0000
0000
0000
,  // measure 62
1000
0000
0100
0000
0010
0001
0010
0000
0100
0010
0100
0000
MMMM
0000
0000
0000
,  // measure 63
1001
0000
0001
0100
0000
0100
0010
0000
1000
0100
1000
0000
0001
0000
0100
0000
,  // measure 64
0010
0000
1000
0010
0000
0010
0001
0000
0010
1000
0010
0000
1000
0000
0100
0000
,  // measure 65
0020
0000
0000
0000
,  // measure 66
0030
0000
0000
0000
;

//---------------dance-single - ----------------
#NOTES:
     dance-single:
     :
     Hard:
     11:
     0.509159,0.488868,0.209141,0.374711,0.043571,409.000000,385.000000,24.000000,43.000000,0.000000,0.000000,0.509159,0.488868,0.209141,0.374711,0.043571,409.000000,385.000000,24.000000,43.000000,0.000000,0.000000:
// measure 0
0000
0000
0000
0000
,  // measure 1
0000
0000
0000
0000
,  // measure 2
0000
0000
0000
0000
,  // measure 3
0001
0000
0000
0001
0000
0000
1000
0000
0010
0000
0100
0000
0010
0000
0000
0000
,  // measure 4
1000
0000
0000
1000
0000
0000
0001
0000
0100
0000
0010
0000
0100
0000
0000
0000
,  // measure 5
0001
1000
0001
0000
1000
0100
1000
0000
,  // measure 6
0100
0010
0001
0010
0100
1000
0001
0010
,  // measure 7
0001
0000
0000
0100
0000
0000
0010
0000
0100
0000
0001
0000
0100
0000
0000
0000
,  // measure 8
0010
1000
0100
0000
0001
0100
1000
0000
,  // measure 9
1000
0100
0001
0000
0100
1000
0010
0001
,  // measure 10
0010
0000
0000
0100
0000
0000
0001
0000
0100
0000
0000
0000
0110
0000
0000
0000
,  // measure 11
0010
0000
0000
1000
0000
0000
1000
0000
0100
0000
0010
0000
0001
0000
0000
0000
,  // measure 12
0100
0010
1000
0001
0010
0100
1000
0000
,  // measure 13
0001
1000
0010
1000
0100
1000
0010
0100
,  // measure 14
0001
0000
0000
0010
0000
0000
0001
0000
1000
0000
0010
0000
1000
0000
0000
0000
,  // measure 15
1100
0000
1001
0000
0000
0000
0010
0100
,  // measure 16
0002
0000
0023
0000
2030
0000
3010
0001
,  // measure 17
0100
0010
0100
0000
0001
0000
1000
0010
,  // measure 18
0200
0000
0302
0000
0023
0000
0031
1000
,  // measure 19
0100
1000
0100
0010
0001
0010
0001
0100
,  // measure 20
1000
0101
0011
1100
,  // measure 21
1001
0000
0110
0000
1001
0000
0010
1000
,  // measure 22
0200
0000
0302
0000
0203
0000
1300
0010
,  // measure 23
0001
0010
1000
0100
1000
0010
2000
0000
,  // measure 24
3010
0100
0001
0100
0010
0100
0002
0100
,  // measure 25
0003
0100
0001
1000
0002
0000
0203
0000
,  // measure 26
0320
2030
3020
0230
,  // measure 27
0301
0010
0001
0100
0010
1000
0002
0000
,  // measure 28
1003
0100
0010
1000
0010
0001
0100
0010
,  // measure 29
1000
0000
1001
0000
0011
0000
0010
0001
,  // measure 30
1000
0010
0001
0000
0010
1000
0001
0000
,  // measure 31
0101
0000
0110
0000
1000
0010
1000
0000
,  // measure 32
0001
0100
0001
0000
0100
0010
2000
0000
,  // measure 33
3010
0001
0010
0100
0010
1000
0200
0000
,  // measure 34
0310
0000
0000
0001
0000
0000
0010
0000
0000
0100
0000
0000
1000
0000
0001
0000
,  // measure 35
1000
0100
0010
0100
0001
0100
0010
0001
,  // measure 36
0010
0100
0001
0000
0100
1000
0010
0000
,  // measure 37
0100
0100
0001
1000
0010
0010
0100
0000
,  // measure 38
0001
1000
0010
1000
0100
0010
0002
0000
,  // measure 39
0103
0010
1000
1000
0100
0001
0200
0000
,  // measure 40
1300
0001
1000
0000
0001
0010
0001
0000
,  // measure 41
0100
0100
0010
0010
1000
1000
0002
0000
,  // measure 42
0103
0000
0010
1000
0010
0000
0100
0000
,  // measure 43
0001
0010
0100
1000
0002
0000
0103
0010
,  // measure 44
2000
0010
3010
0000
0002
0100
0103
0000
,  // measure 45
2000
0100
3100
0000
0002
0010
0013
0000
,  // measure 46
2000
0010
3020
0100
0230
0001
0302
1000
,  // measure 47
1003
0000
0000
0010
0000
0000
0100
0000
0001
0000
0010
0000
0100
0000
1000
0000
,  // measure 48
2001
0000
3010
0000
0100
0001
0100
0010
,  // measure 49
0000
0010
1000
0100
1000
0000
1001
0000
,  // measure 50
0201
0302
0023
0230
,  // measure 51
1300
0001
1000
0001
0000
0100
0001
0100
,  // measure 52
0001
0010
0100
1000
0010
0100
0001
1000
,  // measure 53
1001
0000
0110
0000
1001
0000
0000
1000
,  // measure 54
0001
1000
0010
0100
0010
0100
0001
0010
,  // measure 55
0001
0000
1001
0000
1000
0100
0001
0000
,  // measure 56
0100
0000
0000
1000
0000
0000
0010
0000
0100
0000
0001
0000
0100
0000
0010
0000
,  // measure 57
1000
0000
1001
0000
0010
0001
0200
0000
,  // measure 58
0310
1000
0001
1000
0010
0100
0002
0000
,  // measure 59
0013
0001
0200
0000
1300
0100
0002
0000
,  // measure 60
0103
0010
1000
0100
0020
0000
0031
0100
,  // measure 61
0001
0000
1001
0000
1000
0100
1000
0000
,  // measure 62
0011
0000
0110
0000
1000
0100
0010
0100
,  // measure 63
1000
0001
1000
0000
0001
0100
0001
0000
,  // measure 64
0100
0010
1000
0010
0100
0001
0010
0100
,  // measure 65
2000
0000
0000
0000
,  // measure 66
3000
0000
0000
0000
;
