#TITLE:Magnolia;
#SUBTITLE:;
#ARTIST:M2U;
#TITLETRANSLIT:;
#SUBTITLETRANSLIT:;
#ARTISTTRANSLIT:;
#GENRE:;
#CREDIT:;
#BANNER:Magnolia.png;
#BACKGROUND:Magnolia-bg.png;
#LYRICSPATH:;
#CDTITLE:;
#MUSIC:Magnolia.ogg;
#OFFSET:3.820001;
#SAMPLESTART:39.637035;
#SAMPLELENGTH:15.000000;
#LASTBEATHINT:7.537760;
#SELECTABLE:YES;
#BPMS:0.000000=160.000000
;
#STOPS:
;
#BGCHANGES:;
#KEYSOUNDS:;
#ATTACKS:;

//---------------dance-single - ----------------
#NOTES:
     dance-single:
     :
     Beginner:
     2:
     0.105516,0.193636,0.000000,0.053233,0.000000,111.000000,111.000000,0.000000,8.000000,0.000000,0.000000,0.105516,0.193636,0.000000,0.053233,0.000000,111.000000,111.000000,0.000000,8.000000,0.000000,0.000000:
0000
0000
0000
0000
,
0000
0000
0000
0000
,
0000
0000
0000
0000
,
0000
0000
0000
0000
,
1000
0001
1000
0000
,
0001
0000
0001
0000
,
0100
0010
0100
0000
,
0010
0000
1000
0000
,
1000
0000
1000
0000
,
0001
0000
0001
0000
,
0100
0000
0100
0000
,
0010
0000
0000
0000
,
0010
0000
0000
0000
,
1000
0000
0000
0000
,
0001
0000
0000
0000
,
0100
0000
0000
0000
,
0010
0000
0000
0000
,
1000
0000
0000
0000
,
0001
0000
0000
0000
,
1000
0000
0000
0000
,
0100
0000
0000
0000
,
0010
0000
0000
0000
,
0001
0000
0000
0000
,
1000
0000
0000
0000
,
0001
0000
0000
0000
,
0100
0000
0000
0000
,
0010
0000
0000
0000
,
1000
0000
0000
0000
,
0010
0000
0000
0000
,
0100
0000
0000
0000
,
0001
0000
0000
0000
,
1000
0000
0000
0000
,
0001
0000
0000
0000
,
1000
0000
0000
0000
,
0100
0000
0000
0000
,
0010
0000
0000
0000
,
0001
0000
0000
0000
,
1000
0000
0000
0000
,
0100
0000
0000
0000
,
0000
0000
0000
0000
,
1000
0000
0000
0000
,
0010
0000
0000
0000
,
0100
0000
0000
0000
,
0001
0000
0000
0000
,
1000
0000
0000
0000
,
0001
0000
0000
0000
,
0010
0000
0000
0000
,
0001
0000
0000
0000
,
0100
0000
0000
0000
,
0010
0000
0000
0000
,
0010
0000
0000
0000
,
1000
0000
1000
0000
,
1000
0000
0000
0000
,
0001
0000
0001
0000
,
0001
0000
0000
0000
,
0010
0000
0000
0000
,
0010
0000
0000
0000
,
0100
0000
0000
0000
,
0100
0000
0000
0000
,
0001
0000
0000
0000
,
0001
0000
0000
0000
,
1000
0000
1000
0000
,
1000
0000
0000
0000
,
0100
0000
0000
0000
,
0100
0000
0000
0000
,
0010
0000
0000
0000
,
0001
0000
0000
0000
,
1000
0000
0000
0000
,
0001
0000
0000
0000
,
1000
0000
0000
0000
,
0100
0000
0000
0000
,
0010
0000
0000
0000
,
0001
0000
0000
0000
,
1000
0000
0000
0000
,
0001
0000
0000
0000
,
1000
0000
0000
0000
,
0100
0000
0000
0000
,
0010
0000
0000
0000
,
0001
0000
0000
0000
,
0100
0000
0000
0000
,
0010
0000
0000
0000
,
1000
0000
1000
0000
,
0001
0000
0001
0000
,
0100
0000
0000
0000
,
0010
0000
0000
0000
,
1000
0000
0000
0000
,
0010
0000
0000
0000
,
0100
0000
0000
0000
,
0001
0000
0000
0000
,
0100
0000
0100
0000
,
0100
0000
0000
0000
,
0010
0000
0000
0100
0000
0000
2000
0000
,
0000
0000
0000
0000
,
3002
0000
0000
0203
0000
0000
0320
0000
,
0000
0000
0000
0230
,
0302
0000
0000
2003
0000
3020
0000
0000
,
0000
0000
0000
0000
,
0030
0000
0000
0000
;

//---------------dance-single - ----------------
#NOTES:
     dance-single:
     :
     Easy:
     5:
     0.226241,0.322727,0.166354,0.299437,0.000000,238.000000,213.000000,25.000000,45.000000,0.000000,0.000000,0.226241,0.322727,0.166354,0.299437,0.000000,238.000000,213.000000,25.000000,45.000000,0.000000,0.000000:
0000
0000
0000
0000
,
0000
0000
0000
0000
,
0000
0000
0000
0000
,
0000
0000
0000
0000
,
0001
0001
0001
0000
,
0100
0000
0010
0000
,
1000
1000
1000
0000
,
0100
0000
0010
0000
,
1000
1000
0001
0000
,
0100
0100
0010
0000
,
1000
1000
0010
0000
,
0100
0000
0001
0000
,
0010
0100
1000
0000
,
0001
0000
1000
0100
,
1000
0000
0010
0100
,
0001
0000
1000
0000
,
0001
1000
0001
0000
,
1000
0000
0010
0000
,
0100
0010
0100
0000
,
0001
0000
0000
0000
,
0000
0000
1000
0100
,
0010
0000
0001
0010
,
0200
2300
3002
0000
,
2003
0000
3200
0000
,
0320
0032
0203
0320
,
2030
0000
3002
0000
,
0203
0000
0302
0000
,
0023
0000
0230
0000
,
2300
0000
3002
0000
,
0103
0000
0100
0100
,
0110
0010
0010
0000
,
1000
0001
1000
0001
,
0200
0320
2030
3100
,
0020
0031
0010
0100
,
1000
0001
2000
0000
,
3010
0100
0010
1000
,
0020
0000
0230
0000
,
0301
1000
0001
0000
,
1000
0000
0100
0000
,
1000
0000
0010
0000
,
0200
0000
0302
0000
,
0023
0000
0230
0000
,
2300
0000
3002
0000
,
2003
0000
3020
0000
,
0230
0000
0302
0000
,
2003
0000
0000
0000
,
3001
0000
0000
0000
,
0002
0000
0000
1003
,
0000
0000
0000
0000
,
1000
0100
0010
0000
,
0001
0010
0100
0000
,
0010
0001
1000
0000
,
1100
0000
0101
0000
,
1100
0000
1010
0000
,
0011
0000
1010
0000
,
1001
0000
1001
0000
,
1001
0000
0000
0000
,
0100
0100
0010
0000
,
0010
0010
1000
0000
,
0001
0001
1000
0000
,
0010
0100
0001
0010
,
0000
0100
1000
0000
,
0001
1000
0010
0000
,
0100
0001
0010
0000
,
0001
0000
0000
0000
,
1100
0100
0010
0000
,
0011
0001
0100
0000
,
0010
0000
0010
0000
,
0100
0000
0100
0000
,
0001
0000
1000
0010
,
0001
0000
0000
0000
,
1000
0100
0001
0100
,
1000
0000
0000
0000
,
0010
0001
0010
0000
,
1000
0100
0001
0000
,
0100
1000
0010
0000
,
0001
0010
0100
0000
,
0001
0010
0100
0000
,
1000
0100
0001
0000
,
0100
1000
0010
0000
,
0001
0010
1000
0000
,
1001
0000
0000
0000
,
0101
0000
0000
0000
,
0110
0000
0000
0000
,
1010
0000
0000
0000
,
1100
0000
0000
0000
,
0110
0000
0000
0000
,
0011
0000
0000
0000
,
0101
0000
0000
0000
,
0110
0000
0000
1010
,
0000
0000
0000
0000
,
1100
0000
0000
2020
,
0000
0000
0000
0000
0000
0000
0000
3030
,
1002
0000
0000
0203
0000
0000
0320
0000
,
0000
0000
0000
0230
,
0302
0000
0000
2003
0000
3020
0000
0000
,
0000
0000
0000
0000
,
0030
0000
0000
0000
;

//---------------dance-single - ----------------
#NOTES:
     dance-single:
     :
     Medium:
     10:
     0.373583,0.451817,0.479099,0.192971,0.000000,393.000000,321.000000,72.000000,29.000000,0.000000,0.000000,0.373583,0.451817,0.479099,0.192971,0.000000,393.000000,321.000000,72.000000,29.000000,0.000000,0.000000:
0000
0000
0000
0000
,
0000
0000
0000
0000
,
0000
0000
0000
0000
,
0000
0000
0000
0000
,
1000
0001
1100
1000
,
1010
0000
0110
0000
,
0101
0001
1001
1000
,
1010
0000
0110
0000
,
1100
0000
0100
0010
0100
0000
1000
0000
,
0010
0000
0100
0001
0100
0000
0001
0000
,
1000
0000
0001
1000
0001
0000
0010
0000
,
0001
0000
0100
0000
,
0010
0000
1100
0000
,
0000
1010
0000
0000
0000
0000
0000
1100
,
0000
0000
0001
1000
,
0001
0000
0010
0100
,
1000
0100
0010
0000
,
0001
0000
1000
0100
,
1000
0010
0100
0001
,
0010
0000
0000
0000
,
0001
0000
0100
0010
,
2000
0000
3100
0010
,
0001
0100
0020
0030
,
1000
0100
0002
0000
,
0103
1000
0010
0001
,
0020
0000
2030
0000
,
3200
0000
0301
0000
,
0100
1000
0010
0001
,
0020
0000
2030
0000
,
3200
0000
0310
0001
,
0011
0010
1010
0000
,
1100
0100
0101
0000
,
0011
0010
1010
0100
,
0010
0001
0100
0010
,
1000
0100
1000
0000
0002
0000
0000
0000
,
0203
0000
0320
2030
,
3200
0000
0320
0000
,
0031
0100
0001
0100
0001
0000
1000
0000
,
0010
1000
0010
1000
0010
0000
0100
0000
,
0010
0100
0010
0100
0010
0000
0100
0000
,
0001
1000
0001
1000
,
1100
0000
0000
0110
0000
0000
0011
0000
,
0101
0000
0000
0110
0000
0000
1010
0000
,
1100
0000
0000
0110
0000
0000
0011
0000
,
0101
0000
0000
1001
0000
0000
0000
0000
,
0010
0100
1000
1001
,
0000
0000
0000
0001
,
0200
0000
0000
0320
0000
0000
2030
0000
,
0000
0000
0000
0000
0000
0000
0000
3000
,
0001
0010
0001
0010
0001
0000
1000
0000
,
0100
1000
0010
0100
,
0001
0010
0001
0010
0001
0000
0100
0000
,
0010
0000
1000
0100
1000
0100
1000
0000
,
0001
1000
0001
1000
,
0010
0100
0010
0100
,
0001
0010
0100
1000
0001
0010
0100
1000
,
0001
0000
0100
0010
0000
0100
0010
0000
,
1000
0100
0000
0000
0001
0000
0000
0000
,
1000
0000
0010
0000
0100
0010
0100
0000
,
0010
1000
0100
0010
,
1001
1001
1100
1100
,
0010
0100
0001
0010
,
0001
0000
1000
0000
0100
1000
0100
0000
,
0010
0100
0010
0000
0001
0010
0001
0000
,
0010
0100
1000
0100
0010
0001
0100
0000
,
0010
0000
1000
0100
1000
0000
0001
0000
,
0100
0000
0010
0100
0010
0000
1000
0000
,
1100
0000
0101
0000
,
0110
1010
1100
0000
,
0110
0000
0000
0000
0010
0001
0010
0000
,
0100
0000
1000
0100
1000
0000
0001
0000
,
0100
0010
1000
1100
,
0000
0000
0000
1001
,
1000
0100
0010
0001
,
0100
0010
1000
0000
,
0100
0000
1000
0100
1000
0000
0001
0010
,
0001
0000
0100
0010
0100
0000
0000
0000
,
1010
1000
0001
0100
,
0010
0000
1000
0100
1000
0000
0001
0010
,
0001
0000
0100
0010
0100
0000
0010
0000
,
1000
0000
0000
0000
,
1100
0000
0000
0110
0000
0000
0011
0000
,
0101
0000
0000
0110
0000
0000
1010
0000
,
1100
0000
0000
0101
0000
0000
1100
0000
,
1010
0000
0000
0011
0000
0000
1010
0000
,
1100
0000
0000
0110
0000
0000
0011
0000
,
0110
0000
0000
1100
0000
0000
1001
0000
,
1010
0000
0000
0110
0000
0000
0101
0000
,
1010
0000
0000
1001
0000
0000
0000
0000
,
0101
0000
0000
1100
0000
0000
2020
0000
,
0000
0000
0000
3030
0000
0000
0000
0000
,
0101
0000
0000
1001
0000
0000
2020
0000
,
0000
0000
0000
0000
0000
0000
0000
3030
,
1002
0000
0000
0203
0000
0000
0320
0000
,
0000
0000
0000
0230
,
0302
0000
0000
2003
0000
3020
0000
0000
,
0000
0000
0000
0000
,
0030
0000
0000
0000
;

//---------------dance-single - Copied from----------------
#NOTES:
     dance-single:
     Copied from:
     Hard:
     13:
     0.581763,0.645453,0.419212,0.479099,0.136410,612.000000,549.000000,63.000000,72.000000,0.000000,0.000000,0.581763,0.645453,0.419212,0.479099,0.136410,612.000000,549.000000,63.000000,72.000000,0.000000,0.000000:
// measure 0
0000
0000
0000
0000
,  // measure 1
0000
0000
0000
0000
,  // measure 2
0000
0000
0000
0000
,  // measure 3
0000
0000
0000
0000
,  // measure 4
2000
0000
0000
0000
3010
0100
0010
0000
0100
0000
0000
0000
0001
0000
0000
0000
,  // measure 5
2002
0000
0000
0000
3003
0000
1000
0010
2000
0000
0000
0000
3001
0000
0000
0000
,  // measure 6
0101
0000
0000
0000
0100
0010
0100
0000
0001
0000
0000
0000
1001
0000
0000
0000
,  // measure 7
2020
0000
0000
0000
3030
0000
1000
0100
1000
0000
0100
0000
0010
0000
0001
0000
,  // measure 8
1001
0000
0000
0000
1000
0010
1000
0000
0200
0000
0000
0000
0320
0000
0000
0000
,  // measure 9
0032
0000
0000
0000
0103
0010
0100
0000
0020
0000
0000
0000
1030
0000
0000
0000
,  // measure 10
1001
0000
0000
0000
0001
0100
0001
0000
0200
0000
0000
0000
0310
0000
0000
0000
,  // measure 11
1010
0000
1000
0000
0100
0000
0010
0000
0001
0000
0100
0000
0001
0010
0001
0000
,  // measure 12
1000
0001
0100
0110
0000
0000
0010
1000
,  // measure 13
0001
0011
0000
0001
0100
0010
0100
0010
,  // measure 14
1010
0000
1000
0000
1000
0100
0010
0001
,  // measure 15
0000
0010
0100
1000
0000
0001
1000
0000
,  // measure 16
0001
0100
0001
0000
0100
0000
0010
0000
0000
0000
1000
0000
2200
0000
3300
0000
,  // measure 17
0000
1000
0001
0010
0022
0000
0033
0000
,  // measure 18
1001
0000
1000
0000
0100
0000
0010
0000
0001
0000
1000
0000
,  // measure 19
2002
0000
0000
0000
,  // measure 20
3003
0000
0000
0101
,  // measure 21
2002
3003
0200
2300
,  // measure 22
3010
0100
0001
0010
0001
1000
0010
1000
,  // measure 23
0002
0000
0203
2300
,  // measure 24
3200
0000
0301
0010
0001
0010
0100
1000
,  // measure 25
0100
1100
1010
0110
,  // measure 26
0100
0000
0001
0000
0010
0000
0001
0000
1000
0000
0000
0000
0010
1000
0010
0000
,  // measure 27
0200
0000
0301
1000
0010
1000
0100
0000
,  // measure 28
1100
0000
0000
0000
0000
0000
0010
0000
0001
0000
0010
0000
0100
1000
0100
0000
,  // measure 29
2000
0000
3001
1010
,  // measure 30
0010
0100
0001
0010
0001
0000
1100
0000
,  // measure 31
0001
1000
0100
0000
1000
0100
0010
0001
,  // measure 32
0010
0100
1000
0001
0010
0100
0001
0100
,  // measure 33
1000
0101
0110
1010
,  // measure 34
1001
0101
0110
1010
,  // measure 35
0200
0010
0310
0000
2000
0001
3001
0000
,  // measure 36
0200
1000
1300
0100
0002
0000
1003
0000
,  // measure 37
1000
0001
0010
0001
0000
0100
0010
1000
,  // measure 38
0010
0100
0001
0010
0001
0100
0010
0000
,  // measure 39
1000
0010
1000
0010
0001
0010
0001
0000
,  // measure 40
0010
1000
0010
1000
0100
1000
0100
0000
,  // measure 41
0001
0100
0001
0100
1000
0100
1000
0000
,  // measure 42
0010
0100
0010
0100
0010
0000
1000
0000
0001
0000
1000
0000
0010
0000
0100
0000
,  // measure 43
0001
0000
0010
0011
0000
0010
0100
0000
,  // measure 44
1000
0000
0100
0000
0001
0000
0100
1000
0100
0000
1000
0000
0010
0000
0100
0000
,  // measure 45
0001
0000
0000
0011
0000
0000
0010
0100
,  // measure 46
1000
0100
0010
0001
0100
0010
0100
0001
,  // measure 47
1000
0000
0000
1001
0000
0000
0202
0000
,  // measure 48
0000
0000
0000
0000
0303
0000
0000
0000
1000
0010
1000
0000
0010
1000
0010
0000
,  // measure 49
0100
0001
0010
0001
1001
0000
1010
0000
,  // measure 50
0110
0000
0100
0001
0010
0100
1000
0010
,  // measure 51
0100
0001
0010
0001
2000
0000
3020
0000
,  // measure 52
0230
0000
0301
0010
1000
0010
0002
0000
,  // measure 53
1003
0100
0010
0001
0200
0000
0320
0000
,  // measure 54
2030
3001
1001
1010
,  // measure 55
0100
0010
1000
0001
0100
0010
1000
0001
,  // measure 56
1000
0000
0001
1010
0000
0010
0101
0000
,  // measure 57
1001
0000
0000
0001
0000
0000
1000
0000
0001
0000
0000
0100
0000
0010
0100
0000
,  // measure 58
0010
0000
0000
0101
0000
0000
0001
0000
1000
0000
1000
0000
0010
0000
0100
0000
,  // measure 59
0001
0000
0000
0100
0000
0000
1000
0000
0100
0000
0000
0001
0000
0010
0100
0000
,  // measure 60
1000
0100
1000
0100
0010
0001
0011
0000
,  // measure 61
0101
0000
0000
0001
0000
0000
0100
0000
0110
0000
0000
0010
0000
1000
0010
0000
,  // measure 62
1000
0000
0000
0001
0000
0000
0010
0000
0100
0000
1000
0000
0100
0000
0010
0000
,  // measure 63
0002
0000
0000
1003
0000
0000
0010
0000
1000
0000
0000
0100
0000
0000
0101
0000
,  // measure 64
0001
0100
1000
1010
0000
0022
0000
0033
,  // measure 65
0202
0303
0010
1000
0010
0001
0010
0000
,  // measure 66
1000
0000
0000
1100
0000
0000
0100
0000
0010
0000
0001
0000
0010
0000
0001
0000
,  // measure 67
0200
0000
0310
1000
0100
1000
0002
0000
,  // measure 68
0013
0001
0100
0010
0100
0001
0020
0000
,  // measure 69
0230
0000
0000
0000
1300
0000
0010
0000
1000
0000
0001
0100
0001
0000
0100
0000
,  // measure 70
0010
0000
0000
0110
0000
0000
0001
0000
1000
0000
0000
1010
0000
0000
0010
0000
,  // measure 71
1000
0100
1000
0100
0010
0001
0010
0000
,  // measure 72
0010
0001
0000
0001
0202
0000
0000
0303
,  // measure 73
2002
3003
0001
0010
0200
0000
2300
0000
,  // measure 74
3200
0320
0032
0103
,  // measure 75
0010
0000
0000
0000
1000
0001
1000
0000
0001
0000
0100
0000
0010
0000
0100
0000
,  // measure 76
0001
1000
0010
1000
0100
0010
0001
0100
,  // measure 77
0020
0000
1030
0001
2001
0000
3001
0000
,  // measure 78
0100
0010
1000
0010
0200
0000
0301
0010
,  // measure 79
0100
0000
0010
0000
0001
1000
0001
1000
0001
0000
0000
0000
1000
0000
0010
0000
,  // measure 80
0100
0000
0010
0000
1000
0000
0001
0000
0100
0010
0100
0000
0001
0000
0010
0000
,  // measure 81
0011
0000
0000
1100
0000
0000
1001
0000
,  // measure 82
0001
0010
0001
0100
0010
1000
0010
0000
,  // measure 83
1000
0100
1000
0100
0010
0001
0010
0001
,  // measure 84
0100
0010
1000
0100
0010
0001
0100
0010
,  // measure 85
1000
1000
0001
0001
0100
0100
0020
0000
,  // measure 86
1030
0100
1000
0100
1000
0100
1000
0000
,  // measure 87
0001
0100
0001
0100
0001
0100
0001
0000
,  // measure 88
0100
0010
1000
0010
0210
0000
0300
0000
,  // measure 89
1001
0000
0000
0101
0000
0000
0100
0010
,  // measure 90
1000
0100
0010
0001
1000
0010
0100
1000
,  // measure 91
0100
0010
1000
0100
0010
0001
2002
0000
,  // measure 92
0000
0000
0000
0000
0000
0000
0000
3003
,  // measure 93
0102
0000
0000
0203
0000
0000
0320
0000
,  // measure 94
0000
0000
0000
0230
,  // measure 95
0302
0000
0000
2003
0000
0000
3020
0000
,  // measure 96
0000
0000
0000
0000
,  // measure 97
0030
0000
0000
0000
;

//---------------dance-single - Copied from----------------
#NOTES:
     dance-single:
     Copied from:
     Challenge:
     15:
     0.700588,0.869116,0.944890,0.519024,0.256185,737.000000,595.000000,142.000000,78.000000,0.000000,0.000000,0.700588,0.869116,0.944890,0.519024,0.256185,737.000000,595.000000,142.000000,78.000000,0.000000,0.000000:
// measure 0
0000
0000
0000
0000
,  // measure 1
0000
0000
0000
0000
,  // measure 2
0000
0000
0000
0000
,  // measure 3
0000
0000
0000
0000
,  // measure 4
1000
0000
0000
0000
0001
0100
0001
0100
0010
0000
0000
0000
1010
0000
0000
0000
,  // measure 5
2200
0000
0000
0000
3300
0000
0100
0010
0002
0000
0000
0000
0000
0000
0003
0000
,  // measure 6
0101
0000
0000
0000
0100
0010
0100
0010
1000
0000
0000
0000
1010
0000
0000
0000
,  // measure 7
2002
0000
0000
0000
3003
0000
0001
0010
0100
0000
1000
0000
0010
0000
0100
0001
,  // measure 8
2000
0000
0000
0000
3001
0100
0001
0100
0010
0000
0000
0000
1001
0000
0000
0000
,  // measure 9
0101
0000
0100
0000
0010
1000
0010
1000
0001
0000
0000
0000
0101
0000
0100
0000
,  // measure 10
0110
0000
0000
0000
1000
0001
1000
0001
0100
0000
0000
0000
0101
0000
0000
0000
,  // measure 11
0100
0000
0010
0000
1000
0000
0100
0000
1000
0000
0001
0000
1000
0001
1000
0000
,  // measure 12
0010
0100
0001
0022
0033
0000
0001
0010
,  // measure 13
0100
1000
1000
0010
2020
0000
3030
0000
,  // measure 14
1100
0000
0110
0000
0010
0001
1000
0001
,  // measure 15
0000
1000
0010
0110
0000
0100
0101
0000
,  // measure 16
0001
0000
0010
0001
1000
0000
1002
0000
0003
0000
1000
0000
2020
0000
3030
0000
,  // measure 17
0000
0010
0100
0001
0022
0000
0033
0000
,  // measure 18
1001
0000
0101
0000
0110
0000
1010
0000
1100
0000
0110
0000
,  // measure 19
2002
0000
0000
0000
,  // measure 20
3003
0000
0000
1000
,  // measure 21
1002
0000
0000
0000
0013
1000
0020
0000
,  // measure 22
0031
0100
1000
0100
0002
0000
1003
0100
,  // measure 23
0002
0000
0103
1000
0020
0000
0130
0001
,  // measure 24
0020
0000
0031
1000
0010
1000
0100
0010
,  // measure 25
0011
0000
1001
0000
2200
3300
0220
0330
,  // measure 26
0022
0000
0033
0000
0010
0000
0100
0000
1000
0000
0000
0000
0001
0100
0001
0100
,  // measure 27
0010
0000
0100
0001
0010
0010
0100
1000
,  // measure 28
1001
0000
1000
0010
0100
0001
0010
0100
,  // measure 29
2200
0000
3300
0000
1000
0100
0010
0100
,  // measure 30
1000
0100
0010
0001
0101
0000
0010
1000
,  // measure 31
0002
0100
0103
0000
0020
1000
1000
0100
,  // measure 32
0130
0000
0002
1000
1000
0100
0103
0000
,  // measure 33
2000
0100
0100
0010
3020
0000
0230
0000
,  // measure 34
0302
0000
0203
0010
0320
0000
2030
0001
,  // measure 35
3002
0000
0013
0100
0010
0000
0001
0100
,  // measure 36
0020
0230
0302
1003
,  // measure 37
1001
1000
1000
1010
0000
0110
0010
0110
,  // measure 38
0100
0100
0100
0100
0100
0100
0101
0000
,  // measure 39
0011
0001
0001
0001
0001
0001
1001
0000
,  // measure 40
0101
0100
0100
0100
0100
0100
0110
0000
,  // measure 41
0001
1001
0000
1000
1010
0000
0110
0000
,  // measure 42
0100
0001
0100
0001
0100
0010
0100
0010
0100
1000
0100
1000
0100
0010
0100
0010
,  // measure 43
1000
1000
1000
1001
0000
0001
0101
0000
,  // measure 44
0110
0000
0000
0000
0010
0000
1000
0001
1000
0001
0100
0010
1000
0100
1000
0100
,  // measure 45
1000
0001
0000
0011
0000
0010
1000
0010
,  // measure 46
0001
0100
1000
0100
0001
0010
0100
1000
,  // measure 47
1010
0000
0001
0101
0000
1000
2002
0000
,  // measure 48
0000
0000
0000
0000
3003
0000
0000
0000
0001
1000
0001
0000
1000
0010
1000
0000
,  // measure 49
0010
0100
0001
0010
1010
0000
0011
0000
,  // measure 50
0101
0000
0010
1000
0001
0100
0001
1000
,  // measure 51
0100
0010
0001
0100
0110
0000
0101
0000
,  // measure 52
0011
0000
0010
0100
1000
0001
1000
0010
,  // measure 53
0100
0001
0010
0100
1000
0000
0011
0000
,  // measure 54
1010
0000
0000
0000
1001
0000
0000
0000
0101
0000
0000
0000
0001
0100
0010
0100
,  // measure 55
0001
1000
0001
1000
0001
1000
0001
0000
,  // measure 56
1001
0000
0110
0110
0000
1010
1010
0000
,  // measure 57
1100
0000
0000
0110
0000
0000
0010
0000
0011
0000
0000
1001
0000
1000
0010
0000
,  // measure 58
0110
0000
0000
0101
0000
0000
0011
0000
0110
0000
0100
0000
1100
0000
1000
0000
,  // measure 59
1001
0000
0000
0101
0000
0000
1000
0000
1100
0000
0000
0110
0000
0010
0001
0000
,  // measure 60
1000
1010
0010
0110
0101
0011
0220
0330
,  // measure 61
1100
0000
0000
1001
0000
0000
0101
0000
0101
0000
0000
0110
0000
0010
1000
0000
,  // measure 62
1100
0000
0000
0110
0000
0000
0100
0000
0021
0000
0001
0000
1000
0000
1030
0000
,  // measure 63
1010
0000
0000
0011
0000
0000
0101
0000
0011
0000
0000
1010
0000
0000
0101
0000
,  // measure 64
0100
0010
1000
0010
0000
2002
0000
3003
,  // measure 65
0202
0303
0020
1000
0001
1000
0100
1000
,  // measure 66
0031
0000
0000
0101
0000
0000
0100
0000
0102
0000
1000
0000
1000
0000
0013
0000
,  // measure 67
1010
0000
2000
0100
0001
0100
0010
0001
,  // measure 68
3010
0010
0110
0100
2001
0010
0001
0010
,  // measure 69
3001
0000
0201
0010
1000
0010
0301
0000
,  // measure 70
1001
0000
0000
1010
0000
0000
0110
0000
0101
0000
0000
0011
0000
0000
1010
0000
,  // measure 71
0011
0001
0010
1001
0100
1000
1100
0000
,  // measure 72
0001
0011
0000
0000
2002
0000
0000
3003
,  // measure 73
2100
0000
3100
0010
0001
1000
0002
0000
,  // measure 74
1003
0010
0100
0010
2000
0000
3001
0100
,  // measure 75
2000
0000
0000
0000
3100
0000
0001
0000
0010
0100
1000
0010
0100
0001
0010
0100
,  // measure 76
1000
0000
0001
0010
0001
0000
1000
0010
1000
0000
0100
0010
0100
0010
0100
0000
,  // measure 77
2001
0000
3010
0100
0201
0000
0301
0000
,  // measure 78
1000
0100
0010
0001
0021
0000
0031
0010
,  // measure 79
0001
0000
1000
0000
0100
0010
0100
0010
0100
0000
0000
0000
1000
0000
0001
1000
,  // measure 80
0001
0000
0001
0000
0100
0000
0010
0000
1000
0001
1000
0100
1000
0000
0001
0000
,  // measure 81
0011
0000
0000
0101
0100
0010
1000
0001
,  // measure 82
0100
0100
0100
0100
0100
0100
0110
0000
,  // measure 83
0001
0001
0001
1001
0000
0100
0100
0100
,  // measure 84
0110
0000
0000
1010
0000
0000
1001
0000
,  // measure 85
0101
0100
0100
1100
0000
0101
0001
0001
,  // measure 86
0001
0010
0001
0010
0001
0010
0001
0010
0100
1000
0100
1000
0100
1000
0100
1000
,  // measure 87
0010
0010
0010
0101
0000
1000
1001
0000
,  // measure 88
0001
0000
0010
0000
0001
0000
0010
0100
0010
0100
2000
0000
0000
0000
3000
0000
,  // measure 89
1001
0000
0000
0101
0000
0000
0100
0010
,  // measure 90
1000
0100
0010
1000
0010
0001
0100
0010
,  // measure 91
1010
0000
1000
1100
0000
0001
0202
0000
,  // measure 92
0000
0000
0000
0000
0000
0000
0000
0303
,  // measure 93
2001
0000
0000
3200
0000
0000
0320
0000
,  // measure 94
0000
0000
0000
0032
,  // measure 95
2003
0000
0000
3002
0000
0000
0203
0000
,  // measure 96
0000
0000
0000
0300
;
