#TITLE:Light Shine;
#SUBTITLE:;
#ARTIST:Ryu☆;
#TITLETRANSLIT:;
#SUBTITLETRANSLIT:;
#ARTISTTRANSLIT:Ryu*;
#GENRE:;
#CREDIT:;
#BANNER:;
#BACKGROUND:Light Shine-bg.png;
#LYRICSPATH:;
#CDTITLE:;
#MUSIC:Light Shine.ogg;
#OFFSET:-0.260000;
#SAMPLESTART:2.060021;
#SAMPLELENGTH:15.000000;
#SELECTABLE:YES;
#DISPLAYBPM:140.000000;
#BPMS:0.000000=140.029999
;
#STOPS:
;
#BGCHANGES:;
#KEYSOUNDS:;
#ATTACKS:;

//---------------dance-single - ----------------
#NOTES:
     dance-single:
     :
     Beginner:
     2:
     0.118668,0.141592,0.000000,0.000000,0.000000,88.000000,88.000000,0.000000,0.000000,0.000000,0.000000,0.118668,0.141592,0.000000,0.000000,0.000000,88.000000,88.000000,0.000000,0.000000,0.000000,0.000000:
0000
0000
0000
0000
,
0000
0000
0000
0000
,
0000
0000
0000
0000
,
1000
0000
1000
0000
,
0001
0000
0001
0000
,
0100
0000
0100
0000
,
0010
0000
0010
0000
,
1000
0000
1000
0000
,
0001
0000
0001
0000
,
0100
0000
0000
0000
,
0100
0000
0100
0000
,
0010
0000
0010
0000
,
1000
0000
1000
0000
,
0001
0000
0001
0000
,
0100
0000
0000
0000
,
0100
0000
0000
0000
,
0010
0000
0000
0000
,
0010
0000
0000
0000
,
1000
0000
1000
0000
,
1000
0000
0000
0000
,
0001
0000
0001
0000
,
0001
0000
0000
0000
,
0100
0000
0100
0000
,
0100
0000
0000
0000
,
0010
0000
0010
0000
,
0010
0000
0000
0000
,
1000
0000
1000
0000
,
1000
0000
0000
0000
,
0001
0000
0001
0000
,
0001
0000
0100
0000
,
0100
0000
0010
0000
,
0010
0000
0010
0000
,
1000
0000
1000
0000
,
0001
0000
0001
0000
,
0001
0000
0100
0000
,
0100
0000
0000
0000
,
0010
0000
0010
0000
,
1000
0000
0001
0000
,
1000
0000
0001
0000
,
1000
0000
0000
0000
,
0000
0001
0000
0000
,
1000
0000
0001
0000
,
0000
0000
1000
0000
,
0001
0000
0000
1000
,
0000
0000
0010
0000
,
0100
0000
0001
0000
,
0000
0000
0100
0000
,
0000
0010
0000
0000
,
0000
1000
0000
0000
,
0001
0000
0000
1000
,
0000
0000
0010
0000
,
0000
0100
0000
0001
,
0000
0000
0000
0000
,
0100
0000
0000
0000
,
0000
0010
0000
0000
,
0000
0000
0000
0100
,
0000
0000
0001
0000
,
1000
0000
0000
0000
,
0001
0000
0000
0000
,
1000
0000
0010
0000
,
1000
0000
0000
0000
;

//---------------dance-single - ----------------
#NOTES:
     dance-single:
     :
     Easy:
     4:
     0.249472,0.254866,0.018879,0.113274,0.000000,185.000000,183.000000,2.000000,12.000000,0.000000,0.000000,0.249472,0.254866,0.018879,0.113274,0.000000,185.000000,183.000000,2.000000,12.000000,0.000000,0.000000:
0000
0000
0000
0000
,
0000
0000
0000
0000
,
0000
0000
0000
0000
,
1000
0001
1000
0000
,
0001
0001
0001
0000
,
0100
0010
0100
0001
,
0010
0010
0010
0000
,
0001
0100
1000
0100
,
0001
1000
0001
0000
,
1000
0000
0000
0000
,
0001
0010
0001
0100
,
0010
0000
1000
1000
,
1000
0000
0001
0001
,
0001
0000
0100
0100
,
0100
0000
0010
0010
,
0010
0000
1000
1000
,
1000
0000
0001
0001
,
0001
0000
0100
0100
,
0100
0010
0100
0000
,
0001
0010
0001
0010
,
0000
0001
0100
0000
,
0001
1000
0010
1000
,
0000
0001
1000
0001
,
0000
1000
0100
1000
,
0000
0010
0100
0010
,
0000
0100
0001
0100
,
0000
0000
0000
0000
,
1001
1000
0010
0100
,
0020
2030
3002
0003
,
0100
0010
1000
0010
,
0200
0302
2003
3000
,
0001
1000
0001
1000
,
0020
0230
0302
0003
,
1000
0100
1000
0100
,
0020
0032
0203
0300
,
0010
1000
0100
1000
,
0001
0100
0010
0000
,
0100
0001
1000
0000
,
0001
0010
0100
0000
,
1000
0100
0010
0000
,
0001
1000
0001
0000
,
0100
0010
0100
0000
,
0001
1000
0001
1000
,
0010
0000
0100
0000
,
0001
1000
0001
1000
,
0010
0100
0001
0000
,
0100
0001
0010
0001
,
1000
1000
1000
0000
,
0000
0010
0100
0001
,
0000
0100
0010
1000
,
0000
0001
1000
0001
,
1000
0010
0100
0000
,
0001
1000
0001
1000
,
0001
0010
0001
0010
,
0000
0001
0100
0001
,
1000
0010
1000
0101
,
0000
0000
0010
1000
,
0100
1000
0001
0010
,
0001
1000
0100
1000
,
0010
0100
0010
0100
,
0001
0000
0000
0000
;

//---------------dance-single - ----------------
#NOTES:
     dance-single:
     :
     Medium:
     7:
     0.339821,0.397284,0.226548,0.000000,0.000000,252.000000,228.000000,24.000000,0.000000,0.000000,0.000000,0.339821,0.397284,0.226548,0.000000,0.000000,252.000000,228.000000,24.000000,0.000000,0.000000,0.000000:
// measure 0
0000
0000
0000
0000
,  // measure 1
0000
0000
0000
0000
,  // measure 2
0000
0000
0000
0000
,  // measure 3
1000
1000
0001
0001
,  // measure 4
0100
0100
0110
0000
,  // measure 5
0010
0000
1000
0000
0010
0100
0010
0000
,  // measure 6
1000
0100
0011
0000
,  // measure 7
0001
1000
0001
0100
,  // measure 8
1000
0100
0001
0000
,  // measure 9
0010
1000
0010
0001
,  // measure 10
1000
0010
0100
0010
,  // measure 11
1000
0100
1000
0001
,  // measure 12
0010
0001
0100
0010
,  // measure 13
0100
0001
0010
0001
,  // measure 14
1000
0100
0010
0001
,  // measure 15
1000
0001
0100
0010
,  // measure 16
0100
0000
0010
0000
1000
0100
1000
0000
,  // measure 17
0001
0100
0010
0100
,  // measure 18
0001
0000
0001
0000
1000
0000
1000
0001
,  // measure 19
1000
0000
0010
0000
0010
0000
0100
0010
,  // measure 20
0100
0000
0010
0000
0010
0000
1000
0010
,  // measure 21
1000
0000
0001
0000
0001
0000
1000
0001
,  // measure 22
1000
0000
0001
0000
0001
0000
1000
0001
,  // measure 23
1000
0000
0001
0000
0001
0000
1000
0001
,  // measure 24
1000
0000
0010
0000
0010
0000
0100
0010
,  // measure 25
0100
0000
0100
0000
0100
0000
0010
0100
,  // measure 26
0010
0000
0000
0000
,  // measure 27
0100
0001
0010
0100
,  // measure 28
1100
1001
0101
0000
,  // measure 29
0100
0100
0010
0010
,  // measure 30
1010
1001
0101
0000
,  // measure 31
0100
0000
0010
0000
0100
0010
0100
0000
,  // measure 32
1010
1001
0110
0000
,  // measure 33
1100
0010
0011
0001
,  // measure 34
0110
1010
0101
1000
,  // measure 35
0001
0010
0001
1000
,  // measure 36
0100
1000
0010
0100
,  // measure 37
0010
0000
1000
0000
0001
0100
0000
0000
,  // measure 38
0000
0100
0000
0010
0000
1000
0000
0100
,  // measure 39
0000
1000
0000
0001
0000
1001
0000
0000
,  // measure 40
0000
0010
0000
0100
0000
0010
0000
1000
,  // measure 41
0000
0100
0000
1000
0000
0101
0000
0000
,  // measure 42
0000
0010
0000
1000
0000
0100
0000
1000
,  // measure 43
0000
0001
0000
0101
0000
0100
0000
0000
,  // measure 44
0000
0010
1000
0010
0000
1000
0000
0100
,  // measure 45
0000
0010
0000
0001
0010
0001
0000
0000
,  // measure 46
0000
1000
0100
1000
0000
0010
0000
0100
,  // measure 47
0000
0010
0000
1000
0000
1001
0000
0000
,  // measure 48
0000
0101
0000
0100
0000
0100
0000
0010
,  // measure 49
0000
0010
0000
1000
0000
1001
0000
0000
,  // measure 50
0000
0001
0000
0010
0000
0001
0000
0010
,  // measure 51
0000
1000
0000
0010
0000
0001
0000
0000
,  // measure 52
0000
0100
0000
1000
0000
0100
0000
0001
,  // measure 53
0000
0010
0000
0100
0000
1000
0001
1000
,  // measure 54
0000
0001
0000
0010
0000
1000
0000
0010
,  // measure 55
0000
0001
0000
0100
0000
1100
0000
0000
,  // measure 56
0000
1000
0000
0100
0000
0001
0000
0100
,  // measure 57
0000
1000
0000
0010
0000
0001
0010
1000
,  // measure 58
0000
0001
0000
0100
0000
0001
0000
0100
,  // measure 59
0000
0001
0000
1000
0000
0010
0000
1000
,  // measure 60
0000
1001
0000
0000
0000
0000
0000
0000
;

//---------------dance-single - ----------------
#NOTES:
     dance-single:
     :
     Hard:
     13:
     0.598733,0.599643,0.235987,0.349261,0.226548,444.000000,419.000000,25.000000,37.000000,0.000000,0.000000,0.598733,0.599643,0.235987,0.349261,0.226548,444.000000,419.000000,25.000000,37.000000,0.000000,0.000000:
// measure 0
0000
0000
0000
0000
,  // measure 1
0000
0000
0000
0000
,  // measure 2
0000
0000
0000
0000
,  // measure 3
1000
0001
0010
0001
0100
0010
0200
0000
,  // measure 4
0302
2003
3020
0030
,  // measure 5
1000
0100
0010
0001
0010
0100
1000
0000
,  // measure 6
1002
0203
0320
0030
,  // measure 7
0100
0001
0010
0001
1000
0010
1000
0000
,  // measure 8
1002
0203
0320
1030
,  // measure 9
1000
0000
0001
0000
0010
0001
0010
0000
0001
0000
0100
0000
0010
0100
0010
0100
,  // measure 10
0010
1000
0100
0000
1000
0001
0010
0001
,  // measure 11
0100
0000
0010
0000
0100
0001
0100
0000
0010
0000
1000
0001
0000
0001
0000
0100
,  // measure 12
0010
0000
0100
0010
1000
0000
0001
0010
,  // measure 13
1000
0010
0001
0100
1000
0100
0001
1000
,  // measure 14
0010
0100
0001
0100
0010
0100
0001
0100
,  // measure 15
0010
1000
0001
1000
0010
1000
0001
1000
,  // measure 16
0010
1000
0001
0010
0100
0010
0001
0010
,  // measure 17
0100
1000
0010
0100
0001
0010
0001
1000
,  // measure 18
0001
0000
0001
0000
0100
0000
0100
0000
1000
0000
1000
0000
0100
0001
0100
0001
,  // measure 19
0010
0000
0010
0000
0100
0000
0100
0000
1000
0000
1000
0000
0100
0010
0100
0010
,  // measure 20
0001
0000
0001
0000
0010
0000
0010
0000
1000
0000
1000
0000
0010
0001
0010
0001
,  // measure 21
1000
0000
1000
0000
0010
0000
0010
0000
0001
0000
0001
0000
0010
1000
0010
1000
,  // measure 22
0001
0000
0001
0000
0010
0000
0010
0000
0100
0000
0100
0000
1000
0001
1000
0000
,  // measure 23
0010
0000
0010
0000
0100
0000
0100
0000
0010
0000
0010
0000
1000
0100
1000
0000
,  // measure 24
0001
0000
0001
0000
0100
0000
0100
0000
0010
0000
0010
0000
1000
0001
1000
0000
,  // measure 25
0001
0010
0001
0010
0100
1000
0100
1000
,  // measure 26
0001
0000
0001
0000
0100
0010
0100
0000
0010
0000
1000
0000
0100
1000
0100
1000
,  // measure 27
0001
0100
0010
0100
0001
0010
0200
0000
,  // measure 28
1300
0100
0000
0000
0100
0010
0000
0000
0022
0000
0000
0000
0033
0000
0000
0000
,  // measure 29
0001
0010
1000
0001
0100
1000
0001
0000
,  // measure 30
0001
0100
0000
0000
0100
0010
0000
0000
2020
0000
0000
0000
3030
0000
0000
0000
,  // measure 31
0001
0000
0010
0000
0100
0000
0010
0000
0100
1000
0100
0000
1100
0000
0000
0000
,  // measure 32
1001
0110
2002
3003
,  // measure 33
0001
0000
0100
0000
1000
0000
0100
0000
0001
1000
0001
0000
0100
0000
0000
0000
,  // measure 34
0110
0101
2002
3003
,  // measure 35
0000
0000
1000
0000
0100
0000
0010
0000
0001
0100
0001
0000
0010
0000
0100
1000
,  // measure 36
0001
1000
0001
0000
0010
0000
1000
0000
0010
0000
0011
0000
0000
0001
0100
0000
,  // measure 37
0010
0000
0100
0000
0000
0100
0001
0000
1000
0000
0001
1000
0001
0000
0010
0100
,  // measure 38
0010
0000
0100
0000
1000
0000
0010
0000
0001
0000
0010
0000
0000
0100
0001
0000
,  // measure 39
0010
0200
0000
2300
0000
3020
0100
0130
,  // measure 40
0000
0000
0010
0000
1000
0000
0100
0000
1000
0000
0001
0000
0000
0001
0010
0000
,  // measure 41
0001
0000
0100
0000
0000
0100
0010
0000
1000
0000
0010
0000
0100
0000
0001
0000
,  // measure 42
0000
0000
1000
0000
0010
0000
0001
0000
0010
0000
1000
0000
0000
1000
0001
0000
,  // measure 43
0100
0000
0202
0000
0000
0000
0303
0000
1000
0001
1000
0000
0000
0000
0020
0000
,  // measure 44
0030
0000
1000
0000
0100
0000
1000
0000
0100
0000
0010
0000
0000
0001
0010
0000
,  // measure 45
0001
0000
0100
0000
0000
0010
0100
0000
0010
0000
1000
0000
0000
0000
0001
0000
,  // measure 46
0000
0000
1000
0000
0010
0000
0001
0000
0010
0000
1000
0000
0000
1000
0001
0000
,  // measure 47
0100
0000
0110
0000
0000
0000
0110
0000
0000
0000
1001
0000
1000
0100
1000
0000
,  // measure 48
0100
0000
0010
0000
0001
0000
0100
0000
0010
0000
0100
0000
0000
0001
0010
0000
,  // measure 49
0001
0000
0101
0000
0000
0010
0100
0000
0001
0000
1000
0000
0010
0000
1000
0000
,  // measure 50
0000
0000
0001
0000
0100
0000
0010
0000
0000
0100
0001
0000
1000
0000
0001
0000
,  // measure 51
1000
0000
0010
0000
0000
0000
0110
0000
0000
0000
0101
0000
0000
0000
0001
1000
,  // measure 52
0001
1000
0010
0100
0020
0000
1030
0100
,  // measure 53
0002
0000
1003
0010
0001
1000
0001
2100
,  // measure 54
0000
3010
0100
0001
0201
0000
0310
1000
,  // measure 55
0100
1200
0000
0320
0000
0032
0010
1003
,  // measure 56
0010
0001
1000
0001
2000
0000
3010
0100
,  // measure 57
0002
0000
1003
0100
0001
0100
1000
2000
,  // measure 58
0000
3010
1000
0100
2000
0000
3001
0100
,  // measure 59
0010
0110
0000
0110
0000
1001
1000
0001
,  // measure 60
0100
0001
0200
0000
0000
0000
0000
0000
0300
0000
0000
0000
0000
0000
0000
0000
;
