#TITLE:Leviathan;
#SUBTITLE:;
#ARTIST:NeLiME;
#TITLETRANSLIT:;
#SUBTITLETRANSLIT:;
#ARTISTTRANSLIT:;
#GENRE:;
#CREDIT:;
#BANNER:Leviathan.png;
#BACKGROUND:Leviathan-bg.png;
#LYRICSPATH:;
#CDTITLE:;
#MUSIC:Leviathan.ogg;
#OFFSET:-1.295000;
#SAMPLESTART:81.301971;
#SAMPLELENGTH:15.000000;
#SELECTABLE:YES;
#BPMS:0.000000=92.500000
,20.000000=195.000000
,21.000000=192.000000
,22.000000=189.000000
,23.000000=187.000000
,24.000000=185.000000
,156.000000=92.500000
,172.000000=185.000000
,203.937500=369.997986
,212.000000=185.000000
;
#STOPS:204.000000=1.300000,
340.000000=0.243000
;
#BGCHANGES:;
#KEYSOUNDS:;
#ATTACKS:;

//---------------dance-single - ----------------
#NOTES:
     dance-single:
     :
     Beginner:
     3:
     0.115179,0.268234,0.007752,0.015505,0.000000,104.000000,103.000000,1.000000,2.000000,0.000000,0.000000,0.115179,0.268234,0.007752,0.015505,0.000000,104.000000,103.000000,1.000000,2.000000,0.000000,0.000000:
0000
0000
0000
0000
,
0010
0000
0100
0000
,
0001
0000
0000
0000
0000
1000
0000
0000
,
0000
0010
0000
0000
0000
0000
0100
0000
,
0000
0000
0000
0000
,
0010
0000
0000
0000
,
1000
0000
0000
0000
,
0001
0000
0000
0000
,
0100
0000
0000
0000
,
0010
0000
0000
0000
,
1000
0000
0000
0000
,
0001
0000
0001
0000
,
1000
0000
1000
0000
,
0010
0000
0000
0000
,
0100
0000
0000
0000
,
0001
0000
0000
0000
,
1000
0000
0000
0000
,
0100
0000
0000
0000
,
0010
0000
0000
0000
,
0001
0000
0000
0000
,
1000
0000
0000
0000
,
0001
0000
0000
0000
,
0100
0000
0000
0000
,
0010
0000
0000
0000
,
0010
0000
0000
0000
,
1000
0000
0000
0000
,
1000
0000
0000
0000
,
0001
0000
0000
0000
,
0001
0000
0000
0000
,
0100
0000
0000
0000
,
0100
0000
0000
0000
,
0000
0000
0000
0000
,
0001
0000
0000
0000
,
1000
0000
0000
0000
,
0010
0000
0000
0000
,
1000
0000
0000
0000
,
0100
0000
0000
0000
,
0010
0000
0010
0000
,
0010
0000
0000
0000
,
1000
0001
1000
1000
,
0000
0100
1000
1000
,
0010
0000
0000
0010
,
0000
0000
0100
0000
,
0010
0000
0000
0000
,
1000
0000
0000
0000
,
0100
0000
0010
0000
,
0001
0000
0010
0000
,
0100
0000
1000
0000
,
0001
0000
1000
0000
,
0100
0000
0000
0000
,
1000
0000
0000
0000
,
0010
0000
0000
0000
,
0000
0000
0000
0000
,
1000
0000
0000
0000
,
0001
0000
0000
0000
,
0100
0000
0000
0000
,
0010
0000
0000
0000
,
1000
0000
0000
0000
,
0001
0000
0000
0000
,
1000
0000
0000
0000
,
0100
0000
0100
0000
,
0100
0000
0000
0000
,
0010
0000
0010
0000
,
0010
0000
0000
0000
,
0001
0000
0001
0000
,
0001
0000
0000
0000
,
1000
0000
1000
0000
,
1000
0000
0000
0000
,
0100
0000
0100
0000
,
0100
0000
0000
0000
,
0010
0000
0000
0000
,
0010
0000
0000
0000
,
0001
0000
0000
0000
,
0001
0000
0000
0000
,
0001
0000
0000
0000
,
1000
0000
0000
0000
,
0100
0000
0000
0000
,
1000
0000
0000
0000
,
0001
0000
0000
0000
,
1000
0000
0000
0000
,
0001
0000
0000
0000
,
0010
0000
0000
0000
,
0001
0000
0000
0000
,
1000
0000
0000
0000
,
0001
0000
0000
0000
,
2002
0000
0000
0000
,
0000
0000
3003
0000
;

//---------------dance-single - ----------------
#NOTES:
     dance-single:
     :
     Easy:
     7:
     0.304559,0.560936,0.062019,0.193810,0.000000,275.000000,267.000000,8.000000,25.000000,0.000000,0.000000,0.304559,0.560936,0.062019,0.193810,0.000000,275.000000,267.000000,8.000000,25.000000,0.000000,0.000000:
0000
0000
0000
0000
,
1000
0010
1000
0000
,
0100
0010
0001
0000
,
0010
0100
1000
0100
,
0010
0001
1000
0001
,
0010
0010
0010
0000
,
0100
0100
0100
0000
,
1000
1000
1000
0000
,
0001
0001
0001
0000
,
0010
0001
0010
0000
,
0100
1000
0100
0000
,
1000
0001
1000
0001
,
1000
0001
1000
0001
,
1000
0000
0000
0000
,
0000
0000
0000
0000
,
0010
0100
0010
0000
,
0100
0001
0100
0000
,
0001
0010
0001
0000
,
0010
0100
0010
0000
,
1000
0100
0001
0000
,
1000
0100
0001
0000
,
0100
1000
0010
0000
,
0001
0010
1000
0000
,
0100
0001
0100
0000
,
1000
0010
0001
0000
,
1000
0010
0001
0000
,
1000
0100
0001
0000
,
1000
0100
0001
0000
,
0100
1000
0010
0000
,
0001
0010
1000
0100
,
0010
0001
0010
0100
,
1000
0000
0001
0000
,
0200
0000
0320
0000
,
2030
0000
3200
0000
,
0320
0000
0032
0000
,
0103
0000
0020
0000
,
2030
0000
3200
0000
,
0320
0000
0032
0000
,
0203
0000
0310
0000
,
1000
0100
1000
0100
0010
0001
0010
0001
,
0100
0010
0100
0010
1000
0100
1000
0100
,
0010
0001
0010
0001
0100
0010
0100
0010
,
1000
0000
0000
0000
0001
1000
0001
0000
,
1000
0000
0010
1000
,
0000
0010
0100
0000
,
0001
0010
0001
0000
,
1000
0100
1100
0000
,
0010
0000
0100
0000
,
0001
0000
0010
0001
,
0010
0100
1000
0000
,
0001
0000
1000
0000
,
1001
0000
0000
0000
,
0000
0000
0000
0000
,
0010
0000
0100
0010
,
2000
0000
3200
0300
,
0010
0001
0100
0010
,
2000
0000
0000
0000
,
3001
0000
0020
0032
,
0203
0000
0000
0000
,
0310
1000
0100
1000
,
0002
0000
0023
0000
,
0031
0000
0200
0000
,
0320
0000
2030
0000
,
3200
0000
0320
0000
,
0031
0001
0001
0001
,
0001
0000
0100
0010
,
0100
0000
0010
1000
,
0100
0010
0001
1000
,
0100
0010
0001
0010
,
0010
0100
0010
0100
,
1000
0001
1000
0001
,
0100
0010
0100
0010
,
1000
0001
1000
0001
,
0010
0001
0100
0010
,
0100
0001
0010
0100
,
1000
0001
1000
0001
,
0010
0001
0100
0010
,
1000
1000
0100
0010
,
0001
0100
0110
0110
,
0010
1000
0100
0001
,
0010
1000
0100
0001
,
0010
1000
0100
0001
,
0010
1000
0100
0001
,
1001
1010
0100
0010
,
1000
0100
0010
0001
,
0011
1001
0000
0000
0000
0000
0000
0000
;

//---------------dance-single - Copied from----------------
#NOTES:
     dance-single:
     Copied from:
     Medium:
     11:
     0.419738,0.569173,0.085277,0.007752,0.007752,379.000000,368.000000,11.000000,1.000000,0.000000,0.000000,0.419738,0.569173,0.085277,0.007752,0.007752,379.000000,368.000000,11.000000,1.000000,0.000000,0.000000:
// measure 0
0000
0000
0000
0000
,  // measure 1
1000
0010
0100
0100
0010
0000
0000
0001
,  // measure 2
0100
0000
0000
0010
1000
0100
0000
1000
,  // measure 3
0010
0100
0000
0001
0010
0100
0000
1000
,  // measure 4
0000
0010
0100
0010
0100
0010
0100
0010
,  // measure 5
1000
0100
1000
0100
1000
0000
0001
0000
,  // measure 6
0100
0010
0100
0001
,  // measure 7
0010
0001
0010
0001
0010
0000
0100
0000
,  // measure 8
1000
0010
0100
0000
,  // measure 9
0001
0010
0001
0010
0001
0000
1000
0000
,  // measure 10
0100
1000
0010
0100
,  // measure 11
0110
0101
0110
1010
,  // measure 12
1100
1010
0110
0101
,  // measure 13
0020
0000
0000
0000
,  // measure 14
0000
0000
0000
0000
0000
0000
0000
0030
,  // measure 15
0100
0001
0100
0010
,  // measure 16
1000
0100
0010
0001
,  // measure 17
0100
0000
0010
0000
1000
0100
1000
0000
,  // measure 18
0000
0001
0000
0100
0000
0000
0000
0000
,  // measure 19
0010
0000
1000
0000
0100
1000
0100
1000
,  // measure 20
0000
0010
0100
0010
,  // measure 21
1000
0000
0100
0000
0010
0001
0010
0001
,  // measure 22
0000
0100
0010
1000
,  // measure 23
0100
0000
0010
0000
0100
0010
0100
0010
,  // measure 24
0000
0000
0000
0001
0000
1000
0000
0000
,  // measure 25
0010
0000
1000
0000
0100
1000
0100
1000
,  // measure 26
0000
0000
0010
0100
,  // measure 27
0001
0100
0010
1000
,  // measure 28
0100
0010
0001
0100
,  // measure 29
0010
1000
0010
0000
1000
0100
1000
0000
,  // measure 30
0001
0100
0001
0000
0100
0010
0100
0000
,  // measure 31
0010
0000
1000
0000
0100
0010
0001
0000
,  // measure 32
0100
0000
0010
0000
1000
0000
0000
0100
,  // measure 33
0000
0001
0100
1000
,  // measure 34
0010
0001
0010
1000
,  // measure 35
0100
1000
0001
0100
,  // measure 36
0010
0100
0001
0010
,  // measure 37
0100
1000
0100
1000
,  // measure 38
0100
0010
0100
0010
0100
0010
0001
0000
,  // measure 39
1000
0000
1000
0000
0010
0010
0010
0000
,  // measure 40
0100
0100
0100
0000
0001
0001
0001
0000
,  // measure 41
1000
1000
1000
0000
0010
0010
0010
0000
,  // measure 42
0001
0001
0001
0000
0010
1000
0010
0000
,  // measure 43
0001
0000
0000
1000
0000
0000
0010
0000
,  // measure 44
0000
1000
0000
0000
0100
0000
0000
0000
,  // measure 45
0010
0000
0000
0001
0000
0000
0100
0000
,  // measure 46
0000
0010
0000
0000
1000
0000
0000
0000
,  // measure 47
0100
0000
0000
0010
0000
0000
0001
0000
,  // measure 48
0000
1000
0000
0000
0001
0000
0000
0000
,  // measure 49
0100
0000
0000
0010
0000
0000
1000
0000
,  // measure 50
0000
0001
0000
0000
1000
0000
1010
0000
,  // measure 51
1010
0000
0000
0000
,  // measure 52
1000
0000
0000
0000
,  // measure 53
0001
0000
1000
0010
,  // measure 54
0100
0010
0100
0000
0010
0000
1000
0000
,  // measure 55
0100
0000
0010
0000
0001
0100
0001
0000
,  // measure 56
1000
0010
1000
0000
0000
0000
0000
0000
,  // measure 57
0100
0000
0001
0000
0100
1000
0100
0000
,  // measure 58
0001
0010
0100
0000
,  // measure 59
1000
0000
0010
1000
0000
0010
0000
0100
,  // measure 60
0000
0010
0000
1000
0000
0000
0000
0000
,  // measure 61
0100
0000
0010
0000
0001
0010
0100
0000
,  // measure 62
0010
0001
1000
0010
,  // measure 63
0100
0010
0100
0000
0010
1000
0010
0000
,  // measure 64
1000
0100
1000
0000
0001
0000
0000
0000
,  // measure 65
0100
0010
1000
0001
,  // measure 66
1000
0100
1000
0010
,  // measure 67
0100
0001
0100
0000
0001
0010
0001
0000
,  // measure 68
1000
0010
1000
0000
0100
1000
0100
0000
,  // measure 69
0001
0000
0010
0000
0001
0000
0010
1000
,  // measure 70
0010
0000
0001
0000
0100
1000
0100
0000
,  // measure 71
0001
0000
0010
0000
0001
0010
0001
0010
,  // measure 72
0001
1000
0100
1000
,  // measure 73
0010
0000
0100
0000
0010
0100
0010
0000
,  // measure 74
1000
0000
0100
0000
1000
0100
1000
0000
,  // measure 75
0001
0010
0001
0000
0100
0010
0100
0000
,  // measure 76
0010
1000
0010
0000
1000
0100
1000
0000
,  // measure 77
0010
0001
0010
1000
,  // measure 78
0100
0000
0001
0000
0100
1000
0010
0000
,  // measure 79
0001
0000
0010
0000
1000
0100
0001
0000
,  // measure 80
1000
0000
1000
0000
,  // measure 81
0100
0010
0001
0010
,  // measure 82
0100
0000
1000
0000
0100
1000
0100
1000
,  // measure 83
0100
0000
0010
0000
0001
0010
0001
0010
,  // measure 84
0001
0000
0100
0000
0010
0100
0010
0100
,  // measure 85
0010
0000
0000
0000
0000
0000
0000
0000
0000
1000
0100
0000
0000
0000
0000
0000
,  // measure 86
0000
0000
1000
0001
0000
0000
1001
0000
0000
0000
0000
0000
0000
0000
0000
0000
;

//---------------dance-single - ----------------
#NOTES:
     dance-single:
     :
     Challenge:
     17:
     0.960192,1.540115,0.945795,0.294592,0.798499,867.000000,745.000000,122.000000,38.000000,0.000000,0.000000,0.960192,1.540115,0.945795,0.294592,0.798499,867.000000,745.000000,122.000000,38.000000,0.000000,0.000000:
// measure 0
0000
0000
0000
0000
,  // measure 1
1000
0000
0000
0000
1010
0000
0000
0000
0110
0000
0000
0000
0101
0000
0000
0000
0011
0000
0000
0000
0000
0000
0100
1000
0100
0000
1000
0000
0001
0000
0010
0000
,  // measure 2
0001
1001
0000
0000
0000
0011
0000
0010
0100
1100
0000
0000
1000
0001
0001
0100
,  // measure 3
0010
0000
1010
0000
0000
0000
0000
1100
0000
0000
0000
0000
0011
0000
0000
0000
0000
0101
0000
0000
0000
0000
0110
0000
0000
0000
0000
0000
0000
0000
0010
0000
,  // measure 4
0000
0000
1000
0000
0000
0000
0001
0000
0000
1000
0000
0000
0100
0000
0010
0000
0001
0000
0100
0000
0001
0000
0100
0000
0010
1000
0010
1000
0010
1000
0010
1000
,  // measure 5
0001
0100
1000
0100
0001
0010
1000
0010
,  // measure 6
0001
0000
0100
0000
0010
0000
0100
0000
0001
1000
0000
0000
1001
0000
0001
0000
,  // measure 7
0101
0000
0000
0110
0000
0000
1010
0000
1100
0000
0000
0110
0000
0000
0010
0000
,  // measure 8
0001
1000
0001
1000
0001
0100
0001
0100
0001
0010
0001
0010
0001
1000
0001
1000
,  // measure 9
0001
0000
0000
0000
0010
0100
1000
0100
0010
0000
0001
0000
1000
0001
0010
0001
,  // measure 10
0100
0010
0100
0001
1001
0000
1010
0000
,  // measure 11
0110
0100
0101
0001
0011
0010
0110
0100
,  // measure 12
1100
1000
1001
0001
0101
0100
0110
0010
,  // measure 13
2020
0000
0000
0000
,  // measure 14
0000
0000
0000
3030
,  // measure 15
1000
0001
1000
0000
0010
0000
0000
0000
0100
0000
0001
0000
0010
0000
0110
0000
,  // measure 16
0000
1000
0100
1000
0001
0000
1000
0001
,  // measure 17
0010
0001
0100
0010
1000
0000
1000
1001
,  // measure 18
0001
0000
0100
0000
0010
0000
1000
0000
0010
0000
0100
0001
0100
0000
0010
0000
,  // measure 19
1010
0000
1000
0000
0100
0000
0010
0000
0001
0100
1000
0000
0100
0000
0002
0000
,  // measure 20
0000
0000
0013
0000
2000
0000
0000
0000
3010
0000
0001
0000
0100
0010
0100
0000
,  // measure 21
2000
0000
0000
0000
3100
0000
0010
1000
0001
0000
0100
0000
0001
0000
0020
0000
,  // measure 22
0000
0000
0130
1000
0100
0000
0010
0000
0001
0000
0100
0000
0010
0000
1000
0000
,  // measure 23
1010
0000
0000
0000
1001
0000
0001
0100
0001
0000
1000
0000
0010
0000
0210
0000
,  // measure 24
0000
0000
0300
0000
0001
0000
0010
0000
1000
0000
0010
0000
0001
0100
0001
0000
,  // measure 25
1001
0000
1010
0000
0010
0100
0001
0200
,  // measure 26
0000
0000
0310
1000
0010
0000
0100
0000
0001
0000
0000
0000
0011
0000
0000
0000
,  // measure 27
0100
0000
1000
0000
0100
0000
1000
0000
0001
0100
0010
0000
1000
0000
0010
0000
,  // measure 28
0100
0000
0001
0000
0010
0000
0100
0000
1000
0000
0001
1000
0001
0010
0001
0000
,  // measure 29
0101
0000
0000
0000
0110
0000
0000
0000
0010
0000
1000
0001
1000
0000
0010
0000
,  // measure 30
0100
0001
0100
0001
1000
0000
0010
1000
0010
1000
0001
0100
0001
0100
0010
0000
,  // measure 31
2000
0000
0000
0000
3000
0000
0100
0001
0100
0000
1000
0010
1000
0000
0001
0000
,  // measure 32
0100
0000
0100
0110
0000
0010
1010
0000
,  // measure 33
1001
0000
0000
0000
0101
0000
0000
0000
1000
0010
1000
0010
0100
0001
0100
0001
,  // measure 34
1000
0010
0100
0010
1000
0010
0100
0010
1000
0000
0100
0000
0010
0000
0001
0000
,  // measure 35
0101
0000
0000
0000
1001
0000
0000
0000
1000
0010
0000
0000
0000
0000
0010
0000
,  // measure 36
0100
0000
0001
0010
0001
0000
1000
0000
0100
0000
1000
0000
0010
0000
0100
0000
,  // measure 37
0001
0001
0100
0010
0000
1010
0000
1000
,  // measure 38
0100
0000
0001
0000
0100
0000
1000
0000
0001
0010
0001
0010
0100
1000
0100
1000
,  // measure 39
0001
0000
0000
0000
0001
0000
0100
0000
0010
0000
1000
0010
1000
0000
0001
0000
0100
0000
0010
0000
1000
0000
0100
0000
0010
0000
0001
0000
0100
0000
0010
0000
,  // measure 40
1000
0000
0100
1000
0001
0000
0100
0000
0001
0010
0100
1000
0001
1000
0001
0010
0001
0000
1000
0010
1000
0000
0000
0000
0100
0010
0001
0010
0100
1000
0100
0010
,  // measure 41
0001
0000
0100
0000
0010
0000
1000
0000
1001
0000
0000
0000
0010
0100
0010
1000
0010
0000
0100
0000
0001
0000
0010
0000
0110
0000
0000
1100
0000
0000
1001
0000
,  // measure 42
0010
0000
0010
0000
0100
0001
0100
0000
0010
1000
0010
0000
1000
0100
1000
0001
2000
0000
0000
0000
3000
0000
0001
0100
0002
0000
0000
0000
0003
0000
0000
0000
,  // measure 43
1001
1001
0000
1010
1010
0000
0101
0101
,  // measure 44
0000
0000
0011
0000
0011
0000
0000
0000
0010
0100
1000
0100
0010
0001
0100
0000
,  // measure 45
0110
0110
0000
0011
0011
0000
1001
1001
,  // measure 46
0000
0000
1100
0000
1100
0000
0010
0001
0100
0001
0010
0100
1000
0000
0001
0000
,  // measure 47
1001
1001
0000
0101
0101
0000
1100
1100
,  // measure 48
0000
0000
0101
0000
0101
0000
0001
0000
0010
0100
0010
0100
1000
0001
1000
0001
,  // measure 49
0100
0110
0000
1010
1001
0000
0101
0110
,  // measure 50
0000
0000
1010
0000
1001
0000
0000
0000
0001
0010
0100
1000
0001
0000
0100
0000
,  // measure 51
1001
1000
0000
0001
0000
1000
0000
0001
,  // measure 52
0000
1000
0010
1000
0010
0100
0001
0010
,  // measure 53
0200
0000
0000
0000
0300
0000
1000
0001
1000
0000
0010
0000
0100
0000
0001
0000
,  // measure 54
0010
0100
2200
0000
3300
0001
0010
1000
,  // measure 55
0022
0000
0000
0000
0033
0000
1000
0010
0100
0000
0000
0110
0000
0000
1010
0000
,  // measure 56
1100
0000
0100
0000
0010
0000
0001
0000
0100
0010
0100
0010
1000
0000
0001
0000
,  // measure 57
0201
0000
0000
0000
0000
0000
0000
0000
0310
0000
1000
0000
0001
1000
0010
1000
,  // measure 58
0020
0000
0130
0001
0011
0000
0110
0000
,  // measure 59
1001
0000
1000
0000
1100
0000
0100
0000
0110
0000
0010
0001
0100
0000
0110
0000
,  // measure 60
1010
0000
0000
0000
2002
0000
0000
0000
3003
0000
0000
0000
0001
0010
0100
0000
,  // measure 61
1000
0001
1000
0010
0100
0010
1000
0000
0100
0000
0100
0000
0110
0000
0010
0000
,  // measure 62
0001
0000
0100
0000
2000
0000
0000
0000
3100
0000
0000
0100
0001
0000
0010
0000
,  // measure 63
0100
1000
0100
1000
0001
0010
0001
0010
0100
1000
0100
0000
1000
0000
0010
0000
,  // measure 64
0110
0000
0000
0101
0000
0000
1001
0000
0000
1010
0000
0000
0110
0000
0101
0000
,  // measure 65
0022
0000
0000
0000
0000
0000
0033
0000
0220
0000
0330
0000
0100
1000
0001
1000
,  // measure 66
0020
0000
0000
0000
0030
0000
0100
0001
0010
0000
0100
0000
1000
0000
0001
0000
,  // measure 67
1000
0000
0010
0000
0100
0001
0010
0001
1000
0000
0001
0000
0100
0010
1000
0010
,  // measure 68
0100
0000
0001
0010
0100
0000
0010
0001
0100
0000
0010
1000
0100
1000
0010
0000
,  // measure 69
0100
0000
0000
0000
0101
0000
0001
0010
0100
1000
0001
0000
1000
0000
0220
0000
,  // measure 70
0000
0000
0330
0000
0100
0000
0001
0000
0010
0001
1000
0000
0010
1000
0001
0000
,  // measure 71
0101
0000
0000
0000
0110
0000
0010
1000
0001
0000
1000
0010
0100
0000
0202
0000
,  // measure 72
0000
0000
0303
0000
0001
0010
0100
1000
0001
0000
0100
0001
0010
0000
0100
0000
,  // measure 73
1001
0000
0001
0000
0100
0010
1000
0000
0010
0100
0001
0000
0100
0000
0220
0000
,  // measure 74
0000
0000
0330
0000
1001
0000
0000
0000
0001
0000
1000
0000
0010
1000
0100
0000
,  // measure 75
0110
0000
0000
0000
0010
0000
0001
0100
0001
0000
1000
0000
0010
0000
2010
0000
,  // measure 76
0000
0000
3010
1000
0010
0000
1000
0000
0100
0010
0100
0010
0001
1000
0001
1000
,  // measure 77
0010
0000
0000
0000
0101
0000
0001
0010
0100
0000
0010
0000
0001
0000
2002
0000
,  // measure 78
0000
0000
3003
0000
1000
0000
0010
0000
0100
0000
0010
0000
1000
0100
0010
0000
,  // measure 79
0011
0000
0000
0000
1001
0000
1000
0010
0100
0000
0100
0010
1000
0000
2200
0000
,  // measure 80
0000
0000
3300
0000
0010
0001
0100
0010
2000
0000
0000
0000
3001
0100
0001
0100
,  // measure 81
0010
0000
1000
0000
0001
0000
0010
0000
0001
0100
0001
0000
0100
0000
0010
1000
,  // measure 82
0001
0000
0100
0000
0001
0010
0100
0010
0001
0000
1000
0000
0100
0010
0001
0010
,  // measure 83
0100
1000
0001
0010
0001
0100
0010
1000
,  // measure 84
0010
1000
0010
0100
0010
1000
0010
0100
0010
1000
0010
0100
0010
1000
0100
0010
,  // measure 85
0001
0000
0000
0000
0000
0000
0000
0000
0000
1000
0010
0000
0000
0000
0000
0000
,  // measure 86
0000
0000
0010
0100
0000
0000
0110
0000
0000
0000
0000
0000
0000
0000
0000
0000
;

//---------------dance-single - Copied from----------------
#NOTES:
     dance-single:
     :
     Hard:
     14:
     0.743125,1.171827,0.441888,0.139544,0.360487,671.000000,614.000000,57.000000,18.000000,0.000000,0.000000,0.743125,1.171827,0.441888,0.139544,0.360487,671.000000,614.000000,57.000000,18.000000,0.000000,0.000000:
// measure 0
0000
0000
0000
0000
,  // measure 1
1000
0000
0010
0000
0100
0000
0100
0000
2001
0000
0000
0000
3001
0010
0001
0100
,  // measure 2
0010
0000
0000
0000
0000
1001
0000
0001
1000
0001
0000
0000
0100
0010
0100
0001
,  // measure 3
0010
0000
0100
0000
0000
0000
0000
1001
0000
0000
0000
0000
0001
0000
0000
0000
0000
0110
0000
0000
0000
0000
1000
0000
0000
0000
0000
0000
0000
0000
0001
0000
,  // measure 4
0000
0000
0010
0000
0000
0000
0001
0000
0000
0100
0000
0000
0010
0000
1000
0000
0010
0000
1000
0000
0100
0000
0010
0000
0100
0000
0010
0000
0001
0000
0100
0000
,  // measure 5
0001
0100
1000
0100
0001
0010
1000
0010
,  // measure 6
0001
0010
0100
1000
1010
0000
1001
0000
,  // measure 7
1010
0000
0000
0110
0000
0000
0100
0000
0101
0000
0000
0011
0000
0000
0110
0000
,  // measure 8
0100
1000
0100
0010
0100
0010
0001
1000
,  // measure 9
0001
0000
0100
0010
1000
0100
1000
0001
,  // measure 10
0100
0001
1000
0100
0010
0000
0011
0000
,  // measure 11
0110
0100
1100
0000
0110
0010
0011
0000
,  // measure 12
1100
1000
1010
0000
0110
0100
0101
0000
,  // measure 13
2002
0000
0000
0000
,  // measure 14
0000
0000
0000
3003
,  // measure 15
0100
0001
0100
0000
0001
1000
0010
1000
,  // measure 16
0000
0100
0010
0100
0010
0000
0001
1000
,  // measure 17
0100
0010
0001
0000
1000
0100
1000
0010
,  // measure 18
0000
0100
0001
0010
0001
1000
0100
0000
,  // measure 19
0010
0000
0001
0010
0001
1000
0100
1000
,  // measure 20
0000
0000
0010
0000
0100
0100
0010
1000
,  // measure 21
0001
0000
0100
0000
0010
1000
0010
0100
,  // measure 22
0000
0001
0100
0001
0010
0100
1000
0001
,  // measure 23
0100
0000
0010
0000
0100
0010
0100
0010
,  // measure 24
0000
0000
1000
0001
1000
0001
0100
0000
,  // measure 25
0010
0000
1000
0000
0100
1000
0100
1000
,  // measure 26
0000
0000
0100
0010
0100
0001
0100
0000
,  // measure 27
1000
0001
0100
0001
0010
0100
1000
0010
,  // measure 28
0100
0000
0000
0000
0001
0000
1000
0000
0001
0100
0001
0000
0100
0000
0010
0000
,  // measure 29
1010
0000
1001
0000
0001
0100
0001
0010
,  // measure 30
0001
0100
0001
0000
1000
0000
0010
0000
0100
0000
0010
0000
0100
0000
0001
0000
,  // measure 31
0012
0000
0000
0000
0003
0000
1000
0001
1000
0000
0010
0000
0100
0000
0000
0000
,  // measure 32
0100
0000
0010
1000
0000
1000
0001
0100
,  // measure 33
0101
0000
0000
0000
0011
0000
0000
0000
0100
1000
0100
0000
1000
0100
1000
0000
,  // measure 34
0010
0100
0001
0010
0001
1000
0100
1000
,  // measure 35
0100
1001
0011
0100
,  // measure 36
0010
0000
0100
0001
1000
0001
0010
0100
,  // measure 37
1000
1000
0001
0001
0000
0101
0000
1000
,  // measure 38
0010
0001
0010
1000
0100
0010
0001
0100
,  // measure 39
0010
0000
0000
0000
1000
0000
0001
0000
0100
0000
0001
0010
0001
0000
0100
0000
0010
0000
0010
0000
0010
0000
0100
0000
0001
0000
0001
0000
0001
0000
1000
0000
,  // measure 40
0100
0000
0010
0000
0001
0000
0100
0000
0010
1000
0010
0000
1000
0000
0100
0000
0010
0000
0001
0100
0001
0000
0000
0000
0001
0000
1000
0000
0010
0000
1000
0000
,  // measure 41
0100
0000
0010
0000
0001
0000
1000
0000
0100
0000
0000
0000
1000
0000
0100
0000
1000
0000
0001
0000
0010
0000
0001
0000
0100
0000
0000
0110
0000
0000
0010
0000
,  // measure 42
0100
0000
0001
0000
1000
0000
0001
0000
0100
0000
0010
0000
1000
0000
0100
0000
0010
0000
0000
0000
0000
0000
0001
0010
0001
0000
0000
0000
0000
0000
0000
0000
,  // measure 43
1000
1001
0000
0001
0101
0000
0010
0110
,  // measure 44
0000
0000
1000
0000
1100
0000
0000
0000
0001
0100
0001
0000
0100
0000
0010
0000
,  // measure 45
1000
1100
0000
0001
0011
0000
0100
0110
,  // measure 46
0000
0000
0010
0000
1010
0000
1000
0001
1000
0000
0001
0000
0100
0000
0010
0000
,  // measure 47
0100
0101
0000
0010
0011
0000
0001
1001
,  // measure 48
0000
1000
1100
0100
0010
0001
0100
0010
,  // measure 49
0100
0110
0000
0010
1010
0000
1000
1001
,  // measure 50
0000
0000
0001
0000
0101
0000
0000
0000
1000
0100
1000
0000
0100
0000
0010
0000
,  // measure 51
0001
0000
1000
0001
,  // measure 52
1000
0000
0001
1000
0001
0000
1000
0000
,  // measure 53
0001
0000
0000
0000
0000
0000
1000
0100
1000
0000
0001
0000
0010
0000
0001
0000
,  // measure 54
0100
0010
0200
0000
0000
0301
1000
0001
,  // measure 55
0200
0000
0000
0310
1000
0100
0010
0001
,  // measure 56
1000
0000
0010
0000
1000
0000
0000
0000
0001
0100
0001
0000
1000
0000
0001
0000
,  // measure 57
0200
0000
0000
0000
0301
1000
0100
1000
,  // measure 58
0002
0000
0013
0001
0200
0000
0310
1000
,  // measure 59
0001
0000
0010
0000
0001
0000
1000
0000
0100
0000
1000
0001
1000
0000
0100
0000
,  // measure 60
0020
0000
0032
0000
0000
0000
1003
0100
,  // measure 61
1000
0001
1000
0001
0020
0000
0000
0000
0031
0000
0010
0000
0100
0000
0010
0000
,  // measure 62
0001
1000
0002
0000
0000
0103
0010
1000
,  // measure 63
0100
0010
0100
0010
0001
1000
0010
1000
,  // measure 64
0100
0000
0000
1001
0000
0000
0101
0000
0000
0110
0000
0000
0010
0000
1000
0000
,  // measure 65
0200
0000
0000
0000
0010
0000
0000
0000
1300
0000
0000
0000
0001
1000
0001
1000
,  // measure 66
0010
0000
0000
0000
0100
0000
0001
0010
0001
0000
0000
0000
0010
0000
0100
0000
,  // measure 67
1000
0000
0001
0000
0100
0001
0100
0001
0010
0000
0001
0000
1000
0100
1000
0100
,  // measure 68
1000
0010
1000
0000
0100
1000
0100
0000
,  // measure 69
0010
0000
0001
0000
0010
0000
0001
0000
0100
0010
0100
0000
0010
0000
2010
0000
,  // measure 70
0000
0000
0000
0000
3001
0000
0010
0000
0100
0000
1000
0000
0100
0010
0100
0000
,  // measure 71
0010
0000
0000
0000
0011
0000
0001
1000
0001
0000
0010
0000
0001
0000
0020
0000
,  // measure 72
0000
0000
0030
0000
0100
1000
0100
1000
0100
0000
0000
0000
1001
0000
0000
0000
,  // measure 73
0100
0010
0100
0001
0010
0100
0010
0100
,  // measure 74
1000
0000
1010
0000
0010
0100
0001
0010
,  // measure 75
0011
0000
0101
0000
0100
0010
0100
0001
,  // measure 76
0000
0000
0001
0000
1000
0000
0010
1000
0010
0000
0100
0000
0001
0000
1000
0000
,  // measure 77
0010
0000
0000
0000
1000
0000
0100
0001
0100
0000
0010
0000
0001
0000
0020
0000
,  // measure 78
0000
0000
0000
0000
0130
0000
1000
0000
0100
0000
0010
0000
0001
0100
0001
0000
,  // measure 79
1000
0000
0001
0000
0011
0000
0010
0100
0010
0000
0100
0000
1000
0000
0002
0000
,  // measure 80
0000
0000
1003
0000
0100
1000
0100
1000
0001
0000
0100
0000
0001
0010
0001
0010
,  // measure 81
0100
0000
1000
0000
0010
0000
1000
0000
0001
0000
0010
0001
0010
0000
0100
0000
,  // measure 82
0010
0000
0100
0000
1000
0100
1000
0000
0100
0000
1000
0000
0100
0000
1000
0000
,  // measure 83
0100
0000
0010
0000
0001
0010
0001
0010
,  // measure 84
0001
0010
0001
0000
0100
0000
0010
0000
0100
0010
0100
0000
0010
0000
0100
0000
,  // measure 85
0010
0000
0000
0000
0000
0000
0000
0000
0000
1000
0100
0000
0000
0000
0000
0000
,  // measure 86
0000
0000
1000
0001
0000
0000
0110
0000
0000
0000
0000
0000
0000
0000
0000
0000
;
