#TITLE:Level 5 -judgelight-;
#SUBTITLE:;
#ARTIST:fripSide;
#TITLETRANSLIT:;
#SUBTITLETRANSLIT:;
#ARTISTTRANSLIT:;
#GENRE:;
#CREDIT:;
#BANNER:Level 5 -judgelight-.png;
#BACKGROUND:Level 5 -judgelight--bg.png;
#LYRICSPATH:;
#CDTITLE:;
#MUSIC:Level 5 -judgelight-.ogg;
#OFFSET:-7.568000;
#SAMPLESTART:17.112034;
#SAMPLELENGTH:15.000000;
#SELECTABLE:YES;
#DISPLAYBPM:138.000000;
#BPMS:0.000000=139.630005
;
#STOPS:
;
#BGCHANGES:;
#KEYSOUNDS:;
#ATTACKS:;

//---------------dance-single - ----------------
#NOTES:
     dance-single:
     :
     Beginner:
     2:
     0.096500,0.121847,0.000000,0.000000,0.000000,79.000000,79.000000,0.000000,0.000000,0.000000,0.000000,0.096500,0.121847,0.000000,0.000000,0.000000,79.000000,79.000000,0.000000,0.000000,0.000000,0.000000:
0000
0000
0000
0000
,
0000
0000
0000
0000
,
1000
0000
1000
0000
,
0001
0000
0001
0000
,
0100
0000
0000
0000
,
0100
0000
0010
0000
,
0100
0000
0000
0000
,
0010
0000
1000
0000
,
0010
0000
0000
0000
,
0100
0000
0100
0000
,
0001
0000
0000
0000
,
1000
0000
0001
0000
,
1000
0000
0000
0000
,
0001
0000
0001
0000
,
0100
0000
0100
0000
,
0010
0000
0000
0000
,
0010
0000
1000
0000
,
0010
0000
0000
0000
,
0100
0000
0000
0000
,
0100
0000
0000
0000
,
0001
0000
0000
0000
,
0001
0000
0000
0000
,
1000
0000
0000
0000
,
1000
0000
0000
0000
,
0001
0000
0001
0000
,
0100
0000
0000
0000
,
0100
0000
0100
0000
,
0010
0000
0000
0000
,
0010
0000
1000
0000
,
1000
0000
0000
0000
,
0001
0000
0001
0000
,
0000
0000
0100
0000
,
0100
0000
0000
0000
,
0010
0000
0010
0000
,
0000
0000
1000
0000
,
1000
0000
0000
0000
,
0001
0000
0001
0000
,
0000
0000
0100
0000
,
0100
0000
0000
0000
,
0010
0000
0000
0000
,
0010
0000
0000
0000
,
1000
0000
1000
0000
,
0001
0000
0000
0000
,
0001
0000
0001
0000
,
0100
0000
0100
0000
,
0000
0000
0010
0000
,
0010
0000
0000
0000
,
1000
0000
1000
0000
,
0001
0000
0001
0000
,
0001
0000
0000
0000
,
0100
0000
0100
0000
,
0100
0000
0000
0000
,
0010
0000
0000
0000
,
0010
0000
0000
0000
,
0010
0000
0000
0000
,
0100
0000
0100
0000
,
0001
0000
0001
0000
,
1000
0000
0000
0000
;

//---------------dance-single - ----------------
#NOTES:
     dance-single:
     :
     Easy:
     4:
     0.177121,0.194955,0.000000,0.000000,0.000000,145.000000,145.000000,0.000000,0.000000,0.000000,0.000000,0.177121,0.194955,0.000000,0.000000,0.000000,145.000000,145.000000,0.000000,0.000000,0.000000,0.000000:
0000
0000
0000
0000
,
0000
0000
0000
0000
,
1000
0000
1000
0000
,
0001
0000
0001
0000
,
0100
0000
0100
0000
,
0010
0000
0010
0000
,
1000
0000
0001
0000
,
1000
0001
1000
0000
,
0001
0000
0100
0000
,
0001
0000
1000
0010
,
1000
0000
0010
0000
,
0100
0001
0100
0000
,
0001
0000
0010
0001
,
0010
0000
0001
0000
,
0100
0000
0010
0000
,
0100
0100
0001
0000
,
0001
0000
1000
0000
,
0001
0000
0100
0010
,
1000
0000
0010
0000
,
0100
0001
0010
0000
,
0001
0100
0010
0000
,
0100
0010
1000
0000
,
0001
0000
1000
0000
,
0001
0001
0000
0000
,
0100
0100
0100
0000
,
0010
0010
0010
0000
,
1000
1000
1000
0000
,
0001
1000
0001
0000
,
0100
0010
0100
0000
,
0010
0000
1000
0000
,
0010
0000
0100
0000
,
0001
0001
1000
1000
,
0001
0001
0100
0000
,
0010
0010
0100
0100
,
0010
0010
1000
0000
,
0001
0100
0001
0000
,
1000
0010
1000
0000
,
0001
0001
0100
0100
,
0010
0000
0100
0001
,
0100
0000
0010
0000
,
1000
0010
1000
0000
,
0001
1000
0001
0000
,
0100
0010
0100
0000
,
0010
0000
1000
0010
,
1000
0000
0001
0100
,
0001
0000
1000
0001
,
1000
0000
0001
0100
,
0001
0000
0100
0010
,
0100
0000
0010
0000
,
1000
0000
0001
0000
,
1000
0000
0100
0001
,
0100
0000
1000
0000
,
0010
0001
0010
0000
,
1000
0000
0001
0000
,
0100
0000
0001
0000
,
0000
0000
0010
0000
,
0001
0000
0100
0000
,
0010
0000
0000
0000
;

//---------------dance-single - ----------------
#NOTES:
     dance-single:
     :
     Hard:
     11:
     0.464179,0.414280,0.171013,0.171013,0.230868,380.000000,360.000000,20.000000,20.000000,0.000000,0.000000,0.464179,0.414280,0.171013,0.171013,0.230868,380.000000,360.000000,20.000000,20.000000,0.000000,0.000000:
// measure 0
0000
0000
0000
0000
,  // measure 1
0000
0000
0000
0000
,  // measure 2
1000
0000
0000
0001
0000
0000
0010
0000
0001
0000
0000
0100
0000
0000
0010
0000
,  // measure 3
0100
0000
0000
0001
0000
0000
0010
0000
1000
0000
0010
0000
0001
0000
1000
0000
,  // measure 4
0001
0000
0100
0000
0001
0000
0100
0000
0010
0000
0000
1000
0000
0000
1000
0000
,  // measure 5
0001
0010
0100
1000
0001
0100
0010
0100
,  // measure 6
0002
0000
0000
0000
1003
0000
0100
0000
0001
0000
0100
1000
0000
0000
0010
0000
,  // measure 7
0100
0000
0001
0000
0100
0000
0010
0100
0000
0000
1001
0000
0000
0000
0100
0000
,  // measure 8
0001
0000
0010
1000
0000
0000
0010
0000
0001
0000
0100
1000
0000
0000
0100
0000
,  // measure 9
0001
0000
1000
0001
0000
0000
0000
0000
1000
0000
0010
0000
0100
0000
0010
0000
,  // measure 10
2000
0000
0000
0000
3001
0000
0010
0000
1000
0000
0010
0001
0000
0000
0100
0000
,  // measure 11
0010
0000
1000
0000
0010
0000
0100
0000
0001
0000
1000
0001
0000
0000
0010
0000
,  // measure 12
0100
0000
1001
0000
1000
0100
0010
0100
,  // measure 13
0010
0000
0001
1000
0000
0000
0000
0000
0001
0000
0100
0000
0010
0000
1000
0000
,  // measure 14
0200
0000
0000
0000
0310
0000
0100
0000
1000
0000
0100
0010
0000
0000
0001
0000
,  // measure 15
1000
0000
0100
0000
0001
0000
0100
1000
0000
0000
0000
0000
0000
0000
0010
0000
,  // measure 16
0100
0000
0001
1000
0000
0000
1001
0000
0100
0000
0010
0001
0000
0000
0100
0000
,  // measure 17
0010
0000
0100
0001
0000
0000
0000
0000
1000
0000
0100
0000
0001
0000
0100
0000
,  // measure 18
2000
0000
0000
0000
3001
0000
0100
0000
0010
0000
0100
0001
0000
0000
1000
0000
,  // measure 19
0010
0000
0100
0000
0010
0000
1000
0000
0001
0000
1000
0010
0000
0000
0100
0000
,  // measure 20
0001
0000
0102
0000
1003
0010
0001
1000
,  // measure 21
0001
0000
0010
0000
2000
0000
0000
0000
3001
0000
0000
0100
0000
0000
0010
0000
,  // measure 22
0100
0000
0001
0000
0000
0001
0000
0000
1000
0000
0000
0010
0000
0000
0100
0000
,  // measure 23
0020
0000
0000
1000
0000
0000
1030
0000
0000
0000
0001
0000
0100
0000
0010
0000
,  // measure 24
0100
0000
0000
0110
0000
0000
1020
0000
0000
0000
1030
0000
0001
0000
0000
0000
,  // measure 25
0201
0000
0000
0001
0000
0000
0001
0000
0000
0000
0310
0000
1000
0000
0100
0000
,  // measure 26
1000
0000
0000
0001
0000
0000
0100
0000
0102
0000
0000
0000
1003
0000
0000
0000
,  // measure 27
1010
0000
0110
0000
0101
0000
0001
0010
,  // measure 28
0100
0000
1100
0000
1000
0010
0001
0010
,  // measure 29
2000
0000
3000
0001
0200
0000
0300
0010
,  // measure 30
1000
0000
0000
0001
0000
0000
1000
0000
0001
0000
0010
0000
1000
0000
0010
0000
,  // measure 31
0001
0000
0000
0101
0000
0000
0100
0000
0010
0000
0000
1010
0000
0000
1000
0000
,  // measure 32
0001
0000
0000
0101
0000
0000
0100
0000
0020
0000
0000
0000
1030
0000
0000
0000
,  // measure 33
1001
0000
0000
0001
0000
0000
0100
0000
0010
0000
0000
0100
0000
0000
0001
0000
,  // measure 34
1000
0000
0000
0010
0000
0000
1000
0000
0001
0000
0100
0000
0001
0000
0000
0000
,  // measure 35
1000
0000
0000
0001
0000
0000
1000
0000
0020
0000
0000
0000
0130
0000
0000
0000
,  // measure 36
0100
0000
0000
0001
0000
0000
0010
0000
0001
0000
0000
1000
0000
0000
0010
0000
,  // measure 37
1000
0000
0000
0100
0000
0000
0001
0000
0100
0000
0000
1000
0000
0000
0001
0000
,  // measure 38
1000
0000
0000
1001
0000
0000
1000
0000
0100
0000
0010
0000
0001
0000
0100
0000
,  // measure 39
0020
0000
0000
0000
1030
0000
0100
0000
1000
0000
0001
0010
0000
0000
0001
0000
,  // measure 40
0100
0000
0010
0000
0100
0000
0001
0100
0000
0000
0000
0000
0000
0000
0010
0000
,  // measure 41
1000
0000
0100
1000
0000
0000
0001
0000
1000
0000
0001
1000
0000
0000
0010
0000
,  // measure 42
1000
0000
0100
1000
0000
0000
0000
0000
0001
0000
0010
0000
1000
0000
0010
0000
,  // measure 43
0002
0000
0000
0000
0103
0000
0010
0000
1000
0000
0010
0100
0000
0000
0001
0000
,  // measure 44
0100
0010
0100
0001
1000
0001
0000
1000
,  // measure 45
0010
0000
1010
0000
0001
0100
1000
0100
,  // measure 46
0001
0000
1000
0001
0000
0000
0000
0000
0100
0000
0010
0000
1000
0000
0010
0000
,  // measure 47
0200
0000
0000
0000
0301
0000
0010
0000
0001
0000
1000
0001
0000
0000
0100
0000
,  // measure 48
0010
1000
0010
0100
0002
0000
0003
1000
,  // measure 49
0010
0000
0100
0010
0000
0000
1000
0000
0001
0000
0010
0001
0000
0000
0100
0000
,  // measure 50
0001
0000
0010
0001
0000
0000
0000
0000
1000
0000
0010
0000
0001
0000
0010
0000
,  // measure 51
2000
0000
0000
0000
3001
0000
0100
0000
1000
0000
0100
0001
0000
0000
1000
0000
,  // measure 52
0010
0000
0100
0000
0010
0000
1000
0000
0001
0000
1000
0010
0000
0000
0010
0000
,  // measure 53
0100
0000
0101
0000
1000
0010
0100
0010
,  // measure 54
1000
0000
0001
0000
2000
0000
0000
0000
3010
0000
0000
0010
0000
0000
0100
0000
,  // measure 55
0001
0000
1001
0000
1000
0010
0100
0010
,  // measure 56
1000
0000
0001
0000
1000
0000
0000
0000
0010
0000
0000
0010
0000
0000
0100
0000
,  // measure 57
0001
0000
0000
0000
;

//---------------dance-single - ----------------
#NOTES:
     dance-single:
     :
     Medium:
     7:
     0.284615,0.316802,0.068405,0.000000,0.000000,233.000000,225.000000,8.000000,0.000000,0.000000,0.000000,0.284615,0.316802,0.068405,0.000000,0.000000,233.000000,225.000000,8.000000,0.000000,0.000000,0.000000:
0000
0000
0000
0000
,
0000
0000
0000
0000
,
0001
0001
1000
1000
,
0010
0010
0100
0100
,
0001
0000
0001
1000
,
0001
0000
0000
0000
1000
0100
1000
0000
,
0010
0100
0010
1000
,
0100
0001
0100
0000
,
1000
0010
0001
0010
,
1000
0100
1000
0000
0001
0000
0100
0000
,
0010
0100
0001
1000
,
0010
0000
1000
0000
0100
1000
0100
0000
,
1000
0010
0100
0010
,
1000
0100
0001
0010
,
0001
0100
1000
0001
,
0010
0000
1000
0010
0001
0000
0100
0000
,
1000
0100
0001
0010
,
1000
0000
0010
0000
0001
1000
0001
0000
,
1000
0100
1000
0010
,
0100
0010
1000
0001
,
0010
0001
0100
0010
,
0100
0001
1000
0010
,
1000
0010
0100
0010
,
1000
0000
0100
0000
0001
0000
0100
1000
,
0010
0001
0010
1000
,
0001
0000
0100
0000
0010
0000
0100
0010
,
0100
0010
0100
0001
,
1000
1001
0001
0101
,
0100
0000
0010
0000
1000
0010
1000
0010
,
1000
0001
0100
0010
,
0100
0001
0010
0000
,
0001
1000
0100
1000
,
0010
0001
0010
0000
,
1000
0001
0100
0001
,
0010
0001
1000
0010
,
0100
0100
0001
0000
,
0001
0001
1000
1000
,
0010
0010
0100
0100
,
1001
0000
0001
1000
,
0001
0010
0001
0100
,
0010
0100
0010
0000
1000
0000
0000
0000
,
0001
0000
1000
0000
0010
1000
0010
0000
,
1000
0100
1000
0010
,
0001
0010
1000
0100
,
0001
0100
1000
0001
,
1000
0010
0001
0010
,
1000
0100
0001
0100
,
1001
0010
0001
0010
,
1000
0100
0001
0000
,
0100
1000
0010
0011
,
0010
1010
1000
0100
,
0001
0000
0100
1000
0010
0000
0100
0000
,
0001
0010
0100
0010
,
0001
0000
1000
0000
0100
1000
0100
0000
,
0001
0100
1000
0100
,
0001
0010
0100
1000
,
1001
0001
0100
0010
,
0110
0000
0000
0000
;

//---------------dance-single - ----------------
#NOTES:
     dance-single:
     :
     Challenge:
     13:
     0.549685,0.536127,0.324925,0.213767,0.329201,450.000000,412.000000,38.000000,25.000000,0.000000,0.000000,0.549685,0.536127,0.324925,0.213767,0.329201,450.000000,412.000000,38.000000,25.000000,0.000000,0.000000:
// measure 0
0000
0000
0000
0000
,  // measure 1
0000
0000
0000
0000
,  // measure 2
1000
0001
1000
0001
0000
0000
0010
0000
0001
0000
0000
0101
0000
0000
0010
0000
,  // measure 3
0100
0001
0100
0000
0001
0000
0010
0000
0100
0000
1000
0000
0001
0000
0010
0000
,  // measure 4
0001
1000
0010
0000
1000
0000
0100
0000
0010
0000
0000
0011
0000
0000
0001
0000
,  // measure 5
1000
0010
1000
0010
0100
0000
0001
0000
1000
0000
0010
0000
1000
0000
0010
0000
,  // measure 6
0200
0000
0000
0000
0301
0000
0100
0000
1000
0000
0100
0001
0100
0000
0010
0000
,  // measure 7
0100
0000
0001
0000
0100
0000
0010
0100
0010
0000
1000
0000
0000
0000
0001
0000
,  // measure 8
0100
0000
0001
0010
0001
0000
0100
0000
0010
0000
1000
0010
1000
0000
0100
0000
,  // measure 9
0010
0000
0001
0100
0010
0000
0000
0000
1000
0000
0010
0000
0001
0000
0010
0000
,  // measure 10
2010
0000
0000
0000
3001
0000
0010
0000
0100
0000
0001
0100
0001
0000
0100
0000
,  // measure 11
1000
0000
0010
0000
0100
0000
0001
0000
0010
0000
0001
1000
0001
0000
0010
0100
,  // measure 12
0010
0000
1001
0000
1000
0100
0001
0100
,  // measure 13
1000
0000
0001
1000
0002
0000
0000
0000
0103
0000
0010
0000
1000
0000
0001
0000
,  // measure 14
0200
0000
0000
0000
0310
0000
0100
0000
0001
0000
1000
0010
1000
0000
0001
0000
,  // measure 15
1000
0000
0100
0000
0001
0000
0100
1000
0200
0000
0000
0000
0300
0000
1000
0000
,  // measure 16
0001
0000
1000
0001
1000
0000
1010
0000
0100
0000
0001
0100
0001
0000
0100
0000
,  // measure 17
0010
0000
1000
0001
1000
0000
0000
0000
1000
0000
0010
0000
0100
0000
0001
0000
,  // measure 18
0020
0000
0000
0000
0130
0000
1000
0000
0010
0000
0100
0001
0100
0000
0001
0000
,  // measure 19
0010
0000
1000
0000
0010
0000
0001
0000
0100
0000
0001
0010
0001
0000
1000
0010
,  // measure 20
2000
0000
3002
0000
1003
0100
0010
1000
,  // measure 21
0010
0001
0000
0001
0200
0000
0000
0000
0301
0000
0000
1000
0000
0000
1010
0000
,  // measure 22
0001
0100
0001
0000
0000
0011
0000
0000
1010
0000
0000
0101
0000
0000
0110
0000
,  // measure 23
1000
0000
0000
0010
0000
0000
2000
0000
0000
0000
3001
0000
0100
0000
0010
0000
,  // measure 24
0100
0000
0000
0101
0000
0000
1001
0000
0000
0000
1000
0000
0010
0000
0000
0000
,  // measure 25
0110
0000
0000
0101
0000
0000
0002
0000
0000
0000
0013
0000
1000
0000
0010
0000
,  // measure 26
0011
0000
0000
1001
0000
0000
1000
0000
0002
0000
0000
0000
1003
0000
0000
0000
,  // measure 27
1100
0000
0110
0000
0011
0000
1000
0010
,  // measure 28
0001
0000
0000
0000
1010
0000
0000
0000
0001
0100
0001
0000
1000
0000
0100
0000
,  // measure 29
2000
0000
3000
0001
0020
0000
0030
0010
,  // measure 30
0100
0000
0000
1100
0000
0000
1000
0000
0001
0100
0001
0100
0001
0100
0001
0000
,  // measure 31
1000
0000
0000
1010
0000
0000
0100
0000
0001
0000
0000
1001
0000
0000
1000
0000
,  // measure 32
1010
0000
0000
0110
0000
0000
0100
0000
0102
0000
0000
0000
1003
0000
0000
0000
,  // measure 33
1001
0000
0000
0001
0000
0000
0010
0000
1000
0000
0000
0010
0000
0000
0001
0000
,  // measure 34
0100
0000
0000
0010
0000
0000
1000
0000
0001
0000
0010
0000
0110
0000
0000
0000
,  // measure 35
0100
0000
0000
1000
0000
0000
0001
0000
0020
0000
0000
0000
0130
0000
0000
0000
,  // measure 36
0100
0000
0000
0101
0000
0000
0100
0000
1000
0000
0000
1010
0000
0000
0010
0000
,  // measure 37
0100
0000
0000
0101
0000
0000
0001
0000
0100
0000
0000
1100
0000
0000
1000
0000
,  // measure 38
0010
0000
0000
0110
0000
0000
1000
0000
0001
0000
0010
0000
0100
0000
0001
0000
,  // measure 39
0200
0000
0000
0000
1300
0000
0001
0000
1000
0000
0100
0010
0100
0000
0010
0000
,  // measure 40
0001
0000
0010
0100
0000
0001
0100
0000
2000
0000
0000
0000
3000
0000
0010
0000
,  // measure 41
1000
0000
0100
0010
0100
0000
0010
0000
0001
0000
0100
0001
0100
0000
0010
0000
,  // measure 42
0100
0000
0001
1000
0002
0000
0000
0000
1003
0000
0010
0000
0001
0000
0010
0000
,  // measure 43
2000
0000
0000
0000
3100
0000
0010
0000
0001
0000
0010
0100
0010
0000
1000
0000
,  // measure 44
0010
0000
0001
0000
0100
0000
0001
0000
1000
0000
0001
0010
0001
0000
1000
0010
,  // measure 45
1000
0000
1001
0000
0001
0010
1000
0010
,  // measure 46
0001
0000
1000
0001
2000
0000
0000
0000
3100
0000
0010
0000
0001
0000
0010
0000
,  // measure 47
1000
0010
0000
0000
0001
0000
0010
0000
0001
0000
1000
0001
1000
0000
0010
0000
,  // measure 48
0100
0000
0001
0000
1000
0000
0001
0010
0002
0000
0000
0000
0003
0000
1000
0000
,  // measure 49
0010
0000
0100
0010
0100
0000
0001
0000
1000
0000
0100
0001
0100
0000
0010
0000
,  // measure 50
1000
0000
0010
0001
0020
0000
0000
0000
1030
0000
0100
0000
0010
0000
0001
0000
,  // measure 51
2001
0000
0000
0000
3001
0000
0100
0000
1000
0000
0100
0001
0100
0000
0010
0000
,  // measure 52
1000
0000
0100
0000
0010
0000
1000
0000
0010
0000
0001
0010
0001
0000
0100
0001
,  // measure 53
0100
0000
0101
0000
1000
0010
0100
0010
,  // measure 54
1000
0001
0000
0001
2000
0000
0000
0000
3010
0000
0000
0010
0000
0000
0100
0001
,  // measure 55
1000
0000
1010
0000
0010
0100
0001
0010
,  // measure 56
1000
0000
0010
0001
0010
0000
0000
0000
0001
0000
0000
0010
0000
0000
0100
0000
,  // measure 57
1100
0000
0000
0000
;
