#TITLE:LOVE WILL...;
#SUBTITLE:;
#ARTIST:riweo;
#TITLETRANSLIT:;
#SUBTITLETRANSLIT:;
#ARTISTTRANSLIT:;
#GENRE:;
#CREDIT:;
#BANNER:LOVE WILL....png;
#BACKGROUND:LOVE WILL...-bg.png;
#LYRICSPATH:;
#CDTITLE:;
#MUSIC:LOVE WILL....mp3;
#OFFSET:-2.168000;
#SAMPLESTART:60.472019;
#SAMPLELENGTH:15.000008;
#SELECTABLE:YES;
#DISPLAYBPM:144.000000;
#BPMS:0.000000=143.960007
;
#STOPS:
;
#BGCHANGES:;
#KEYSOUNDS:;
#ATTACKS:;

//---------------dance-single - ----------------
#NOTES:
     dance-single:
     :
     Hard:
     9:
     0.424274,0.473331,0.021838,0.698804,0.098269,272.000000,270.000000,2.000000,64.000000,0.000000,0.000000,0.424274,0.473331,0.021838,0.698804,0.098269,272.000000,270.000000,2.000000,64.000000,0.000000,0.000000:
// measure 0
0000
0000
0000
0000
,  // measure 1
0000
0000
0000
0000
,  // measure 2
0000
0000
0000
0000
,  // measure 3
1000
0000
0000
1000
0000
0000
0010
0000
0200
0000
0000
0000
0000
0000
0000
0000
,  // measure 4
0301
2000
3002
0203
,  // measure 5
0320
1000
0000
1030
0002
0100
0000
0100
,  // measure 6
0013
1000
0020
0000
0230
0000
0302
0000
,  // measure 7
0023
0000
0030
0001
2000
0000
3020
0000
,  // measure 8
0230
0001
0301
0000
0200
0010
0302
0000
,  // measure 9
0023
0000
1030
0100
0001
0000
0001
0010
,  // measure 10
1000
0000
0010
0100
0001
0100
0010
1000
,  // measure 11
0001
0000
0000
0001
0000
0000
0100
0000
0020
0000
0000
0000
0130
0000
0000
0000
,  // measure 12
0001
0020
0032
2003
,  // measure 13
3200
0000
0300
0010
0021
0000
0000
0000
,  // measure 14
0031
1000
0002
0000
0203
0000
2300
0000
,  // measure 15
3200
0010
0300
0010
1000
0100
2000
0000
,  // measure 16
3020
0100
0130
0000
0002
0000
0203
0000
,  // measure 17
2300
0001
3001
0001
0100
0001
1000
0100
,  // measure 18
1000
0010
0001
0010
1000
0100
0010
0100
,  // measure 19
2000
0000
3001
0200
0000
0320
0000
2030
,  // measure 20
0000
3000
0020
0000
2030
0000
3200
0000
,  // measure 21
0320
0000
0031
0000
1000
0010
0001
0010
,  // measure 22
1000
0001
1000
0000
0020
0000
0130
0001
,  // measure 23
0200
0000
0310
1000
0100
0000
1000
0001
,  // measure 24
0020
0031
2001
3200
,  // measure 25
0320
0000
0032
0000
2003
0010
0010
0000
,  // measure 26
3100
0001
0010
0000
0001
0010
0100
0010
,  // measure 27
0001
0000
0000
0001
0000
0000
1000
0000
0000
0000
0020
0000
0000
0000
0230
0000
,  // measure 28
0001
0302
2003
3020
,  // measure 29
2030
0001
3200
0000
0310
1000
0001
1000
,  // measure 30
0010
0000
0100
0000
0001
0010
1000
0010
,  // measure 31
0001
0100
0001
0000
1000
0010
0001
0010
,  // measure 32
2000
3002
0203
0320
,  // measure 33
0230
0000
0001
0000
0000
0000
0001
0000
1300
0000
0000
1000
0000
0000
0010
0000
,  // measure 34
0100
0001
0100
0010
1000
0010
0100
0001
,  // measure 35
0010
0000
0000
0010
0000
0000
1000
0000
0010
0000
0000
0001
0000
0000
0100
0000
,  // measure 36
1000
0000
0000
0000
0000
0000
0100
0000
0001
0000
0000
1000
0000
0000
0010
0000
,  // measure 37
1000
0001
0100
0010
0100
0001
1000
0002
,  // measure 38
0000
0023
0000
0230
0000
2300
0000
3001
,  // measure 39
0200
0000
0000
0000
0300
0000
0010
0000
1000
0000
0000
1000
0000
0000
0001
0000
,  // measure 40
0100
0000
0000
0000
0000
0000
0001
0000
1000
0000
0000
1000
0000
0000
0010
0000
,  // measure 41
0100
0000
0000
0000
0000
0000
0001
0000
1000
0000
0000
1000
0000
0000
0010
0000
,  // measure 42
0100
0000
0001
0000
0100
0000
0000
0000
0010
0000
0000
0010
0000
0000
1000
0000
,  // measure 43
0001
0000
0000
0000
0001
0000
0000
0000
0100
0000
0000
0100
0000
0000
0010
0000
,  // measure 44
1000
0000
0001
0000
1000
0000
0000
0000
0010
0000
0000
0010
0000
0000
0100
0000
,  // measure 45
0001
0000
0010
0000
0001
0000
0100
0000
0010
0000
0000
0010
0000
0000
1000
0000
,  // measure 46
0001
0000
1000
0000
0000
0000
0010
0000
0100
0000
0000
0010
0000
0000
1000
0000
,  // measure 47
0001
0000
0000
0000
0100
0000
0000
0000
0001
0000
0000
0001
0000
0000
1000
0000
,  // measure 48
0010
0000
0100
0000
0001
0000
0100
0000
0010
0000
0000
1000
0000
0000
0001
0000
,  // measure 49
1000
0000
0100
0000
0001
0000
0100
0000
1000
0000
0000
1000
0000
0000
0001
0000
,  // measure 50
0100
0010
0000
0100
0010
1000
0010
0100
,  // measure 51
0001
0000
0000
0000
;

//---------------dance-single - ----------------
#NOTES:
     dance-single:
     :
     Beginner:
     1:
     0.067073,0.083529,0.000000,0.000000,0.000000,43.000000,43.000000,0.000000,0.000000,0.000000,0.000000,0.067073,0.083529,0.000000,0.000000,0.000000,43.000000,43.000000,0.000000,0.000000,0.000000,0.000000:
0000
0000
0000
0000
,
0000
0000
0000
0000
,
0000
0000
0000
0000
,
1000
0000
0000
0000
,
0001
0000
0000
0000
,
1000
0000
0000
0000
,
0000
0010
0000
0000
,
0100
0000
0000
0000
,
0010
0000
0000
0000
,
1000
0000
0000
0000
,
0001
0000
0000
0000
,
1000
0000
0000
0000
,
0000
0000
0000
0000
,
0010
0000
0000
0000
,
0000
0000
0000
0000
,
1000
0000
0000
0000
,
0000
0000
0000
0000
,
0001
0000
0000
0000
,
0100
0000
0000
0000
,
0001
0000
0000
0000
,
0000
0000
0000
0000
,
1000
0000
0000
0000
,
0010
0000
0000
0000
,
0100
0000
0000
0000
,
0010
0000
0000
0000
,
1000
0000
0000
0000
,
0001
0000
0000
0000
,
0001
0000
0000
0000
,
0100
0000
0000
0000
,
0100
0000
0000
0000
,
0010
0000
0000
0000
,
0010
0000
0000
0000
,
0000
0000
0000
0000
,
1000
0000
0000
0000
,
0001
0000
0000
0000
,
1000
0000
0000
0000
,
0010
0000
0000
0000
,
0100
0000
0000
0000
,
0010
0000
0000
0000
,
1000
0000
0000
0000
,
0001
0000
0000
0000
,
0100
0000
0000
0000
,
0010
0000
0000
0000
,
0100
0000
0000
0000
,
0001
0000
0000
0000
,
1000
0000
0000
0000
,
0000
0000
0000
0000
,
0001
0000
0000
0000
,
1000
0000
0000
0000
,
0001
0000
0000
0000
,
0100
0000
0000
0000
,
0010
0000
0000
0000
;

//---------------dance-single - ----------------
#NOTES:
     dance-single:
     :
     Easy:
     3:
     0.151304,0.167058,0.000000,0.480428,0.000000,97.000000,97.000000,0.000000,44.000000,0.000000,0.000000,0.151304,0.167058,0.000000,0.480428,0.000000,97.000000,97.000000,0.000000,44.000000,0.000000,0.000000:
0000
0000
0000
0000
,
0000
0000
0000
0000
,
0000
0000
0000
0000
,
0001
0000
0002
0000
,
0103
0000
0200
0000
,
0320
0000
2030
0000
,
3001
0000
0002
0000
,
0203
0000
0320
0000
,
2030
0000
3002
0000
,
2003
0000
3010
0000
,
0020
0000
0230
0000
,
0301
0001
0001
0000
,
1000
0000
0020
0000
,
0230
0000
0302
0000
,
1003
0000
2000
0000
,
3020
0000
0230
0000
,
0320
0000
2030
0000
,
3002
0000
0103
0000
,
0200
0000
0310
0000
,
0010
0000
1000
0000
,
1000
0000
0001
0000
,
0001
0000
0100
0000
,
0020
0000
0230
0000
,
0302
0000
0003
0000
,
1000
0000
0010
0000
,
2000
0000
3002
0000
,
2003
0000
3001
0000
,
0001
0000
1000
0000
,
2000
0000
3020
0000
,
0230
0000
0310
0000
,
0010
0000
1000
0000
,
2000
0000
3001
0000
,
0002
0000
0103
0000
,
0200
0000
0320
0000
,
2030
0000
3020
0000
,
0130
0000
0100
0000
,
0001
0000
0001
0000
,
1000
0000
1000
0000
,
0010
0000
0010
0000
,
0200
0000
0302
0000
,
1003
0000
1000
0000
,
0010
0000
0020
0000
,
0130
0000
0100
0000
,
0020
0000
2030
0000
,
3010
0000
0100
0000
,
0001
0000
0100
0000
,
0020
0000
2030
0000
,
3001
0000
0100
0000
,
0001
0000
0010
0000
,
0001
0000
1000
0000
,
0010
0000
1000
0000
,
0001
0000
0000
0000
;

//---------------dance-single - ----------------
#NOTES:
     dance-single:
     :
     Medium:
     7:
     0.318206,0.334116,0.087351,0.349402,0.000000,204.000000,196.000000,8.000000,32.000000,0.000000,0.000000,0.318206,0.334116,0.087351,0.349402,0.000000,204.000000,196.000000,8.000000,32.000000,0.000000,0.000000:
0000
0000
0000
0000
,
0000
0000
0000
0000
,
0000
0000
0000
0000
,
1000
0010
2000
0000
,
3001
0100
0020
0230
,
0302
0000
0003
1000
2000
0000
0010
0000
,
3010
0020
0230
0302
,
0023
0000
0000
0130
0200
0000
2300
0000
,
3002
0100
0203
0320
,
2030
0000
0001
0000
3001
0100
0001
0000
,
1000
0010
1000
0000
0010
0100
0010
0000
,
0100
0001
0010
0001
,
1000
0100
2000
3020
,
0230
0000
0000
0301
1000
0000
0010
0000
,
1000
0100
0010
0001
,
2000
0000
3100
1000
,
0020
0000
0130
0001
,
0010
0000
0100
1000
0100
0000
1000
0000
,
0010
0100
0001
0010
,
0001
0010
0100
1000
,
0002
1003
0100
0010
,
0002
0000
1003
0000
0100
0001
0100
0000
,
1000
0010
0100
0010
,
2000
3100
0010
0001
,
1000
0001
0100
0010
,
2000
3010
0200
0301
,
0020
0130
2000
3010
,
0100
0001
0010
0001
,
0100
0010
1000
0010
,
0100
0000
0000
0000
0001
0010
0001
0000
,
1000
0100
0010
0100
,
1000
0000
0001
0000
,
0020
0031
0100
0010
,
2000
3100
0002
0103
,
2000
3010
0002
0013
,
1000
0100
0010
0001
,
0100
0010
1000
0100
,
1000
0001
0010
0001
,
0100
0010
1000
0100
,
0010
0001
0010
0010
,
0100
1000
0001
1000
,
1001
0100
0010
0100
,
0110
0010
1000
0100
,
1100
0100
0010
0001
,
0011
0100
0010
1000
,
1100
0001
0100
0010
,
1010
1000
0100
0001
,
0101
1000
0010
0001
,
0011
0010
1000
0100
,
0010
0001
0100
0010
,
1000
0100
1000
0000
0001
0010
0001
0010
,
0001
0000
0000
0000
;
