#TITLE:KYOKA-SUIGETSU-ROW (DDR EDITION);
#SUBTITLE:;
#ARTIST:TERRA feat.Uchusentai NOIZ;
#TITLETRANSLIT:;
#SUBTITLETRANSLIT:;
#ARTISTTRANSLIT:;
#GENRE:;
#CREDIT:;
#BANNER:KYOKA-SUIGETSU-ROW (DDR EDITION).png;
#BACKGROUND:KYOKA-SUIGETSU-ROW (DDR EDITION)-bg.png;
#LYRICSPATH:;
#CDTITLE:;
#MUSIC:KYOKA-SUIGETSU-ROW (DDR EDITION).mp3;
#OFFSET:1.304000;
#SAMPLESTART:59.709000;
#SAMPLELENGTH:15.000000;
#LASTBEATHINT:0.722734;
#SELECTABLE:YES;
#DISPLAYBPM:175.000000;
#BPMS:0.000000=174.979996
;
#STOPS:
;
#BGCHANGES:0.000=KYOKA-SUIGETSU-ROW (DDR EDITION).avi=1.000=1=0=0=StretchNoLoop==CrossFade==,
0.887=KYOKA-SUIGETSU-ROW (DDR EDITION)-bg.png=1.000=0=0=1=Centered====,
99999=-nosongbg-=1.000=0=0=0 // don't automatically add -songbackground-
;
#KEYSOUNDS:;
#ATTACKS:;

//---------------dance-single - ----------------
#NOTES:
     dance-single:
     :
     Beginner:
     3:
     0.177921,0.281916,0.106201,0.000000,0.000000,129.000000,118.000000,11.000000,0.000000,0.000000,0.000000,0.177921,0.281916,0.106201,0.000000,0.000000,129.000000,118.000000,11.000000,0.000000,0.000000,0.000000:
// measure 0
0000
0000
0000
0000
,  // measure 1
0000
0000
0000
0000
,  // measure 2
0000
0000
0000
0000
,  // measure 3
1000
0000
0000
0000
,  // measure 4
0100
0000
0000
0000
,  // measure 5
0001
0000
0000
0000
,  // measure 6
0010
0000
0000
0000
,  // measure 7
0100
0000
0000
0000
,  // measure 8
0010
0000
0000
0000
,  // measure 9
1000
0000
1000
0000
,  // measure 10
0001
0000
0001
0000
,  // measure 11
1001
0000
0000
0000
,  // measure 12
1000
0000
0010
0000
,  // measure 13
1000
0000
0010
0000
,  // measure 14
0001
0000
0010
0000
,  // measure 15
0001
0000
0100
0000
,  // measure 16
1000
0000
0100
0000
,  // measure 17
1000
0000
0100
0000
,  // measure 18
0001
0000
0100
0000
,  // measure 19
0001
0000
0000
0000
,  // measure 20
0001
0000
0100
0000
,  // measure 21
0001
0000
0100
0000
,  // measure 22
1000
0000
0100
0000
,  // measure 23
1001
0000
0000
0000
,  // measure 24
0010
0000
0000
0000
,  // measure 25
0100
0000
0000
0000
,  // measure 26
1000
0000
0010
0000
,  // measure 27
0100
0000
0010
0000
,  // measure 28
0010
0000
0000
0000
,  // measure 29
0001
0000
0010
0000
,  // measure 30
1000
0000
0000
0000
,  // measure 31
1000
0000
0010
0000
,  // measure 32
0010
0000
0000
0000
,  // measure 33
0100
0000
0000
0000
,  // measure 34
0001
0000
0010
0000
,  // measure 35
0100
0000
0010
0000
,  // measure 36
0010
0000
0000
0000
,  // measure 37
1000
0000
0010
0000
,  // measure 38
0001
0000
0000
0000
,  // measure 39
0001
0000
0010
0000
,  // measure 40
1001
0000
0000
0000
,  // measure 41
1001
0000
0000
0000
,  // measure 42
0100
0000
0100
0000
,  // measure 43
0010
0000
0010
0000
,  // measure 44
0000
0000
0000
0000
,  // measure 45
1001
0000
0000
0000
,  // measure 46
0010
0000
1000
1000
,  // measure 47
1000
0000
0000
0000
,  // measure 48
0001
0000
0100
0100
,  // measure 49
0100
0000
0000
0000
,  // measure 50
1000
0000
0010
0010
,  // measure 51
0010
0000
0000
0000
,  // measure 52
0110
0000
0000
0000
,  // measure 53
1001
0000
0000
0000
,  // measure 54
0010
0000
0001
0001
,  // measure 55
0001
0000
0000
0000
,  // measure 56
1000
0000
0100
0100
,  // measure 57
0100
0000
0000
0000
,  // measure 58
0001
0000
0010
0010
,  // measure 59
0010
0000
0000
0000
,  // measure 60
0110
0000
0000
0000
,  // measure 61
0010
0010
0010
0000
,  // measure 62
0100
0100
0100
0000
,  // measure 63
1000
0000
0000
0000
,  // measure 64
0001
0000
0000
0000
,  // measure 65
1000
1000
1000
0000
,  // measure 66
0001
0001
0001
0000
,  // measure 67
0100
0000
0010
0000
,  // measure 68
0100
0000
0010
0000
,  // measure 69
1000
0000
0100
0000
,  // measure 70
1000
0000
0010
0000
,  // measure 71
0001
0000
0010
0000
,  // measure 72
1001
0000
0110
0000
,  // measure 73
1001
0000
0000
0000
;

//---------------dance-single - ----------------
#NOTES:
     dance-single:
     :
     Easy:
     6:
     0.273089,0.360843,0.106201,0.279985,0.000000,198.000000,187.000000,11.000000,29.000000,0.000000,0.000000,0.273089,0.360843,0.106201,0.279985,0.000000,198.000000,187.000000,11.000000,29.000000,0.000000,0.000000:
// measure 0
0000
0000
0000
0000
,  // measure 1
0000
0000
0000
0000
,  // measure 2
0000
0000
0000
0000
,  // measure 3
0020
0000
0030
0000
,  // measure 4
2000
0000
3000
0000
,  // measure 5
0200
0000
0300
0000
,  // measure 6
0020
0000
0030
0000
,  // measure 7
0002
0000
0003
0000
,  // measure 8
0200
0000
0300
0000
,  // measure 9
1000
0000
0010
0000
,  // measure 10
0001
0000
0100
0000
,  // measure 11
2002
0000
3003
0000
,  // measure 12
0001
0010
0001
0010
,  // measure 13
0001
0010
0100
0100
,  // measure 14
1000
0010
1000
0010
,  // measure 15
1000
0100
0100
1000
,  // measure 16
0001
0100
0001
0100
,  // measure 17
0001
0100
0010
0010
,  // measure 18
1000
0100
1000
0100
,  // measure 19
1001
0000
0000
0000
,  // measure 20
0001
0010
1000
0010
,  // measure 21
0001
0100
0010
1000
,  // measure 22
0001
0010
0001
0010
,  // measure 23
0100
0100
1001
0000
,  // measure 24
2000
0000
3010
0100
,  // measure 25
0001
1000
0010
0010
,  // measure 26
0100
0001
0001
1000
,  // measure 27
0100
0010
0100
0010
,  // measure 28
0001
0100
0100
0001
,  // measure 29
1000
0000
1000
0010
,  // measure 30
1000
0100
0010
0010
,  // measure 31
2002
0000
0000
3003
0220
0000
0000
0330
,  // measure 32
1001
0000
0100
0010
,  // measure 33
1000
0000
0010
0000
,  // measure 34
1000
0001
1000
0001
,  // measure 35
1000
0010
0100
0000
,  // measure 36
0010
0000
0100
0000
,  // measure 37
0001
0010
0001
0010
,  // measure 38
0001
0000
1000
1000
,  // measure 39
0001
0000
0110
0000
,  // measure 40
2000
0000
3000
0000
,  // measure 41
0002
0000
0003
0000
,  // measure 42
1000
0100
0010
0100
,  // measure 43
0010
0001
0010
0000
,  // measure 44
0000
0000
0000
0000
,  // measure 45
2000
0000
3000
0000
,  // measure 46
0100
0010
0100
0100
,  // measure 47
2000
0000
3000
0000
,  // measure 48
1000
0001
1000
1000
,  // measure 49
0200
0000
0300
0000
,  // measure 50
0001
0010
0001
0010
,  // measure 51
0002
0000
0003
0000
,  // measure 52
0110
0000
1000
0001
,  // measure 53
0002
0000
0003
0000
,  // measure 54
0100
0010
0100
0100
,  // measure 55
0002
0000
0003
0000
,  // measure 56
0001
1000
0001
0001
,  // measure 57
0200
0000
0300
0000
,  // measure 58
1000
0010
1000
0010
,  // measure 59
2000
0000
3000
0000
,  // measure 60
0110
0000
0000
0000
,  // measure 61
0001
0100
0001
0100
,  // measure 62
0001
1000
0001
1000
,  // measure 63
0002
0000
0003
0000
,  // measure 64
0200
0000
0300
0000
,  // measure 65
1000
0010
1000
0010
,  // measure 66
1000
0001
1000
0001
,  // measure 67
2000
0000
3010
0000
,  // measure 68
0002
0000
0103
0100
,  // measure 69
0100
0000
0010
0000
,  // measure 70
1000
0100
0010
0001
,  // measure 71
0001
0010
0100
1000
,  // measure 72
0010
0000
0110
0000
,  // measure 73
2002
0000
0000
0000
,  // measure 74
0000
0000
0000
3003
;

//---------------dance-single - ----------------
#NOTES:
     dance-single:
     :
     Medium:
     11:
     0.485491,0.649517,0.405495,0.617898,0.004827,352.000000,310.000000,42.000000,64.000000,0.000000,0.000000,0.485491,0.649517,0.405495,0.617898,0.004827,352.000000,310.000000,42.000000,64.000000,0.000000,0.000000:
// measure 0
0000
0000
0000
0000
,  // measure 1
0000
0000
0000
0000
,  // measure 2
0000
0000
0000
0000
,  // measure 3
2000
0000
0000
3000
,  // measure 4
0020
0000
0000
0030
,  // measure 5
2000
0000
0000
3000
,  // measure 6
0020
0000
0000
0030
,  // measure 7
0002
0000
0000
0003
,  // measure 8
0020
0000
0000
0030
,  // measure 9
2000
3000
0200
0300
,  // measure 10
0002
0003
0200
0300
,  // measure 11
2002
0000
0000
3003
,  // measure 12
1000
0001
0100
0000
0010
0000
0110
0000
,  // measure 13
1000
0001
0100
0000
0110
0000
1001
0000
,  // measure 14
0001
0010
0100
0010
,  // measure 15
0001
0010
0001
1000
0100
0000
1000
0000
,  // measure 16
0001
1100
0010
0101
,  // measure 17
0001
0000
0100
0000
0010
1000
0010
0000
,  // measure 18
1000
0011
0100
0011
,  // measure 19
0001
0100
0010
0000
0001
0100
0010
1000
,  // measure 20
1000
0011
0100
1010
,  // measure 21
1000
0010
0100
0000
0100
0001
0100
0000
,  // measure 22
0001
1000
0100
0010
0010
0001
0100
0100
,  // measure 23
1000
0000
0000
0100
0000
0000
0001
0000
1001
0000
0000
0000
0000
0000
0000
0000
,  // measure 24
1010
0000
0000
0000
0100
0000
0001
1000
,  // measure 25
0001
0100
0110
0010
,  // measure 26
1020
0100
0032
0100
,  // measure 27
2003
0000
0100
0000
3001
0010
0100
0000
,  // measure 28
1000
0001
1000
0110
,  // measure 29
1000
0000
0011
0000
1000
0100
0010
0000
,  // measure 30
0001
0000
0100
0000
0010
0100
0010
0000
,  // measure 31
0002
0010
2003
3100
,  // measure 32
0201
0000
0310
0001
,  // measure 33
1000
0001
0110
1000
,  // measure 34
0200
0010
2300
0010
,  // measure 35
3002
0000
0010
0000
1003
0100
0010
0001
,  // measure 36
0100
0000
0010
1000
0001
0000
0110
0000
,  // measure 37
0001
0000
1100
0000
0001
0010
0100
0000
,  // measure 38
0010
0001
0100
0010
1000
0100
1000
0000
,  // measure 39
0020
0130
0010
1001
,  // measure 40
1000
0010
1000
0200
0000
0300
1000
0001
,  // measure 41
0010
0001
0100
0020
0000
0130
0010
1000
,  // measure 42
2001
3100
1002
0103
,  // measure 43
2200
3300
0022
0033
,  // measure 44
0000
0000
0010
1100
,  // measure 45
0021
0000
0000
0000
0130
1000
0001
0000
,  // measure 46
1000
0100
0010
0000
0001
0010
0001
0000
,  // measure 47
1001
1000
0010
0100
,  // measure 48
0001
0100
0010
1000
0010
0100
0001
0000
,  // measure 49
0201
0000
0301
0010
,  // measure 50
0001
0000
0010
0000
0001
0100
1000
0000
,  // measure 51
0100
0001
1000
0001
,  // measure 52
0220
0000
0330
2002
0000
3003
0101
0000
,  // measure 53
0100
0010
1000
0010
0100
0000
0001
0000
,  // measure 54
0001
0100
0010
0000
1000
0010
1000
0000
,  // measure 55
0001
0100
0010
1000
0000
0001
0100
0010
,  // measure 56
0100
0001
0010
0100
1000
0010
0100
0000
,  // measure 57
0201
0000
0301
1000
,  // measure 58
0010
0000
1000
0000
0001
0010
0001
0000
,  // measure 59
0202
0000
0000
0303
2002
0000
0000
3003
,  // measure 60
2200
0000
0000
0000
0000
0000
0000
3300
,  // measure 61
1000
0010
1000
0001
1000
0100
1000
0001
,  // measure 62
1000
0010
1000
0001
0001
0010
0100
1000
,  // measure 63
0002
0000
0100
0103
,  // measure 64
0020
0100
0100
0130
,  // measure 65
0001
0100
0001
1000
0001
0010
0001
1000
,  // measure 66
0001
0100
0001
1000
1000
0100
0010
0001
,  // measure 67
2001
3100
1020
0130
,  // measure 68
2010
3100
0102
0013
,  // measure 69
2001
3002
0023
0230
,  // measure 70
1300
2000
0100
3200
1000
2300
0010
3020
,  // measure 71
0001
0032
0010
0023
1000
2030
0100
3100
,  // measure 72
0020
0000
0200
0330
,  // measure 73
2002
0000
0000
0000
,  // measure 74
0000
0000
0000
3003
;

//---------------dance-single - ----------------
#NOTES:
     dance-single:
     :
     Hard:
     14:
     0.766855,0.810508,0.434459,0.463423,0.130338,556.000000,511.000000,45.000000,48.000000,0.000000,0.000000,0.766855,0.810508,0.434459,0.463423,0.130338,556.000000,511.000000,45.000000,48.000000,0.000000,0.000000:
// measure 0
0000
0000
0000
0000
,  // measure 1
0000
0000
0000
0000
,  // measure 2
0000
0000
0000
0000
,  // measure 3
2000
0000
0000
0000
3010
0100
0001
0100
,  // measure 4
0020
0000
0000
0000
1030
0100
0001
0100
,  // measure 5
2000
0000
0000
0000
3001
0100
0010
0100
,  // measure 6
0001
1000
0001
1000
0010
0100
0010
1000
,  // measure 7
0020
0000
0000
0130
0001
0010
1000
0010
,  // measure 8
0002
0000
0000
0000
0103
0010
1000
0010
,  // measure 9
0200
0000
0000
0301
0100
1000
0100
0001
,  // measure 10
1000
1000
0010
0200
0000
0320
0000
0130
,  // measure 11
0001
0010
0001
1000
0010
1000
0001
0100
,  // measure 12
0001
0010
0100
1000
0000
2020
0000
3030
,  // measure 13
0001
1000
2020
3030
0220
0330
0202
0303
,  // measure 14
1001
1000
0100
1000
0001
0100
0002
0000
,  // measure 15
0103
0010
1000
0010
0100
0001
0010
0100
,  // measure 16
1010
1000
0100
0001
1000
0001
0100
1000
,  // measure 17
0010
0010
2002
3003
0220
0330
2002
3003
,  // measure 18
0010
0100
0001
0010
0100
1000
0010
0000
,  // measure 19
1000
0100
0010
1000
0010
0001
1000
0001
,  // measure 20
0100
0000
0010
0100
0001
0100
0010
1000
,  // measure 21
0010
0100
0202
0303
2002
3003
2020
3030
,  // measure 22
0110
0100
0001
1000
0001
0100
0010
0010
,  // measure 23
1010
0000
0000
1001
0000
0000
0001
0000
0201
0000
0000
0000
0310
1000
0010
0000
,  // measure 24
2010
0000
3001
0100
0010
0000
0100
0001
,  // measure 25
1000
0001
0100
0020
0100
0130
0001
0100
,  // measure 26
0002
1000
1003
0010
1000
0010
0100
0002
,  // measure 27
0000
1003
0010
0100
0010
1000
0100
0001
,  // measure 28
0101
0000
1000
1010
0000
0100
0101
0000
,  // measure 29
0010
1010
0000
0100
0110
0000
0101
0000
,  // measure 30
1000
0010
0100
0010
1000
0001
0010
0001
,  // measure 31
0200
0000
0001
0000
0301
0000
0010
0000
2000
0000
0010
0000
3010
0000
0001
0100
,  // measure 32
0010
1000
0001
0100
1000
0100
0010
0002
,  // measure 33
0010
0013
1000
0100
0020
0001
0031
0100
,  // measure 34
0210
0010
1300
0020
0000
0130
0001
1000
,  // measure 35
1001
0000
0100
0010
0100
0001
1000
0001
,  // measure 36
0100
0100
0010
0010
1000
0001
0100
0001
,  // measure 37
2000
0000
3010
0100
0001
0100
0010
0000
,  // measure 38
1000
0100
0010
0001
0100
0010
1000
0010
,  // measure 39
0101
0000
0001
1000
0010
1000
0001
0000
,  // measure 40
0100
0010
1000
1020
0000
0130
0001
0001
,  // measure 41
1000
0010
1000
1002
0000
0103
0010
1000
,  // measure 42
1020
0000
0130
0001
1000
0001
0100
0010
,  // measure 43
0200
0000
0000
0000
0301
0000
1000
0000
0001
0100
0000
0000
0010
1000
0010
1000
,  // measure 44
0020
0000
0000
0000
,  // measure 45
0130
0010
1000
0010
0100
0001
0100
0010
,  // measure 46
1001
0010
0100
0010
1001
0100
0010
0100
,  // measure 47
1001
1000
0010
0100
0010
1000
0001
0100
,  // measure 48
1010
0100
0001
0100
1000
0010
1000
0001
,  // measure 49
0110
1000
0100
0001
0100
0010
0001
0010
,  // measure 50
0100
0001
0100
1000
0010
0100
0001
0010
,  // measure 51
0100
0010
0001
0100
1000
0100
0010
1000
,  // measure 52
1010
0000
1000
0000
0001
0000
0000
0100
0001
0000
0100
0000
0010
1000
0010
0000
,  // measure 53
0100
0001
0100
1000
0100
0010
1000
0010
,  // measure 54
0001
0010
0010
0100
0010
0010
0100
1000
,  // measure 55
0100
0100
0001
0001
1000
0001
0100
0010
,  // measure 56
0101
0001
1000
1010
0000
0110
0000
0101
,  // measure 57
0001
1000
0010
1000
0001
0100
0010
0100
,  // measure 58
0001
0010
0100
1000
0100
0010
0001
0100
,  // measure 59
0010
0000
0100
0000
0001
0000
1000
0000
0001
0000
0100
0010
0100
0000
0010
1000
,  // measure 60
0010
1000
0001
0100
0010
0120
0000
0000
,  // measure 61
1030
0001
1000
0000
0001
0000
0100
0000
0010
1000
0010
0000
0100
0000
0010
0000
,  // measure 62
1000
0001
1000
0000
0001
0000
0100
0000
0010
1000
0010
0000
0200
0000
0000
0000
,  // measure 63
0301
0100
1000
0100
0001
0100
0010
0100
,  // measure 64
0001
0000
1000
0000
0001
1000
0001
0000
0100
0000
0100
0000
0010
0000
0010
0000
,  // measure 65
1000
0001
0000
0100
0100
0010
0010
1000
,  // measure 66
1000
0100
0010
0100
0001
0100
1000
0010
,  // measure 67
0100
0010
0001
0010
0110
0010
1000
0100
,  // measure 68
1100
0000
1000
1001
0000
0001
0101
0000
,  // measure 69
0100
0000
0010
0000
1000
0000
0010
0000
0100
0000
0001
0000
0010
0100
1000
0000
,  // measure 70
0001
1000
0001
0000
0100
0000
0010
0000
0100
0000
0001
0010
0001
0000
1000
0000
,  // measure 71
0010
0100
0010
0000
0100
0000
0001
0000
0010
0000
0100
0000
1000
0000
0001
0000
,  // measure 72
1000
0100
0010
0001
0100
0010
1000
0100
0010
0001
0100
0010
,  // measure 73
1001
0000
0000
0000
;

//---------------dance-single - ----------------
#NOTES:
     dance-single:
     :
     Challenge:
     15:
     0.890987,0.922502,0.473078,0.270330,0.502042,646.000000,597.000000,49.000000,28.000000,0.000000,0.000000,0.890987,0.922502,0.473078,0.270330,0.502042,646.000000,597.000000,49.000000,28.000000,0.000000,0.000000:
// measure 0
0000
0000
0000
0000
,  // measure 1
0000
0000
0000
0000
,  // measure 2
0000
0000
0000
0000
,  // measure 3
0210
0000
0000
0000
0301
1000
0001
0100
,  // measure 4
0020
0000
1030
0100
1000
0010
0001
0010
,  // measure 5
2000
0000
3001
0100
0001
1000
0010
0100
,  // measure 6
0001
0010
1000
0010
0001
0100
0010
1000
,  // measure 7
0020
0000
0030
1000
0001
0010
0100
1000
,  // measure 8
0002
0000
0103
0010
1000
0001
0100
0010
,  // measure 9
0200
0000
0000
0301
0100
1000
0100
0001
,  // measure 10
1000
1000
0010
0110
0000
1001
0000
0100
,  // measure 11
0001
0010
0001
0000
1000
0100
1000
0000
0010
0100
0010
0000
1000
0001
1000
0000
,  // measure 12
0001
0010
0100
1000
1010
0000
0110
0000
,  // measure 13
0001
1000
1010
0000
0101
0000
1001
0000
,  // measure 14
0001
1000
0001
0000
0100
0000
0010
0000
1000
0000
0100
0000
0001
0000
0000
0000
,  // measure 15
0100
0010
0100
0000
0010
0100
0010
0000
0001
1000
0001
0000
1000
0001
1000
0000
,  // measure 16
1010
0000
0100
0010
0001
1000
0010
0010
,  // measure 17
0100
0100
1001
0000
0110
0000
1001
0000
,  // measure 18
0100
0000
0010
0000
1000
0000
0010
0000
0100
0001
0100
0000
0010
0000
0000
0000
,  // measure 19
1000
0000
0100
0000
0010
0000
1000
0000
0010
0001
0010
0001
1000
0000
0001
0000
,  // measure 20
1001
0000
0000
0000
0010
0000
0100
0000
0001
0100
0001
0000
0010
0000
1000
0000
,  // measure 21
0010
0100
0010
0000
0011
0000
0000
0000
1001
0000
0000
0000
1010
0000
0000
0000
,  // measure 22
0101
0000
0100
0001
0100
0000
0010
0000
1000
0100
1000
0000
0010
0000
0010
0000
,  // measure 23
1010
0000
0000
1001
0000
0000
0101
0000
0210
0000
0000
0000
0310
1000
0010
1000
,  // measure 24
0200
0000
0310
0000
0001
1000
0100
1000
,  // measure 25
0010
0100
0001
0010
0100
1000
0010
1000
,  // measure 26
0001
0100
0010
1000
0100
1000
0001
0200
,  // measure 27
0000
0310
1000
0100
0010
0001
0100
0010
,  // measure 28
0110
0000
1000
1100
0000
0001
0011
0000
,  // measure 29
1000
1010
0000
0010
0110
0000
0101
0000
,  // measure 30
1000
0010
0001
0010
1000
0100
0001
0100
,  // measure 31
0020
0000
0100
0000
0130
0000
1000
0000
0002
0000
1000
0000
1003
0100
0001
0100
,  // measure 32
0002
0000
0000
0000
0203
0000
0000
0000
1300
0100
1000
0000
0010
0000
2000
0000
,  // measure 33
0001
0000
3001
0000
0100
0000
0010
1000
0020
0000
0100
0000
0130
0000
0001
0000
,  // measure 34
0201
0000
0310
0020
0000
1030
0001
2000
,  // measure 35
0001
0001
3100
0010
0100
0001
1000
0001
,  // measure 36
1000
0010
1000
0000
0001
0000
0010
0001
0010
0000
0001
0000
0100
0010
0100
0010
,  // measure 37
2000
0000
3001
0100
0010
0100
0001
1000
,  // measure 38
1010
0010
0100
0001
0100
0010
1000
0010
,  // measure 39
0210
0000
0301
1000
0010
1000
0001
1000
,  // measure 40
0010
0100
0010
0000
1000
0000
2001
0000
0000
0000
3100
0000
0001
0000
0001
0000
,  // measure 41
0100
0010
0001
0000
0010
0000
0012
0000
0000
0000
0103
0000
0010
0000
1000
0000
,  // measure 42
2001
0000
3001
0100
1000
0100
0001
0010
,  // measure 43
1200
0000
0000
0000
0301
0000
1000
0000
0001
0100
0000
0000
0010
1000
0010
1000
,  // measure 44
0001
0100
0001
0000
1000
0010
1000
0000
0001
0100
0001
0100
0010
1000
0010
1000
,  // measure 45
0100
0000
0010
0000
0001
0100
0010
0000
0100
0000
0001
0000
0100
0000
0010
0000
,  // measure 46
0100
0001
1000
0000
0010
0000
0100
0000
0010
1000
0001
0000
0100
0000
0100
0000
,  // measure 47
1001
1000
0100
0010
0001
0100
0001
1000
,  // measure 48
0010
0100
0010
0000
1000
0000
0001
1000
0001
0000
0010
0000
0100
0000
0001
0000
,  // measure 49
0101
0000
0100
0000
1000
0000
0001
0100
0001
0000
0010
0000
1000
0000
0010
0000
,  // measure 50
0100
1000
0001
0000
0010
0000
0001
0100
0010
0000
1000
0000
0001
0100
0001
0100
,  // measure 51
0010
1000
0100
0010
0001
0010
0100
0010
,  // measure 52
0011
0000
1001
0000
1010
0000
0000
0100
0001
0000
1000
0000
0010
1000
0010
1000
,  // measure 53
0100
0010
0100
0001
0100
1000
0010
0100
,  // measure 54
0001
0010
0001
0000
0010
0000
0100
1000
0100
0000
1000
0000
0100
0000
1000
0000
,  // measure 55
0010
0000
0010
0000
0100
0000
0100
0000
0001
0000
0001
0000
1000
0010
0100
0000
,  // measure 56
0101
0001
1000
1000
0010
0100
0001
0100
,  // measure 57
0101
0000
0001
0000
0010
0000
0001
1000
0001
0000
0100
0000
0010
0000
0100
0000
,  // measure 58
0001
1000
0010
0000
0100
0000
0010
1000
0100
0000
0010
0000
0001
0000
0100
0000
,  // measure 59
0010
0100
0010
0000
1000
0000
0001
0100
0001
0000
1000
0000
0010
0000
0100
0010
,  // measure 60
0100
0001
1000
0001
0100
0020
0000
0000
,  // measure 61
1030
0001
1000
0001
0100
0000
0010
0000
1000
0100
1000
0100
0010
0000
0001
0000
,  // measure 62
0100
0001
0100
0001
0010
0000
0100
1000
0010
1000
0010
1000
0020
0000
0000
0000
,  // measure 63
0130
0000
0001
0000
1000
0000
0100
0000
0001
0000
0100
0000
0010
0100
0010
0000
,  // measure 64
0001
0000
1000
0000
0001
1000
0001
0000
0100
0000
0100
0000
0010
0000
0010
0000
,  // measure 65
1000
1001
0001
0110
0010
1000
1000
0001
,  // measure 66
0001
0000
0100
0001
0100
0000
0001
0100
0001
0000
0010
0100
0010
0100
1000
0001
,  // measure 67
1000
0000
0010
0000
0100
0001
0100
0001
0100
0000
0010
0000
1000
0000
0100
0000
,  // measure 68
1100
0000
0000
0000
1010
0000
1001
0000
0000
0000
0101
0000
1001
0000
1000
0010
,  // measure 69
0100
0000
0001
0000
1000
0000
0010
0000
1000
0000
0001
0000
0010
0100
1000
0000
,  // measure 70
0001
0010
0100
1000
0001
0010
0001
0100
0010
1000
0100
1000
,  // measure 71
0001
0010
0001
0100
0010
1000
0001
0100
1000
0100
0001
0010
,  // measure 72
0001
0010
1000
0010
0001
0100
1000
0100
0001
0010
0100
1000
,  // measure 73
2002
0000
3003
0000
;
