#TITLE:KOTOBUKI;
#SUBTITLE:;
#ARTIST:Reven-G;
#TITLETRANSLIT:;
#SUBTITLETRANSLIT:;
#ARTISTTRANSLIT:;
#GENRE:;
#CREDIT:;
#BANNER:KOTOBUKI.png;
#BACKGROUND:KOTOBUKI-bg.png;
#LYRICSPATH:;
#CDTITLE:;
#MUSIC:KOTOBUKI.ogg;
#OFFSET:-3.620001;
#SAMPLESTART:27.680008;
#SAMPLELENGTH:15.000000;
#SELECTABLE:YES;
#DISPLAYBPM:70.000000:280.000000;
#BPMS:0.000000=70.000000
,12.000000=140.000000
,108.000000=70.000000
,128.000000=280.000000
;
#STOPS:
;
#BGCHANGES:;
#KEYSOUNDS:;
#ATTACKS:;

//---------------dance-single - ----------------
#NOTES:
     dance-single:
     :
     Easy:
     7:
     0.231056,0.340576,0.009242,0.009242,0.000000,175.000000,174.000000,1.000000,1.000000,0.000000,0.000000,0.231056,0.340576,0.009242,0.009242,0.000000,175.000000,174.000000,1.000000,1.000000,0.000000,0.000000:
0000
0000
0000
0000
,
1000
0001
0000
0000
1000
0100
1000
0000
,
0001
0010
0001
0100
,
0010
0000
1000
0000
,
0010
0000
0100
0001
,
0010
0000
0001
0000
,
1000
0010
0100
0010
,
1000
0000
0001
0000
,
0100
0000
0010
0000
,
0100
0010
1000
0010
,
0100
0001
0010
0001
,
1000
1000
1000
0000
,
0010
0010
0010
0100
,
0100
0001
1000
0001
,
1000
0010
0100
0000
,
0100
0001
1001
1000
,
0010
0100
0010
0000
,
1000
0100
1000
0100
,
0010
0001
0010
0001
,
1000
1000
1000
1000
,
1000
1000
1000
0001
,
0001
0001
0001
0001
,
0001
0001
0001
0100
,
0010
0100
0010
0100
,
0010
1000
0010
1000
,
0001
0000
0100
0000
,
0010
0010
0010
0000
,
1000
0001
1000
0000
0010
0000
1000
0000
,
0001
0000
0100
0000
0010
0100
0010
0000
,
1000
0000
0001
0000
0010
0001
0010
0000
,
0001
0000
1000
0000
0100
1000
0100
0000
,
1000
0000
0100
0000
0010
0001
0010
0000
,
0001
0000
1000
0000
,
0001
0000
1000
0000
,
0010
0000
0100
0000
,
0010
0000
1000
0000
,
0001
0000
0100
0000
,
0010
0000
0000
0000
,
0100
0000
0000
0000
,
0001
0000
1000
0000
,
0001
0000
0100
0000
,
0010
0000
0100
0000
,
0001
0000
1000
0000
,
0001
0000
0000
0000
,
1000
0000
0010
0000
,
0100
0000
0010
0000
,
1000
0000
0001
0000
,
0100
0000
0001
0000
,
1000
0000
1000
0000
,
1000
0000
0000
0000
,
0010
0000
0010
0000
,
0010
0000
0000
0000
,
0100
0000
0100
0000
,
0100
0000
0000
0000
,
0001
0000
0001
0000
,
0001
0000
0000
0000
,
1000
0000
1000
0000
,
0010
0000
0010
0000
,
0100
0000
0100
0000
,
0001
0000
0000
0000
,
1000
0000
0001
0000
,
1000
0000
0001
0000
,
0010
0000
0001
0000
,
0100
0000
0010
0000
,
0100
0000
0001
0000
,
0020
0000
0000
0000
,
0000
0000
0000
0000
,
0030
0000
0000
0000
;

//---------------dance-single - ----------------
#NOTES:
     dance-single:
     :
     Beginner:
     4:
     0.171641,0.270335,0.000000,0.000000,0.000000,130.000000,130.000000,0.000000,0.000000,0.000000,0.000000,0.171641,0.270335,0.000000,0.000000,0.000000,130.000000,130.000000,0.000000,0.000000,0.000000,0.000000:
0000
0000
0000
0000
,
1000
0001
1000
0010
,
0100
0010
1000
0001
,
1000
0000
1000
0000
,
0001
0000
0001
0000
,
0010
0000
0010
0000
,
0001
0000
0001
0000
,
0100
0000
0100
0000
,
0010
0000
0010
0000
,
1000
0000
1000
0000
,
0001
0000
0001
0000
,
1000
0000
0001
0000
,
0100
0100
0100
0000
,
0010
0000
1000
0000
,
0010
0000
0100
0000
,
0001
0001
0001
0000
,
1000
1000
1000
0000
,
0010
0000
0100
0000
,
0010
0000
1000
0000
,
0001
0001
0001
0000
,
1000
1000
1000
0000
,
0010
0010
0010
0000
,
0100
0100
0100
0000
,
0001
0000
1000
0000
,
0001
0000
0100
0000
,
0010
0000
0100
0000
,
0001
0000
0001
0000
,
1000
1000
0010
0100
,
0010
1000
0001
0100
,
0001
0010
0001
1000
,
0001
0100
1000
0100
,
0001
1000
0000
0001
,
1000
0000
1000
0000
,
0010
0000
0010
0000
,
0100
0000
0000
0000
,
0001
0000
0000
0000
,
0001
0000
0000
0000
,
1000
0000
0000
0000
,
1000
0000
0000
0000
,
0010
0000
0100
0000
,
0010
0000
0000
0000
,
1000
0000
0001
0000
,
1000
0000
0000
0000
,
0010
0000
0000
0000
,
0100
0000
0010
0000
,
0100
0000
0000
0000
,
0001
0000
1000
0000
,
0001
0000
0000
0000
,
1000
0000
1000
0000
,
1000
0000
0000
0000
,
0010
0000
0010
0000
,
0010
0000
0000
0000
,
0100
0000
0100
0000
,
0001
0000
0001
0000
,
1000
0000
1000
0000
,
0010
0000
0000
0000
,
0100
0000
0100
0000
,
0001
0000
0001
0000
,
1000
0000
1000
0000
,
0010
0000
0000
0000
,
0100
0000
0000
0000
,
0010
0000
0000
0000
,
0100
0000
0000
0000
,
0001
0000
0000
0000
,
1000
0000
0000
0000
,
0001
0000
0000
0000
;

//---------------dance-single - ----------------
#NOTES:
     dance-single:
     :
     Medium:
     10:
     0.364408,0.480596,0.092422,0.000000,0.000000,276.000000,266.000000,10.000000,0.000000,0.000000,0.000000,0.364408,0.480596,0.092422,0.000000,0.000000,276.000000,266.000000,10.000000,0.000000,0.000000,0.000000:
// measure 0
0000
0000
0000
0000
,  // measure 1
1000
0001
1000
0000
0010
0010
0100
0100
,  // measure 2
0001
1000
0010
1000
0001
0100
1000
0100
,  // measure 3
0001
1000
0001
0010
,  // measure 4
0001
0100
0001
0000
1000
0010
1000
0000
,  // measure 5
0010
0100
0001
0010
,  // measure 6
0001
1000
0100
1000
,  // measure 7
0010
0100
0010
1000
,  // measure 8
0001
0000
0100
0000
0010
0100
0010
0000
,  // measure 9
0100
0001
1000
0100
,  // measure 10
1000
0000
0010
0000
0100
0010
0100
0000
,  // measure 11
0001
1000
0001
0000
1000
0010
1000
0000
,  // measure 12
0010
0010
0100
0100
,  // measure 13
0001
1001
1000
1010
,  // measure 14
0010
0110
0100
0000
,  // measure 15
0001
0000
1000
0000
0010
1000
0010
0000
,  // measure 16
1000
0000
0100
1000
0100
0000
0000
0000
,  // measure 17
1000
0000
0001
0000
1000
0001
1000
0000
,  // measure 18
0001
0100
0001
0000
0100
0010
0100
0000
,  // measure 19
0010
1000
0100
1000
,  // measure 20
1001
0000
0001
0000
0101
0000
0100
0010
,  // measure 21
0100
0010
1000
0010
,  // measure 22
0100
0000
0001
0000
0010
0001
0010
0000
,  // measure 23
0001
1000
0100
1000
,  // measure 24
0010
0000
0100
0000
0010
1000
0010
0000
,  // measure 25
1000
0001
0100
0001
,  // measure 26
0010
0001
0100
0010
,  // measure 27
0100
0010
1000
0000
0001
0100
1000
0100
,  // measure 28
0001
0010
1000
0000
0010
0001
0100
1000
,  // measure 29
0100
0001
1000
0000
0010
0100
0001
0100
,  // measure 30
0010
1000
0100
0000
0010
0001
0100
0010
,  // measure 31
1000
0100
0010
0001
1000
0001
0010
0001
,  // measure 32
0100
0010
0100
0010
,  // measure 33
1000
0001
1000
0001
,  // measure 34
0100
0010
0100
0010
,  // measure 35
1000
0010
1000
0000
,  // measure 36
0001
0100
0010
0100
,  // measure 37
0001
1000
0100
1000
,  // measure 38
0010
0000
0100
0000
,  // measure 39
0001
0010
0001
0010
,  // measure 40
1000
0100
1000
0010
,  // measure 41
0001
0010
1000
0100
,  // measure 42
0001
0100
1000
0010
,  // measure 43
0001
0010
1000
0001
,  // measure 44
0000
0100
0010
0100
,  // measure 45
0010
0000
0000
0000
,  // measure 46
1000
0001
1000
0001
,  // measure 47
1000
0000
0001
0000
,  // measure 48
0100
0010
0100
0010
,  // measure 49
0100
0000
0010
0000
,  // measure 50
1010
0000
1000
0000
,  // measure 51
1010
0000
0010
0000
,  // measure 52
0110
0000
0100
0001
,  // measure 53
0010
0000
0011
0000
,  // measure 54
0011
0000
0001
0000
,  // measure 55
1000
0100
1000
0000
,  // measure 56
0010
0100
0010
1000
,  // measure 57
0010
0000
0100
0001
,  // measure 58
0010
0000
0001
0010
,  // measure 59
0100
1000
0010
0000
,  // measure 60
0100
0001
0010
0001
,  // measure 61
1000
0100
1000
0010
,  // measure 62
0100
0010
1000
0001
,  // measure 63
0100
0010
0100
0001
,  // measure 64
1000
0000
0010
0000
,  // measure 65
0100
0000
0000
0000
;

//---------------dance-single - ----------------
#NOTES:
     dance-single:
     :
     Hard:
     13:
     0.677323,1.219974,0.240298,0.018484,0.466733,513.000000,487.000000,26.000000,2.000000,0.000000,0.000000,0.677323,1.219974,0.240298,0.018484,0.466733,513.000000,487.000000,26.000000,2.000000,0.000000,0.000000:
// measure 0
0000
0000
0000
0000
,  // measure 1
1001
0000
0001
0000
1000
0010
0100
0000
0010
1000
0010
1000
0001
0100
0001
0100
,  // measure 2
0010
1000
0100
0010
0001
1000
0100
0010
0001
0010
1000
0010
0001
0010
1000
0010
,  // measure 3
0001
0000
0000
0001
0100
0000
0010
0000
1000
0001
1000
0000
0001
0100
0001
0000
,  // measure 4
0100
0000
0000
0100
0010
0000
1000
0000
0001
0010
0001
0000
1000
0100
1000
0000
,  // measure 5
0001
0000
0000
0001
0100
0000
0010
0000
0100
0001
0100
0000
0001
0000
1000
0000
,  // measure 6
0010
0100
0010
0000
1000
0000
0001
0000
1000
0010
1000
0010
0100
0001
0100
0000
,  // measure 7
0001
0000
0000
0001
0000
0000
1001
0000
0000
1000
0000
0000
1010
0000
0100
0000
,  // measure 8
0010
0000
0000
0110
0000
0000
0100
0000
0000
0101
0000
0000
0001
0000
1000
0000
,  // measure 9
1010
0000
0000
0100
0000
0000
0110
0000
0000
0010
0000
0000
1000
0000
0100
0000
,  // measure 10
0011
0000
0000
0001
0000
0000
1001
0000
0000
1000
0000
0000
1010
0000
0000
0000
,  // measure 11
0100
0001
0010
0100
1000
0000
1001
0000
,  // measure 12
0001
0001
0100
0100
0010
1000
0010
0100
,  // measure 13
0001
1000
0001
0010
0100
0000
1000
0100
,  // measure 14
0001
0100
1000
0010
0002
0000
0003
0000
,  // measure 15
0010
1000
0001
0000
1000
0000
0000
0000
0010
0100
0001
0000
0100
0000
0010
0000
,  // measure 16
1000
0000
1001
0001
0101
0000
0100
0000
,  // measure 17
0010
0000
1000
0000
0100
0010
0100
0000
0010
0000
0001
0000
1000
0001
1000
0000
,  // measure 18
0010
0000
0001
0000
0010
1000
0010
0000
0001
0000
0010
0000
1000
0100
1000
0000
,  // measure 19
0101
0001
1000
1000
0010
0010
0100
0100
,  // measure 20
0001
0000
0001
0000
0010
0000
0010
0000
0100
1000
0100
1000
0001
1000
0001
0000
,  // measure 21
0101
0001
0100
0100
1010
0010
1000
1000
,  // measure 22
0011
0000
0001
0000
0100
0000
0100
0000
0010
1000
0010
1000
0010
0000
1000
0001
,  // measure 23
1000
0001
0010
0000
0010
0000
0010
0000
0001
0000
0001
0000
0010
0000
0010
0000
,  // measure 24
1000
0000
1000
0000
0010
0000
0010
0000
0001
1000
0001
0000
1000
0001
1000
0000
,  // measure 25
0010
0010
0100
0100
1001
0001
0101
0100
,  // measure 26
0110
0000
0010
0000
1010
0000
0010
0000
0100
0001
0100
0001
0100
0001
0100
0001
,  // measure 27
0100
0000
0001
0000
1000
0000
0010
1000
0010
0000
0100
0000
0001
0000
0010
0000
0100
1000
0100
1000
0100
0000
1000
0000
0001
0000
0001
0000
0100
0000
0010
0000
,  // measure 28
0100
0000
0001
0000
0010
0000
0100
1000
0100
0000
1000
0000
0010
0000
0100
0000
0001
0000
0100
0000
0010
1000
0010
0000
0010
0000
0100
0000
0001
0000
0010
0000
,  // measure 29
0001
1000
0001
0000
1000
0010
1000
0000
0010
0000
0100
0000
0001
0000
0010
0000
0001
0000
1000
0000
0010
0100
0010
0000
1000
0001
1000
0001
1000
0000
0010
0000
,  // measure 30
0100
0001
0010
0001
1000
0001
0100
0000
1000
0100
0001
0010
0100
1000
0001
0100
,  // measure 31
0101
0001
1000
0001
1000
0010
0100
0001
1000
0100
1000
0001
0010
0001
0100
0010
,  // measure 32
1001
0000
0001
0000
0100
0010
0100
0000
,  // measure 33
0001
0010
0001
0000
1000
0100
1000
0000
,  // measure 34
0010
0100
0010
0000
0100
0001
0100
0000
,  // measure 35
0001
1000
0001
0000
1000
0010
1000
0000
,  // measure 36
1001
0001
0010
0100
,  // measure 37
1000
0001
1000
0001
0100
0001
0100
0010
,  // measure 38
0100
0010
1000
0001
,  // measure 39
1000
0100
1000
0100
0010
0001
0010
0001
,  // measure 40
0100
0010
0100
0000
0010
1000
0010
0000
,  // measure 41
1000
0001
1000
0000
0001
0010
0001
0000
,  // measure 42
0010
0100
0010
0000
0100
1000
0100
0000
,  // measure 43
1000
0001
1000
0000
0100
0000
0010
0000
,  // measure 44
0001
0100
0000
0100
0010
0000
1000
0000
,  // measure 45
0001
1000
0001
0000
0100
0000
0010
0000
,  // measure 46
1000
0100
1000
0000
0001
0000
0100
0000
,  // measure 47
0001
0010
0001
0000
1001
0000
0000
0000
,  // measure 48
1000
0010
0001
0010
,  // measure 49
1000
0001
1000
0000
0001
0000
0000
0000
,  // measure 50
0101
0100
0010
0010
,  // measure 51
1000
1000
0001
0001
,  // measure 52
0100
0010
0000
0000
0010
1000
0000
0000
,  // measure 53
1000
0001
0000
0000
0001
0100
0000
0000
,  // measure 54
0100
0010
0000
0000
0010
0000
1000
0000
,  // measure 55
0001
0000
0000
0000
,  // measure 56
1000
0010
1000
0000
0001
0000
0100
0000
,  // measure 57
0010
0100
0010
0000
0100
0000
0001
0000
,  // measure 58
0010
0000
0100
1000
,  // measure 59
0001
0010
0001
0000
0100
0000
0010
0000
,  // measure 60
1000
0100
1000
0000
0001
1000
0001
0000
,  // measure 61
1000
0010
1000
0000
0010
0100
0010
0000
,  // measure 62
0100
0001
0100
0000
0001
1000
0001
0000
,  // measure 63
1000
0010
1000
0000
0010
0100
0010
0000
,  // measure 64
0000
1000
0001
0010
0100
1000
0001
1000
,  // measure 65
0020
0000
0000
0000
,  // measure 66
0030
0000
0000
0000
;

//---------------dance-single - ----------------
#NOTES:
     dance-single:
     :
     Challenge:
     15:
     0.867449,1.890960,0.609987,0.018484,0.762484,657.000000,591.000000,66.000000,2.000000,0.000000,0.000000,0.867449,1.890960,0.609987,0.018484,0.762484,657.000000,591.000000,66.000000,2.000000,0.000000,0.000000:
// measure 0
0000
0000
0000
0000
,  // measure 1
1001
0000
0000
0000
0001
0010
0100
1000
0001
0000
0010
0000
0110
0000
0000
0000
0010
0000
1000
0000
0010
0001
0100
0000
0010
0000
1000
0000
1001
0000
1000
0000
,  // measure 2
0010
0000
1000
0000
0100
0000
0010
0000
0001
0000
1000
0000
0100
0000
0010
0000
0001
0010
0001
0010
0100
1000
0100
1000
0001
0010
0001
0010
0100
1000
0100
1000
,  // measure 3
0001
0010
0001
0000
0010
0000
0100
1000
0010
1000
0010
0100
0001
0000
0001
0010
,  // measure 4
0001
0100
0010
1000
0010
0000
0100
0001
0100
0010
1000
0100
0010
0000
0001
0010
,  // measure 5
0100
1000
0001
0010
0100
0000
1000
0010
1000
0010
0100
0001
0100
0000
0001
0010
,  // measure 6
0001
0000
0010
0000
0100
0000
1000
0000
0100
0010
0001
0010
0100
1000
0100
0010
,  // measure 7
0001
0000
0000
1001
0000
0000
1010
0000
0000
0110
0000
0000
0101
0000
0101
0000
,  // measure 8
0011
0000
0000
0110
0000
0000
1100
0000
0000
1001
0000
0000
0101
0000
1100
0000
,  // measure 9
0100
0001
0000
0001
0010
0000
0100
0000
1000
0010
0000
0010
0100
0000
0001
0000
,  // measure 10
0010
0000
0100
0000
1100
0000
1000
0000
0010
0100
0000
0100
0001
0000
0000
0000
,  // measure 11
1000
0000
0010
0001
0010
0000
1000
0000
1010
0000
0010
0000
0100
0000
0100
0000
,  // measure 12
0011
0000
0001
0000
0100
0000
0100
0000
0010
0000
1000
0010
1000
0000
0100
0000
,  // measure 13
0010
0000
0001
1000
0001
0000
0100
0000
0110
0000
0000
0000
1100
0000
0100
0000
,  // measure 14
0001
0100
1000
0010
0012
0000
0013
0000
,  // measure 15
0010
1000
0001
0000
1000
0000
0000
0000
0010
0100
0001
0000
0100
0000
0010
0000
,  // measure 16
1000
0100
0010
0000
0101
0000
0001
0000
0011
0000
0000
0000
0100
0000
0000
0000
,  // measure 17
1000
0100
0010
0000
0010
0100
0001
0000
0100
0000
1000
0000
0001
0010
0100
0000
,  // measure 18
0010
0000
0001
0000
0010
1000
0010
0000
0001
0000
0100
0000
1000
0100
0001
0000
,  // measure 19
0101
0001
1001
1000
1010
0010
0110
0100
,  // measure 20
0101
0000
0001
0000
0010
0000
0010
0000
0100
1000
0100
1000
0001
0010
0001
0100
,  // measure 21
0001
0001
0101
0100
1010
0010
1100
1000
,  // measure 22
0011
0000
0001
0000
0110
0000
0100
0000
0010
1000
0100
0010
0001
0000
0100
0010
,  // measure 23
1000
0010
0101
0100
0011
0001
1100
1000
,  // measure 24
0110
0000
0100
0000
1001
0000
0001
0000
1000
0100
0010
0100
1000
0000
0010
0000
,  // measure 25
0110
0100
0011
0010
1010
0010
0011
0001
,  // measure 26
1001
0000
1010
0000
0110
0000
0101
0000
0001
0010
0100
1000
0001
0010
0100
1000
,  // measure 27
0001
0000
0000
0001
1000
0000
0010
1000
0010
0000
0100
0001
0010
0000
0100
0000
1000
0100
0010
0100
1000
0000
0001
0000
0101
0000
0110
0000
1010
0000
1000
0100
,  // measure 28
0010
0000
0001
0010
0100
0000
0100
1000
0100
1000
0010
0000
0010
0000
0100
0000
0001
0000
0100
0000
0010
1000
0010
1000
0010
0000
0100
0000
0001
0000
0010
0001
,  // measure 29
0010
0000
0100
0000
1000
0000
0100
0000
0010
0000
0100
0000
1000
0001
0010
0001
0010
0000
0001
0100
0010
0000
1000
0000
0001
1000
0001
1000
0001
0000
0100
0000
,  // measure 30
0010
1000
0010
1000
0010
1000
0010
1000
0001
0000
0100
0000
0010
0100
0001
0000
1000
0100
0010
0001
1000
0100
0010
0001
0100
0010
1000
0001
0100
0010
1000
0001
,  // measure 31
0100
0010
0100
0010
1000
0001
1000
0001
0100
0001
0100
0001
0010
0001
0010
0001
1000
0010
1000
0010
0100
0001
0100
0001
1000
0100
1000
0100
0010
0001
0010
0001
,  // measure 32
1000
0000
1000
0000
0100
0001
0100
0000
,  // measure 33
1000
0010
0001
0000
1000
0100
0001
0000
,  // measure 34
0100
1000
0100
0000
0010
0001
0100
0000
,  // measure 35
0010
1000
0001
0000
0100
0001
0010
0000
,  // measure 36
0011
0010
0100
1000
,  // measure 37
0001
0010
1000
0010
0001
0100
1000
0100
,  // measure 38
0001
0100
0010
1000
,  // measure 39
0100
0010
0001
0010
0100
1000
0100
0010
,  // measure 40
0100
1000
0001
0000
0010
0001
0100
0000
,  // measure 41
0010
1000
0100
0000
0010
0100
0110
0000
,  // measure 42
0001
0010
1000
0000
0001
0100
1000
0000
,  // measure 43
1000
0100
0001
0000
0100
0010
0100
0000
,  // measure 44
1000
0010
0000
0010
0100
0000
0101
0000
,  // measure 45
0001
0010
0100
0000
1100
0000
1010
0000
,  // measure 46
0100
0001
0010
0100
0010
0000
0001
0000
,  // measure 47
1000
0010
0001
0010
1000
0000
0100
0000
,  // measure 48
0101
1100
1010
0110
,  // measure 49
0001
0100
0010
0100
0001
0000
1000
0000
,  // measure 50
0110
0110
1001
1001
,  // measure 51
0001
0010
0100
0010
0001
1000
0001
0000
,  // measure 52
0101
0101
0110
0110
,  // measure 53
1000
0100
0000
0100
0010
0001
0100
0000
,  // measure 54
0010
1000
0000
1000
0100
0010
0001
0000
,  // measure 55
1000
0000
0010
1000
0001
1000
0010
0000
,  // measure 56
0100
0001
1000
0000
1000
0010
0100
0000
,  // measure 57
0001
0010
1000
0000
0010
0001
0100
0000
,  // measure 58
0010
1000
0000
1000
0100
0000
0110
0000
,  // measure 59
0010
0001
0100
0010
1000
0000
0001
0000
,  // measure 60
0010
0100
1000
0100
0010
0001
0010
0000
,  // measure 61
1000
0010
0001
0010
1000
0010
0001
0000
,  // measure 62
0100
1000
0100
0001
0100
1000
0100
0000
,  // measure 63
0001
0010
0100
1000
0100
0010
0001
0000
,  // measure 64
1000
0100
0001
1000
0010
0001
0100
0010
,  // measure 65
0200
0000
0000
0000
,  // measure 66
0300
0000
0000
0000
;
