#TITLE:I'm So Happy -kors k Remix-;
#SUBTITLE:;
#ARTIST:Ryu☆;
#TITLETRANSLIT:;
#SUBTITLETRANSLIT:;
#ARTISTTRANSLIT:Ryu;
#GENRE:;
#CREDIT:;
#BANNER:I'm So Happy (kors k Remix).png;
#BACKGROUND:I'm So Happy (kors k Remix)-bg.png;
#LYRICSPATH:;
#CDTITLE:;
#MUSIC:I'm So Happy (kors k Remix).ogg;
#OFFSET:1.620000;
#SAMPLESTART:38.010010;
#SAMPLELENGTH:15.000000;
#LASTBEATHINT:1.757803;
#SELECTABLE:YES;
#BPMS:0.000000=170.110001
,72.000000=160.000000
,76.000000=170.100006
;
#STOPS:
;
#BGCHANGES:;
#KEYSOUNDS:;
#ATTACKS:;

//---------------dance-single - ----------------
#NOTES:
     dance-single:
     :
     Beginner:
     3:
     0.144845,0.172003,0.000000,0.000000,0.000000,112.000000,112.000000,0.000000,0.000000,0.000000,0.000000,0.144845,0.172003,0.000000,0.000000,0.000000,112.000000,112.000000,0.000000,0.000000,0.000000,0.000000:
0000
0000
0000
0000
,
0000
0000
0000
0000
,
0000
0000
0000
0000
,
1000
0000
1000
0000
,
0001
0000
0001
0000
,
0100
0000
0000
0000
,
0100
0000
0010
0000
,
0100
0000
0000
0000
,
0010
0000
1000
0000
,
0010
0000
0000
0000
,
0100
0000
0001
0000
,
0100
0000
0001
0000
,
0100
0000
0000
0000
,
0010
0000
1000
0000
,
0010
0000
1000
0000
,
0010
0000
0000
0000
,
0100
0000
0010
0000
,
0100
0000
0000
0000
,
0001
0000
1000
0000
,
0001
0000
0000
0000
,
1000
0000
1000
0000
,
0001
0000
0001
0000
,
0100
0000
0100
0000
,
0010
0000
0010
0000
,
1000
0000
1000
0000
,
0001
0000
0001
0000
,
0100
0000
0100
0000
,
0010
0000
0010
0000
,
1000
0000
0000
0000
,
1000
0000
0000
0000
,
0001
0000
0000
0000
,
1000
0000
0000
0000
,
0010
0000
0000
0000
,
1000
0000
0000
0000
,
0001
0000
1000
0000
,
0001
0000
0000
0000
,
0100
0000
0000
0000
,
0010
0000
0000
0000
,
0100
0000
0000
0000
,
0001
0000
0000
0000
,
1000
0000
0000
0000
,
0001
0000
0000
0000
,
0100
0000
0000
0000
,
0010
0000
0000
0000
,
0100
0000
0001
0000
,
1000
0000
0010
0000
,
1000
0000
0000
0000
,
0001
0000
0000
0000
,
0100
0000
0010
0000
,
0100
0000
0001
0000
,
1000
0000
0000
0000
,
0010
0000
0000
0000
,
1000
0000
0001
0000
,
1000
0000
0000
0000
,
0001
0000
1000
0000
,
0001
0000
0000
0000
,
0100
0000
0010
0000
,
0100
0000
0000
0000
,
0010
0000
1000
0000
,
0010
0000
0000
0000
,
1000
0000
0001
0000
,
1000
0000
0010
0000
,
1000
0000
0000
0000
,
0001
0000
0100
0000
,
0001
0000
0000
0000
,
1000
0000
0010
0000
,
1000
0000
0000
0000
,
0001
0000
0100
0000
,
0001
0000
1000
0000
,
0001
0000
0000
0000
,
1000
0000
0010
0000
,
1000
0000
0000
0000
,
0100
0000
1000
0000
,
0100
0000
0010
0000
,
0001
0000
0010
0000
,
0001
0000
0100
0000
,
0010
0000
0000
0000
;

//---------------dance-single - ----------------
#NOTES:
     dance-single:
     :
     Easy:
     5:
     0.278050,0.344007,0.027158,0.199162,0.000000,215.000000,212.000000,3.000000,22.000000,0.000000,0.000000,0.278050,0.344007,0.027158,0.199162,0.000000,215.000000,212.000000,3.000000,22.000000,0.000000,0.000000:
0000
0000
0000
0000
,
0000
0000
0000
0000
,
0000
0000
0000
0000
,
1000
0000
1000
0000
,
0001
0000
0001
1000
,
0001
0000
1000
0000
,
0010
0000
0110
0000
,
0100
0000
0001
0000
,
1000
0000
0001
0000
,
1000
0010
1000
0000
,
0001
0010
0001
0100
,
0010
0010
0100
0100
,
0001
0001
1000
1000
,
0001
0001
0010
0010
,
0001
1000
0001
0000
,
1000
1000
0100
0100
,
0010
0010
0001
0001
,
1000
1000
0100
0100
,
2000
0000
0000
0000
,
3001
0001
0001
0001
,
1001
1000
0100
0010
,
0001
0100
0020
0000
,
0130
0100
0001
0001
,
1000
1000
0020
0000
,
0130
0100
0010
0010
,
1000
1000
0200
0000
,
0310
0010
0001
0001
,
1000
0100
1000
0000
,
0010
0100
0010
0000
,
1000
0001
1000
0000
,
0001
1000
0001
0000
,
1000
0100
1000
0000
,
0010
0100
0010
0000
,
0100
0001
0100
0000
,
0001
1000
0001
0000
,
1000
0010
1000
0000
,
0020
0000
0130
0100
,
0001
0000
1000
1000
,
0002
0000
1003
1000
,
0020
0000
0130
0100
,
0001
0000
1000
0010
,
1000
0000
0001
0100
,
0002
0000
1003
0100
,
2000
0000
3010
0100
,
0020
0000
0230
0000
,
0302
0000
2003
0000
,
3100
0010
0002
0000
,
0203
0000
0310
0000
,
1000
0100
2000
0000
,
3002
0000
0203
0000
,
0310
1000
0010
0100
,
0020
0000
0230
0000
,
0301
0001
1000
1000
,
0010
0010
0100
0100
,
0000
0001
0001
1000
,
1000
0010
0010
0000
,
0100
0001
0100
0001
,
1000
0001
1000
0000
,
0001
0010
0001
0010
,
0100
1000
0100
1000
,
0001
0000
1000
0000
,
0001
0000
1000
0000
,
0010
0000
0100
0000
,
0010
0000
1000
0000
,
0001
0000
1000
0000
,
0100
0000
1000
0000
,
0020
0000
0130
0000
,
0200
0000
0301
0000
,
0001
0000
1000
0000
,
0001
0000
1000
0000
,
0010
0000
0100
0000
,
0010
0000
1000
0000
,
0001
1000
0001
0000
,
1000
0001
1000
0000
,
0001
0000
0001
0000
,
1000
0000
1000
0000
,
1001
0000
0000
0000
;

//---------------dance-single - ----------------
#NOTES:
     dance-single:
     :
     Medium:
     10:
     0.453934,0.516010,0.153898,0.000000,0.000000,351.000000,334.000000,17.000000,0.000000,0.000000,0.000000,0.453934,0.516010,0.153898,0.000000,0.000000,351.000000,334.000000,17.000000,0.000000,0.000000,0.000000:
0000
0000
0000
0000
,
0000
0000
0000
0000
,
0000
0000
0000
0000
,
0010
1000
0010
0000
1000
0000
0100
0000
,
0010
0001
0101
0100
,
0010
1000
0010
0000
1000
0000
0100
0000
,
0001
0100
1000
0010
,
0001
0010
1000
0010
,
0001
0000
0100
0000
1000
0100
0001
0000
,
0100
1000
0010
0001
,
0010
1000
0100
0001
,
1000
0001
1000
0000
0001
1000
0001
0000
,
1000
0010
1000
0000
0010
0100
0010
0100
,
0001
0000
1000
0000
0010
0100
0010
0000
,
0100
0001
0010
0100
,
1001
0010
0100
0010
,
1001
0100
0010
0100
,
0110
0010
1000
0100
,
0010
0000
0000
0000
,
1001
1001
1001
1001
,
1000
0100
1000
0000
0010
0100
0010
0000
,
0100
0001
0100
0000
0001
0000
1001
0000
,
1000
0100
1000
0000
0010
0100
0010
0000
,
0100
0000
0001
0000
0010
0100
1000
0000
,
0010
0000
0100
0000
0001
0010
0100
0000
,
1000
0001
1000
0000
0001
0100
0001
0000
,
0100
0010
1000
0100
,
0010
0001
0010
0001
0010
0001
0010
0000
,
0001
1000
0100
1000
,
0100
0010
0100
0000
0010
0000
0001
0000
,
1000
0100
1000
0010
,
0100
0000
0010
0000
1000
0001
1000
0000
,
0001
0100
0010
0100
,
0001
0010
1000
0010
,
0001
1000
0001
0000
1000
0100
1000
0000
,
0010
0100
0001
0100
,
0010
1000
0100
0010
,
0001
1000
0100
1000
,
0010
0100
0010
1000
,
0001
1000
0001
0100
,
0010
0100
0001
0010
,
0100
1000
0010
0001
,
0010
1000
0100
0001
,
0100
1000
0001
1000
,
0001
1000
0001
0000
1000
0010
1000
0000
,
0010
0000
0100
0010
0100
0010
0100
0000
,
0010
1000
0100
0001
,
0100
1000
0001
1001
,
1000
0010
0001
0000
0010
0000
1000
0000
,
0100
0001
0100
0000
1000
0000
0001
0000
,
0010
0000
0001
0000
0100
0000
0010
0100
,
0010
1000
0100
1100
,
1000
0001
1000
0001
1000
0001
1000
0000
,
0010
0100
0001
0010
,
0001
1000
0010
1000
,
0100
1000
0001
1001
,
1000
0010
1000
0000
0010
0000
0100
0000
,
0001
0010
0100
0010
,
0001
1000
0100
1000
,
1010
0110
0101
1010
,
0001
1000
0001
0000
1000
0010
1000
0000
,
0010
0100
0010
0000
0001
0000
0100
0000
,
0010
1000
0010
0100
,
0001
1000
0001
0000
1000
0000
0100
0000
,
0010
0001
0100
0010
,
0100
0000
0001
0000
0010
1000
0010
0000
,
0001
0100
1000
0100
,
0001
0010
0100
1000
,
0001
1000
0001
0000
1000
0000
0010
0000
,
0100
0010
1000
0100
,
0010
0001
0100
0010
,
0100
0001
0010
0001
,
1000
0100
1000
0100
,
0010
0001
0010
0001
,
0100
0010
0100
0000
0010
0100
0010
0000
,
1000
0001
1000
0001
,
1001
0000
0000
0000
;

//---------------dance-single - ----------------
#NOTES:
     dance-single:
     :
     Hard:
     12:
     0.625937,0.623286,0.217267,0.208215,0.036211,484.000000,460.000000,24.000000,23.000000,0.000000,0.000000,0.625937,0.623286,0.217267,0.208215,0.036211,484.000000,460.000000,24.000000,23.000000,0.000000,0.000000:
// measure 0
0000
0000
0000
0000
,  // measure 1
0000
0000
0000
0000
,  // measure 2
0000
0000
0000
0000
,  // measure 3
1000
0000
0010
0000
0001
0000
0010
0000
1000
0000
0000
0010
0000
0000
1000
0000
,  // measure 4
0000
0001
0000
0000
0010
0000
0001
0000
1000
0000
0100
0000
0010
0000
0001
0000
,  // measure 5
1000
0100
0001
0100
2000
0000
3010
0100
,  // measure 6
0000
0001
0100
0010
1000
0100
0001
0100
,  // measure 7
1000
0000
0010
0000
0001
0000
0010
0000
1000
0000
0000
0100
0000
0000
0010
0000
,  // measure 8
0000
0001
0000
0000
0100
0000
0000
0000
1000
0000
0100
0000
0001
0000
0000
0000
,  // measure 9
0010
1000
0010
0001
0100
0000
0010
1000
,  // measure 10
0100
1000
0010
1000
0001
0010
0001
0100
,  // measure 11
0010
1000
0100
1000
0001
0010
1000
0010
,  // measure 12
0001
0100
1000
0100
0001
0001
0100
0010
,  // measure 13
0100
0001
0010
0100
1000
0100
0001
0100
,  // measure 14
1000
0000
0010
0000
0001
0000
0010
0000
1000
0000
0000
1000
0000
0000
0001
0000
,  // measure 15
0100
0010
1000
0010
0100
0001
0010
0001
,  // measure 16
1000
0100
1000
0100
1000
1000
0001
0010
,  // measure 17
0001
0100
1000
0100
0001
0010
1000
0010
,  // measure 18
0002
0000
0000
0000
,  // measure 19
0103
0000
0100
0000
0100
0010
1000
0000
,  // measure 20
1001
0011
0110
1100
,  // measure 21
1001
0000
0000
0000
0101
0000
0000
0100
0010
0000
0000
0000
1010
0000
0000
0000
,  // measure 22
1001
0000
0000
0000
0101
0000
0000
0100
0010
0000
0000
0000
1010
0000
0000
0000
,  // measure 23
1000
0100
0010
0001
0100
0010
0100
0010
,  // measure 24
0100
0101
0011
0110
,  // measure 25
1100
0000
0000
0000
1010
0000
0000
0010
0001
0000
0010
0000
2000
0000
0000
0000
,  // measure 26
3001
0000
0100
1000
0100
0001
0010
0100
,  // measure 27
1000
0001
1000
0010
0200
0000
0000
0000
,  // measure 28
0310
1000
0010
0000
1000
0001
1000
0000
,  // measure 29
0001
0100
0001
0000
0100
0010
0100
0000
,  // measure 30
0010
1000
0010
0000
1000
0100
1000
0000
,  // measure 31
0100
0010
0100
0000
0010
0001
0010
0001
,  // measure 32
0100
0010
0100
0000
0010
1000
0010
0000
,  // measure 33
1000
0100
1000
0000
0100
0001
0100
0000
,  // measure 34
1000
0010
1000
0000
0010
0001
0010
0000
,  // measure 35
1000
0100
0001
0000
1000
0010
0001
0000
,  // measure 36
2010
0010
0010
0010
,  // measure 37
3020
0100
0100
0100
,  // measure 38
0230
0001
0001
0302
,  // measure 39
1000
2003
0001
0001
,  // measure 40
3002
0100
0100
0100
,  // measure 41
0203
0010
0010
0010
,  // measure 42
0320
1000
1000
1000
,  // measure 43
2030
0001
0001
0001
,  // measure 44
3001
0100
0001
0000
0100
0010
1000
0100
,  // measure 45
0010
0100
0010
0001
0100
1000
0100
0000
,  // measure 46
0001
0010
1000
0010
0001
0100
1000
0100
,  // measure 47
0000
0001
0010
0100
0020
0000
0032
0000
,  // measure 48
1003
0100
1000
0100
0010
0001
0010
0001
,  // measure 49
0100
0010
0100
0010
1000
0100
1000
0000
,  // measure 50
0001
0010
0001
0010
0100
1000
0100
1000
,  // measure 51
0020
0000
0130
0001
0020
0000
0130
1000
,  // measure 52
0100
0010
0001
0100
1000
0100
0001
1000
,  // measure 53
0002
0000
1003
0010
0001
0010
2000
0000
,  // measure 54
3100
0001
0100
1000
0010
0001
0010
1000
,  // measure 55
0001
0000
0100
0010
1000
0010
0100
0001
,  // measure 56
1000
0010
1000
0010
0100
0001
0100
0001
,  // measure 57
1000
0100
1000
0100
0010
0001
0010
0001
,  // measure 58
1000
0100
0010
0001
1000
0100
0010
0001
,  // measure 59
1000
1001
0011
0110
,  // measure 60
1000
0100
1000
0000
0100
0010
0100
0000
,  // measure 61
0010
0001
0010
0100
0010
0000
0100
1000
,  // measure 62
0100
0000
0010
0001
0100
0010
2000
0000
,  // measure 63
3100
0000
0001
0100
1000
0100
0001
0000
,  // measure 64
0100
1000
0001
1000
0010
0100
0001
0000
,  // measure 65
1000
0000
0010
0000
0100
0001
0100
0010
,  // measure 66
2000
0000
3100
0001
0100
0000
1000
0000
,  // measure 67
0010
0001
0010
1000
0001
0010
0001
0010
,  // measure 68
0100
0000
1100
0000
1000
0001
0101
0000
,  // measure 69
0110
0000
0010
1000
0010
1000
0010
1000
,  // measure 70
1001
0000
0001
0000
0100
0010
0100
0000
,  // measure 71
0010
1000
0010
1000
0010
1000
0010
1000
,  // measure 72
0001
0100
0001
0000
0100
0010
0100
0000
,  // measure 73
0010
1000
0010
0000
1000
0100
1000
0100
,  // measure 74
0010
0001
0010
0001
0100
0010
0100
0010
,  // measure 75
1000
0100
0001
0100
1000
0100
0010
0001
,  // measure 76
2002
0000
3003
0000
;

//---------------dance-double - ----------------
#NOTES:
     dance-double:
     :
     Easy:
     6:
     0.265118,0.329296,0.172003,0.217267,0.000000,205.000000,186.000000,19.000000,24.000000,0.000000,0.000000,0.265118,0.329296,0.172003,0.217267,0.000000,205.000000,186.000000,19.000000,24.000000,0.000000,0.000000:
00000000
00000000
00000000
00000000
,
00000000
00000000
00000000
00000000
,
00000000
00000000
00000000
00000000
,
00000001
00000000
00000000
00000000
,
00001000
00000000
00000000
00000000
,
00000001
00000000
00000000
00000000
,
00000010
00000100
00000110
00000000
,
00000001
00000100
00001000
00001000
,
00010000
00010000
01000000
01000000
,
10000000
00100000
01000000
01000000
,
01100000
00000000
10010000
00000000
,
01000000
00010000
00000000
00011000
,
00000020
00000000
00000000
00000030
,
00000002
00000000
00000000
00000003
,
00002000
00000000
00000000
00003000
,
00000020
00000000
00000000
00000030
,
00000200
00000000
00000000
00000000
,
00000000
00000000
00000000
00000300
,
00002000
00000000
00000000
00000000
,
00000000
00000000
00000000
00003000
,
00010000
00000000
00001000
00000000
,
00010000
01000000
10000000
01000000
,
00100000
00000000
00010000
00000000
,
01000000
00100000
10000000
01000000
,
00010000
00010000
00001000
00001000
,
00000100
00000100
00000001
00000001
,
00000010
00000010
00001000
00001000
,
00010000
00001000
00010000
00001000
,
00022000
00000000
00000000
00033000
,
00000010
00001000
00000100
00001000
,
00000010
00000100
00001000
00010000
,
00100000
10000000
01000000
10000000
,
00100000
00010000
00001000
00000000
,
00000100
00000001
00001000
00000100
,
00000010
00000001
00001000
00000010
,
00010000
00010000
00001000
00001000
,
00010000
00001000
00000000
00011000
,
00100000
00010000
01000000
00010000
,
00100000
01000000
00010000
00001000
,
00000010
00000001
00000100
00000001
,
00000010
00001000
00010000
00000000
,
01000000
10000000
00010000
01000000
,
00100000
10000000
00010000
00100000
,
00001000
00000000
00010000
00000000
,
00001000
00010000
00001000
00011000
,
00000010
00000000
00000000
00000000
,
00000100
00000000
00000000
00000000
,
00001000
00000000
00000000
00000000
,
00000001
00000000
00000000
00000000
,
00000220
00000000
00000330
00001001
,
00000220
00000000
00000330
00001001
,
00000220
00000000
00000000
00000330
,
00000001
00000100
00001000
00010000
,
00022000
00000000
00000000
00000000
,
00000000
00000000
00000000
00033000
,
00100000
00100000
01000000
01000000
,
00100000
10000000
01000000
00010000
,
00001000
00001000
00000010
00000010
,
00000100
00000001
00000100
00000000
,
00000010
00000010
00000100
00000100
,
00000010
00001000
00000001
00000100
,
00000010
00000010
00010000
00010000
,
00001000
00010000
00001000
00000000
,
01000000
00010000
10000000
01000000
,
00100000
00001000
01000000
00001000
,
00010000
00000100
00000010
00000001
,
00000100
00001000
00000001
00000000
,
00000220
00000000
00000330
00001001
,
00000220
00000000
00000330
00001001
,
00000220
00000000
00000000
00000330
,
00000001
00000010
00001000
00010000
,
00022000
00000000
00000000
00000000
,
00000000
00000000
00000000
00033000
,
00000000
00000000
00000000
00000000
;

//---------------dance-double - ----------------
#NOTES:
     dance-double:
     :
     Medium:
     8:
     0.375045,0.559803,0.226320,0.108634,0.000000,290.000000,265.000000,25.000000,12.000000,0.000000,0.000000,0.375045,0.559803,0.226320,0.108634,0.000000,290.000000,265.000000,25.000000,12.000000,0.000000,0.000000:
00000000
00000000
00000000
00000000
,
00000000
00000000
00000000
00000000
,
00000000
00000000
00000000
00000000
,
00010000
00000000
00000000
00000000
00000000
10000000
00000000
00000000
,
00010000
00000000
00000000
00000000
00100000
01000000
00100000
00000000
,
00001000
00000000
00000000
00000000
00000000
00010000
00000000
00000000
,
00010100
00000000
00001100
00000000
00000010
00000001
00000100
00000000
,
00000010
00000010
00001000
00001000
,
00000100
00000000
00000100
00000000
00010000
00001000
00010000
00000000
,
01000000
01000000
10000000
10000000
,
00010000
00000000
01000000
00000000
,
00010000
00010000
10000000
10010000
,
00200000
00000000
00000000
00000000
,
20000000
00000000
00000000
30300000
,
02000000
00000000
00000000
00000000
,
00020000
00000000
00000000
03030000
,
00002000
00000000
00000000
00000000
,
00000000
00000000
00000000
00003000
,
00020000
00000000
00000000
00000000
,
00000000
00000000
00030000
00011000
,
00000010
00000000
00000100
00000000
00001000
00000010
00000100
00000000
,
00000001
00000010
00000100
00001000
,
00000001
00000000
00000100
00000000
00001000
00010000
00001000
00000000
,
00010000
00100000
01000000
00010000
,
10000000
01000000
10000000
00000000
00100000
10000000
00100000
00000000
,
00010000
00100000
00010000
00000000
00001000
00010000
00001000
00000000
,
00000010
00000001
00000100
00000010
,
00000101
00000010
00001100
00000010
,
00020000
00002000
00000000
00000000
00000000
00000000
00033000
00000000
,
00100000
10000000
00010000
00100000
,
01000000
00000000
00100000
00000000
00010000
10000000
01000000
00000000
,
10000000
00100000
00010000
00001000
,
00000010
00000000
00000001
00000000
00001000
00000100
00000010
00000000
,
00000100
00010000
00000010
00010000
,
00000100
00000000
00010000
00000000
00001000
00100000
00010000
00000000
,
10000000
00100000
00010000
01000000
,
00100000
00100000
01000000
01100000
,
00100000
00010000
00001000
00000100
,
00000001
00000000
00000010
00000000
00000001
00001000
00000010
00000000
,
00000100
00001000
00010000
01000000
,
00100000
00000000
00100000
00000000
00010000
10000000
01000000
00000000
,
00100000
00010000
01000000
00001000
,
00010000
00000000
00000010
00000000
00000100
00000010
00000100
00000000
,
00000001
00000010
00001000
00000100
,
00000010
00000010
00000100
00000110
,
00000001
00000100
00000000
00000100
,
00000000
00000100
00000000
00001000
,
00011000
01000000
00000000
01000000
,
10010000
01000000
00100000
01100000
,
10000000
01000000
10000000
01000000
10000000
00000000
11000000
00000000
,
00010000
01000000
00010000
01000000
00010000
00000000
01010000
00000000
,
00100000
00010000
00100000
00010000
00100000
00010000
00100000
00000000
,
00110000
00011000
00110000
00011000
,
00000020
00000000
00000000
00000000
,
00000200
00000000
00000000
00000330
,
00000001
00000010
00000100
00001000
,
00000010
00000000
00010000
00000000
00100000
01000000
00010000
00000000
,
10000000
00100000
00010000
00100000
,
00001000
00000000
00010000
00000000
00001000
00010000
01000000
00000000
,
00100000
00010000
01000000
00100000
,
00010000
00000000
00000010
00000000
00001000
00000100
00000010
00000000
,
00000001
00001000
00000010
00000100
,
00000010
00000010
00000010
00001001
,
00000100
00000000
00010000
00000000
00001000
01000000
00010000
00000000
,
00100000
00000000
00010000
00000000
10000000
00100000
01000000
00000000
,
00010000
00000000
01000000
00000000
00100000
10000000
01000000
00000000
,
00100000
00000000
01000000
00000000
00100000
00001000
00010000
00000000
,
00001000
00010000
00001000
00010000
00001000
00000000
00010100
00000000
,
00010000
00001000
00010000
00001000
00010000
00000000
00010010
00000000
,
00001000
00000001
00001000
00000001
00001000
00000001
00001000
00000000
,
00001010
00011000
00001010
00011000
,
00220000
00000000
00000000
00000000
,
00000000
00000000
00000000
00330000
,
00000000
00000000
00000000
00000000
;

//---------------dance-double - ----------------
#NOTES:
     dance-double:
     :
     Hard:
     12:
     0.532822,0.592732,0.262531,0.153898,0.095054,412.000000,383.000000,29.000000,17.000000,0.000000,0.000000,0.532822,0.592732,0.262531,0.153898,0.095054,412.000000,383.000000,29.000000,17.000000,0.000000,0.000000:
00000000
00000000
00000000
00000000
,
00000000
00000000
00000000
00000000
,
00000000
00000000
00000000
00000000
,
00001000
00000000
00000001
00000000
00000010
00000000
00000100
00000000
00000010
00000000
00000000
00000010
00000000
00000000
00000010
00000000
,
00000001
00000000
00000000
00000001
00000000
00000000
00000001
00000000
00000100
00000000
00001000
00000000
00010000
00000000
00000000
00000000
,
00100000
00000000
10000000
00000000
00010000
00000000
00100000
00000000
01000000
00000000
00000000
01000000
00000000
00000000
01000000
00000000
,
10000000
00000000
10100000
00000000
00010000
00100000
01000000
00000000
,
00010000
00000000
00001000
00000000
00000010
00000000
00000100
00000000
00000010
00000000
00000000
00000010
00000000
00000000
00000010
00000000
,
00000001
00000000
00000000
00000001
00000000
00000000
00000001
00000000
00001000
00000000
00000001
00000000
00000100
00000000
00000000
00000000
,
00000010
00000000
00010000
00000000
00000100
00000000
00000010
00000000
00001000
00000000
00000000
00001000
00000000
00000000
00001000
00000000
,
00010000
00000000
00000000
00001000
00000000
00100000
00010000
00000000
10000000
00000000
00000000
00100000
00000000
01000000
00100000
00000000
,
10000000
00010000
00100000
01100000
,
00020000
00000000
00000000
00000000
,
20000000
00000000
00000000
00030000
,
02000000
00000000
00000000
30000000
,
00020000
00000000
00000000
03000000
,
00002000
00000000
00000000
00000000
,
00000000
00000000
00000000
00030000
,
00000200
00000000
00000000
00000000
,
00000000
00000000
00003300
00000110
,
00001000
00000000
00000010
00000000
00000100
00000001
00001000
00000000
,
00000100
00000000
00000010
00000000
00000100
00010000
00001000
00100000
,
00010000
00000000
10000000
00000000
00100000
01000000
00010000
00000000
,
00100000
00010000
01000000
00100000
,
10000000
01000000
00100000
01000000
10000000
01000000
00100000
01000000
,
00010000
00001000
00100000
00001000
00010000
00001000
00100000
00001000
,
00010000
00000010
00001000
00000100
00000010
00000001
00000100
00001000
,
00011000
01010000
11000000
10100000
,
00020000
00002000
00000000
00000000
00000000
00000000
00033000
00000000
,
00000100
00000000
00000000
00000100
00000001
00000000
00001000
00000000
00000100
00000000
00000000
00000100
00000010
00000000
00000001
00000000
,
00000100
00000000
00000000
00000100
00000010
00000000
00000100
00000000
00001000
00000000
00010000
00000000
00100000
00000000
01000000
00000000
,
00010000
00000000
00000000
00010000
10000000
00000000
01000000
00000000
00100000
00000000
00000000
00100000
01000000
00000000
10000000
00000000
,
00100000
00000000
00000000
00100000
01000000
00000000
00100000
00000000
00010000
00000000
00001000
00000000
00000100
00000000
00000010
00000000
,
00001000
00000000
00000000
00001000
00000100
00000000
00000010
00000000
00000001
00000000
00000000
00000001
00000100
00000000
00000010
00000000
,
00001000
00000000
00000000
00001000
00000100
00000000
00000010
00000000
00000100
00000000
00010000
00000000
00001000
00000000
01000000
00000000
,
00010000
00000000
00000000
00010000
10000000
00000000
00100000
00000000
01000000
00000000
00000000
01000000
00010000
00000000
10000000
00000000
,
01000000
00100000
00001000
00011000
,
00000010
00000001
00000100
00000010
00000100
00000001
00000010
00001000
,
00010000
01000000
10000000
00010000
01000000
00100000
10000000
01000000
,
00100000
01000000
00010000
00001000
00000100
00000010
00001000
00000010
,
00010000
00001000
00100000
00001000
00010000
00000100
00001000
00000000
,
00000001
00001000
00000010
00000100
00000001
00000100
00001000
00010000
,
00100000
10000000
00010000
00100000
01000000
00010000
01000000
10000000
,
00010000
01000000
10000000
00100000
,
00110000
00011000
00000010
00001001
,
00000020
00000100
00000000
00000100
,
00000000
00000130
00000000
00000110
,
00001000
00000001
00000000
00000101
,
00001000
00010000
01000000
10010000
,
00100000
00010000
00100000
00010000
00100000
00010000
00011000
00000000
,
00000010
00001000
00000010
00001000
00000010
00001000
00011000
00000000
,
01000000
00010000
01000000
00010000
01000000
00010000
01000000
00010000
,
00011000
00001100
00000101
00000110
,
00000002
00000000
00000000
00000000
,
00002000
00000000
00000000
00003003
,
00000010
00000001
00000100
00000001
00001000
00000010
00000100
00000001
,
00000010
00000001
00001000
00000010
00010000
00001000
02000000
00000000
,
03010000
00100000
01000000
10000000
00100000
01000000
00100000
10000000
,
01000000
00100000
00010000
01000000
00001000
00010000
00000020
00000000
,
00001030
00000100
00000010
00000100
00001000
00000001
00000100
00000010
,
00001000
00000100
00010000
00001000
00100000
00010000
02000000
00000000
,
03100000
10000000
00010000
00100000
01000000
00100000
00001000
01000000
,
00010000
00011000
00000010
00001001
,
00000010
00001000
00000100
00001000
00000001
00000010
00001000
00010000
,
00100000
01000000
00010000
00100000
01000000
10000000
00020000
00000000
,
10030000
00100000
01000000
00100000
10000000
01000000
00010000
00001000
,
00000010
00000100
00000010
00000001
00000100
00000010
00000100
00000000
,
00000010
00001000
00000010
00001000
00000010
00001000
00011000
00000000
,
00100000
00010000
00100000
00010000
00100000
00010000
00011000
00000000
,
00000100
00001000
00000100
00001000
00000100
00001000
00000100
00001000
,
00011000
01010000
11000000
01100000
,
20020000
00000000
00000000
00000000
,
00000000
00000000
00000000
30030000
,
00000000
00000000
00000000
00000000
;

//---------------dance-double - ----------------
#NOTES:
     dance-double:
     :
     Challenge:
     16:
     0.715172,0.987887,0.226320,0.153898,0.565800,553.000000,528.000000,25.000000,17.000000,0.000000,0.000000,0.715172,0.987887,0.226320,0.153898,0.565800,553.000000,528.000000,25.000000,17.000000,0.000000,0.000000:
00000000
00000000
00000000
00000000
,
00000000
00000000
00000000
00000000
,
00000000
00000000
00000000
00000000
,
00010000
00000000
10000000
00000000
01000000
00000000
00100000
00000000
01000000
00000000
00000000
01000000
00000000
00100000
00010000
00000000
,
01000000
00000000
00000000
01000000
00000000
00001000
00010000
00000000
00000010
00000000
00001000
00000000
00000100
00000010
00000100
00000000
,
00000010
00000000
00000001
00000000
00000100
00000000
00000010
00000000
00000100
00000000
00000000
00000100
00000000
00000010
00000100
00000000
,
00000110
00000000
00000000
00000000
00011000
00000000
00000000
00000000
01100000
00000000
10000000
00000000
00010000
01000000
00010000
00000000
,
00100000
00000000
00010000
00000000
01000000
00000000
00010000
00000000
00100000
00000000
00000000
00100000
00000000
00001000
00010000
00000000
,
00000100
00000000
00000000
00000100
00000000
00010000
00001000
00000000
00100000
00000000
00000000
00100000
00000000
01000000
00100000
00000000
,
01000000
00000000
00010000
00000000
00001000
00000000
00000010
00000000
00000100
00000000
00000000
00000100
00000000
00000010
00000001
00000000
,
00001000
00000010
00000000
00000100
00000000
00000010
00001000
00000000
00000001
00000010
00000000
00000100
00000000
00010000
00001000
00000000
,
00011000
00000000
00110000
00000000
10000000
00010000
01100000
00000000
,
20010000
00000000
00000000
00000000
,
02000000
00000000
00000000
30000000
,
00020000
00000000
00000000
03000000
,
00002000
00000000
00000000
00030000
,
00000200
00000000
00000000
00000000
,
00000000
00000000
00000000
00003000
,
00000002
00000000
00000000
00000000
,
00000000
00000000
00000303
00001001
,
00000010
00000000
00001000
00000000
00000100
00000000
00000010
00000100
00001000
00000100
00000010
00000000
00000001
00000000
00000100
00000000
,
00001000
00000000
00010000
00000000
00100000
00000000
01000000
00000000
00100000
10000000
00100000
10000000
00100000
00000000
01000000
00000000
,
00010000
00000000
10000000
00000000
01000000
00000000
00100000
00001000
00010000
00001000
00100000
00000000
01000000
00000000
00100000
00000000
,
00010000
00000000
01000000
00000000
00100000
00000000
00010000
00000000
00001000
00010000
00001000
00010000
00001000
00000000
00000100
00000000
,
00000001
00000010
00000100
00001000
00000010
00010000
00001000
00100000
,
00010000
10000000
00100000
01000000
00100000
10000000
01000000
00010000
,
00001000
00010000
00001000
00010000
00001000
00000100
00001000
00000100
00000001
00001000
00000001
00001000
00000100
00000010
00000100
00000010
,
00000001
00001100
00000101
00001010
,
00020000
00002000
00000000
00000000
00000000
00000000
00033000
00000000
,
00100000
00000000
00010000
00100000
00010000
00000000
10000000
00000000
00100000
00000000
10000000
00100000
10000000
00000000
00010000
00000000
,
00100000
00000000
01000000
00100000
01000000
00000000
00010000
00000000
00001000
00010000
00001000
00000000
00000010
00000100
00000010
00000000
,
00000001
00000000
00001000
00000100
00001000
00000000
00000010
00000000
00000100
00000000
00000001
00000010
00000001
00000000
00000100
00000000
,
00000010
00000000
00010000
00001000
00010000
00000000
00001000
00000000
00100000
00010000
00100000
00000000
01000000
10000000
01000000
00000000
,
10000000
00000000
00010000
01000000
00100000
00000000
01000000
00000000
00010000
00000000
10000000
01000000
00100000
00000000
01000000
00000000
,
00100000
00000000
00001000
00010000
00001000
00000000
00010000
00000000
00000010
00001000
00000100
00000000
00000010
00000001
00000100
00000000
,
00000010
00000000
00000100
00000001
00001000
00000000
00000100
00000000
00000010
00000000
00000100
00001000
00000001
00000000
00000100
00000000
,
00001000
00000000
00010000
00000000
00100000
10000000
10010000
00000000
,
00100000
00000000
10000000
00100000
10000000
00000000
00010000
00000000
00100000
00000000
00010000
00100000
00010000
00000000
01000000
00000000
,
00001000
00000000
00010000
00001000
00010000
00000000
00000100
00000000
00000010
00000100
00000010
00000000
00000001
00001000
00000001
00000000
,
00000100
00000000
00000010
00001000
00000010
00000000
00000100
00000000
00000001
00000000
00001000
00000100
00001000
00000000
00000100
00000000
,
00010000
00000000
00001000
00010000
00001000
00000000
00100000
00000000
00010000
01000000
00010000
00000000
10000000
00100000
10000000
00000000
,
01000000
00000000
00100000
00010000
01000000
00000000
00100000
00000000
01000000
00000000
00010000
10000000
01000000
00000000
00010000
00000000
,
00001000
00000000
00000010
00000100
00001000
00000000
00000010
00000000
00000100
00000001
00000100
00000000
00000010
00001000
00000010
00000000
,
00000100
00000000
00000001
00001000
00000100
00000000
00000010
00000000
00001000
00000000
00010000
00001000
00010000
00000000
01000000
00000000
,
10000000
00000000
00010000
00000000
00100000
00010000
10010000
00000000
,
00200000
01000000
00000000
01000000
,
00000000
01300000
00000000
01100000
,
00010000
00001000
00000000
00011000
,
00000100
00000001
00000010
00001100
,
00010000
00000010
00001000
00000010
00010000
00000010
00001000
00000010
00010000
00000010
00001000
00000010
00010000
00000000
00000000
00000000
,
00001000
00100000
00010000
00100000
00001000
00100000
00010000
00100000
00001000
00100000
00010000
00100000
00001000
00000000
00000000
00000000
,
00010000
00000100
00001000
00000100
00010000
00000100
00001000
00000100
00010000
00000100
00001000
00000100
00010000
00000100
00001000
00000100
,
00010000
00101000
01010000
01100000
,
00010000
00000000
10000000
00000000
01000000
00000000
00100000
01000000
00100000
01000000
00100000
00000000
00010000
00000000
10000000
00000000
,
00200000
02000000
00000000
00000000
00000000
00000000
03300000
00000000
,
00100000
00000000
00010000
00000000
00001000
00000000
00000100
00000000
00000001
00000000
00001000
00000100
00001000
00000000
00000100
00000000
,
00000010
00000001
00000100
00000000
00001000
00000000
00010000
00000000
00100000
00000000
10000000
00000000
00020000
00000000
00000000
00000000
,
10030000
00000000
00100000
00000000
01000000
00000000
00010000
00000000
00100000
00000000
00001000
00010000
00001000
00000000
01000000
00000000
,
00100000
10000000
00010000
00000000
00100000
00000000
01000000
00000000
00010000
00000000
00001000
00000000
00020000
00000000
00000000
00000000
,
00031000
00000000
00000010
00000000
00000001
00000000
00001000
00000000
00000010
00000000
00000100
00000001
00000100
00000000
00000010
00000000
,
00010000
00000100
00000010
00000000
00001000
00000000
00010000
00000000
01000000
00000000
10000000
00000000
00200000
00000000
00000000
00000000
,
00310000
00000000
00100000
00000000
10000000
00000000
01000000
00000000
00100000
00000000
00010000
10000000
00010000
00000000
01000000
00000000
,
00001000
00000000
00011000
00000000
00000010
00000100
00001001
00000000
,
00000010
00000000
00000001
00000000
00000100
00000000
00000010
00000000
00000100
00000000
00010000
00001000
00010000
00000000
00001000
00000000
,
00010000
01000000
00100000
00000000
10000000
00000000
01000000
00000000
00100000
00000000
00010000
00000000
02000000
00000000
00000000
00000000
,
03100000
00000000
00010000
00000000
00001000
00000000
00100000
00000000
00010000
00000000
00001000
00000100
00001000
00000000
00000100
00000000
,
00000010
00000001
00000100
00000000
00000010
00000000
00000100
00000000
00001000
00000000
00010000
00000000
00010000
00000000
00000000
00000000
,
00001000
00100000
00010000
00100000
00001000
00100000
00010000
00100000
00001000
00100000
00010000
00100000
00001000
00000000
00000000
00000000
,
00010000
00000010
00001000
00000010
00010000
00000010
00001000
00000010
00010000
00000010
00001000
00000010
00010000
00000000
00000000
00000000
,
00001000
01000000
00010000
01000000
00001000
01000000
00010000
01000000
00001000
01000000
00010000
01000000
00001000
01000000
00010000
01000000
,
00001000
00010010
00001100
00000110
,
00002002
00000000
00000000
00000000
,
00000000
00000000
00000000
00003003
,
00000000
00000000
00000000
00000000
;

//---------------dance-single - ----------------
#NOTES:
     dance-single:
     :
     Challenge:
     16:
     0.848377,0.928818,0.162951,0.172003,0.516010,656.000000,638.000000,18.000000,19.000000,0.000000,0.000000,0.848377,0.928818,0.162951,0.172003,0.516010,656.000000,638.000000,18.000000,19.000000,0.000000,0.000000:
// measure 0
0000
0000
0000
0000
,  // measure 1
0000
0000
0000
0000
,  // measure 2
0000
0000
0000
0000
,  // measure 3
0001
0000
0010
0000
0100
0000
1000
0000
0001
0100
0000
0001
0100
0000
0010
1000
,  // measure 4
0000
0010
1000
0000
0100
0000
0010
0000
0001
0000
0010
1000
0010
0000
0001
0000
,  // measure 5
0010
0000
0010
0000
0100
0000
0001
0000
0100
1000
0000
0001
1000
0000
0010
1000
,  // measure 6
0000
0001
1000
0000
0100
1000
0100
1000
0001
0000
0001
0000
0010
0000
0100
0000
,  // measure 7
1000
0000
0010
0000
0001
0000
0010
0000
1010
0000
0000
1100
0000
0000
0110
0000
,  // measure 8
0000
0011
0000
0000
0101
0000
0000
0000
0001
0000
1000
0100
1000
0000
0001
0000
,  // measure 9
0010
0001
0010
0000
0100
0000
1000
0000
1010
0000
0000
0100
0010
0000
1000
0010
,  // measure 10
0100
0001
0010
0001
0100
0001
0010
0001
0100
0000
0100
0000
1000
0001
1000
0000
,  // measure 11
0010
0000
0010
0000
0001
1000
0001
0000
0100
0000
0100
0000
1000
0001
1000
0000
,  // measure 12
0100
0000
0100
0000
0001
0010
0001
0000
0100
0000
0100
0000
1000
0010
1000
0000
,  // measure 13
0001
0000
0001
0000
0010
1000
0010
0000
0001
0000
0001
0000
0100
1000
0100
0000
,  // measure 14
0001
0000
1000
0100
0001
0000
0001
0100
1000
0000
0010
0000
0100
1000
0100
0010
,  // measure 15
0001
0010
0100
0001
1010
0001
0010
1001
,  // measure 16
0100
0000
0010
1000
0100
0000
0001
0000
0100
0000
1010
0000
0100
0000
1000
0001
,  // measure 17
0010
0000
0001
0000
0100
0000
0010
0000
1000
0100
1000
0001
1000
0100
1000
0001
,  // measure 18
2000
0000
0000
0000
,  // measure 19
3010
0000
0110
0000
0001
0010
1001
0000
,  // measure 20
0001
1000
0001
1000
0010
0100
0010
0100
,  // measure 21
0001
0000
1000
0000
0010
0000
0001
0010
1000
0000
0001
0000
0100
0000
0100
0000
,  // measure 22
0010
0000
1000
0000
0100
0000
1000
0001
0100
0000
0010
0000
0100
0000
0001
0000
,  // measure 23
1000
0000
1001
0000
1000
0000
1010
0000
0010
0100
0001
0000
1000
0001
0100
0000
,  // measure 24
0010
1000
0001
0010
0001
0100
1000
0100
,  // measure 25
0001
0000
0010
0000
0001
0000
1000
0100
1000
0100
1000
0000
0010
0000
1001
0000
,  // measure 26
0010
1000
0010
0000
1000
0100
1000
0000
0001
0010
0001
0010
0100
0010
0100
1000
,  // measure 27
0100
1000
0001
0000
0010
0000
0100
0000
0010
0100
0010
0100
0002
0000
0000
0000
,  // measure 28
0103
1000
0001
0000
1000
0010
1000
0000
,  // measure 29
0010
1000
0100
0010
0001
0100
0010
0000
,  // measure 30
1000
0100
0001
0100
1000
0010
0001
0010
,  // measure 31
1000
0100
0010
1000
0010
0001
0100
0000
,  // measure 32
0100
0001
0010
0000
0100
1000
0010
0000
,  // measure 33
0100
0001
0100
0000
0001
1000
0001
0000
,  // measure 34
0001
0100
1000
0100
0001
0000
0001
0010
,  // measure 35
1000
0010
0001
0100
0010
0100
0001
1000
,  // measure 36
2001
0010
0100
0010
,  // measure 37
3200
0001
0010
0001
,  // measure 38
0320
0000
0001
0000
0100
0100
2030
0000
,  // measure 39
0001
0001
3200
0000
0010
0010
2300
0000
,  // measure 40
0001
0001
3200
0000
0010
0010
2300
0000
,  // measure 41
0001
0001
3020
0000
0100
0100
0032
0000
,  // measure 42
0100
0100
2003
0000
0010
0010
3002
0000
,  // measure 43
0010
0010
2003
0000
0001
0001
3001
0000
,  // measure 44
1000
0001
1000
0001
1000
0000
0100
0000
0010
0000
0001
0000
0010
0000
0100
0000
,  // measure 45
1000
0100
0001
1000
0010
0001
2000
0000
,  // measure 46
3010
0100
0001
0000
1000
0000
0001
0000
0100
0010
0100
0000
0001
0000
1000
0000
,  // measure 47
0001
0000
0010
0000
0100
0000
1000
0001
0020
0000
0000
0000
0130
0001
0100
0000
,  // measure 48
1000
0000
0001
0000
1000
0010
1000
0010
1000
0000
0100
0000
0001
0000
0100
0000
,  // measure 49
1000
0001
1000
0001
1000
0000
0001
0000
0010
0000
1000
0000
0010
0000
0001
0000
,  // measure 50
0100
0010
0100
0010
0100
0000
0001
0000
1000
0000
0100
0000
0010
0001
0010
0001
,  // measure 51
0020
0000
0000
0000
0031
0000
0100
0000
0020
0000
0000
0000
1030
0100
0010
0100
,  // measure 52
1000
0000
0100
0000
0001
0000
0100
0000
1000
0010
0100
0010
1000
0000
0001
0000
,  // measure 53
0100
0000
0010
0000
0100
0000
0001
0000
0010
0100
1000
0100
0010
0000
0001
0000
,  // measure 54
0100
0000
0010
0000
1000
0010
1000
0010
0100
0000
0001
0000
0010
0000
0100
0000
,  // measure 55
1000
0000
0001
0000
0100
0000
0010
0100
0001
0000
1000
0000
0001
0000
0100
0000
,  // measure 56
0010
1000
0100
0010
0001
0010
1000
0010
,  // measure 57
0001
0010
0100
1000
0100
0010
0001
0000
,  // measure 58
1000
0100
0010
0001
0100
0010
1000
0100
0010
0001
0100
0010
1000
0100
0010
0001
,  // measure 59
0100
0000
0000
0000
1001
0000
0000
0000
0011
0000
0001
0000
0010
0100
1000
0100
,  // measure 60
1000
0000
0001
0000
0010
0000
0100
0000
1000
0000
0010
0100
0010
0000
1000
0000
,  // measure 61
0100
0000
0001
0000
0100
1000
0001
0000
0010
0000
1000
0000
0010
0000
0001
0000
,  // measure 62
0010
0000
0100
0001
0100
0000
0010
0000
0100
0000
1000
0100
0010
0000
0001
0000
,  // measure 63
1000
0000
0010
0000
0100
0001
1000
0000
0100
0000
0010
0000
1000
0000
0010
0000
,  // measure 64
0001
0000
0010
0001
0010
0000
0100
0000
1000
0000
0010
0100
0001
0000
0010
0000
,  // measure 65
0100
0000
1000
0000
0001
0000
0010
0000
0001
0100
0001
0000
1000
0100
1000
0000
,  // measure 66
0001
0000
0010
0001
0000
0100
0010
0000
1000
0000
0100
0000
0001
0000
0100
0000
,  // measure 67
1000
0000
0100
0000
0010
0000
0001
0000
0100
0000
0010
1000
0001
1000
0001
0100
,  // measure 68
0010
0000
0100
0000
1000
0000
0100
0000
0001
0000
0100
0010
0001
0000
0001
0000
,  // measure 69
0010
0000
1000
0000
0001
1000
0001
0000
0010
0000
0100
0000
0001
0000
0100
0000
,  // measure 70
0110
0000
0000
0010
0001
0000
0100
0000
0001
0000
0000
0001
1000
0000
0010
0000
,  // measure 71
0100
0000
0001
0000
1000
0100
1000
0000
0010
0000
0100
0000
0001
0000
0010
0000
,  // measure 72
0001
0000
1000
0000
0100
0000
1000
0000
0001
0000
0010
0001
0010
0000
0100
0000
,  // measure 73
0001
0100
1000
0100
0010
0001
0010
0001
,  // measure 74
1000
0100
0010
0001
1000
0001
0010
0100
,  // measure 75
1000
0100
0010
0100
1000
0100
0010
0100
1000
0100
0010
0100
1000
0100
0010
0100
,  // measure 76
1000
0000
0000
0000
;
