#TITLE:I WANT YOUR LOVE (Darwin Remix);
#SUBTITLE:;
#ARTIST:GAV;
#TITLETRANSLIT:;
#SUBTITLETRANSLIT:;
#ARTISTTRANSLIT:;
#GENRE:;
#CREDIT:;
#BANNER:I WANT YOUR LOVE (Darwin remix).png;
#BACKGROUND:I WANT YOUR LOVE (Darwin remix)-bg.png;
#LYRICSPATH:;
#CDTITLE:;
#MUSIC:I WANT YOUR LOVE (Darwin remix).ogg;
#OFFSET:1.341000;
#SAMPLESTART:21.253000;
#SAMPLELENGTH:15.000000;
#LASTBEATHINT:0.806998;
#SELECTABLE:YES;
#DISPLAYBPM:170.000000;
#BPMS:0.000000=170.000000
;
#STOPS:
;
#BGCHANGES:;
#KEYSOUNDS:;
#ATTACKS:;

//---------------dance-single - ----------------
#NOTES:
     dance-single:
     :
     Medium:
     7:
     0.348826,0.426303,0.080720,0.262340,0.000000,242.000000,234.000000,8.000000,26.000000,0.000000,0.000000,0.348826,0.426303,0.080720,0.262340,0.000000,242.000000,234.000000,8.000000,26.000000,0.000000,0.000000:
// measure 0
0000
0000
0000
0000
,  // measure 1
0000
0000
0000
0000
,  // measure 2
0000
0000
0000
0000
,  // measure 3
0000
0000
0000
0000
,  // measure 4
0000
0000
0000
0000
,  // measure 5
1000
0000
0000
0000
,  // measure 6
0001
0000
1000
0000
,  // measure 7
0010
0000
0100
0000
,  // measure 8
0010
1000
0010
0000
,  // measure 9
0100
0001
0010
0001
,  // measure 10
1000
0100
1000
0010
,  // measure 11
0100
0000
0001
0010
,  // measure 12
0001
1000
0100
1000
,  // measure 13
0010
0000
0100
0000
,  // measure 14
0001
0010
0001
0100
,  // measure 15
0020
0000
0130
0000
,  // measure 16
2000
0000
3200
0000
,  // measure 17
0310
0001
0010
0000
,  // measure 18
0001
0100
0010
0100
,  // measure 19
1001
0001
0010
0100
,  // measure 20
1000
0100
0010
0001
,  // measure 21
1001
1000
0100
0010
,  // measure 22
0001
0010
1000
0010
,  // measure 23
0001
0100
1000
0100
,  // measure 24
0001
1000
0001
0000
1000
0000
0010
0000
,  // measure 25
0110
0000
0100
0000
0010
1000
0010
0000
,  // measure 26
0100
0001
0020
0230
,  // measure 27
2300
0000
3010
0000
0100
0001
0100
0000
,  // measure 28
0010
2000
3200
0320
,  // measure 29
0031
0000
0100
0000
0010
0100
0010
0000
,  // measure 30
2000
3200
0302
0203
,  // measure 31
1300
0000
0010
0000
0100
0010
0100
0000
,  // measure 32
0010
1000
0100
0010
,  // measure 33
0002
0103
1000
0100
,  // measure 34
0001
0010
1000
0010
,  // measure 35
0001
1000
0001
1000
,  // measure 36
0100
0010
0001
0010
,  // measure 37
0100
0000
1000
0000
0001
1000
0001
0000
,  // measure 38
1000
0010
0100
0010
,  // measure 39
0100
0000
0010
0000
0100
0010
0100
0000
,  // measure 40
0001
0010
0001
1000
,  // measure 41
0200
0320
0032
0103
,  // measure 42
0010
1000
0100
0010
,  // measure 43
0001
0010
0100
1000
,  // measure 44
1001
0001
0101
0100
,  // measure 45
0110
0000
1000
0000
0100
1000
0100
0000
,  // measure 46
0000
0000
0000
0000
,  // measure 47
0001
0000
0010
0000
0001
0010
0001
0000
,  // measure 48
0010
0100
1000
0100
,  // measure 49
0020
0001
0001
0001
,  // measure 50
0032
1000
1000
1000
,  // measure 51
2003
0100
0100
0100
,  // measure 52
3020
0100
0100
0100
,  // measure 53
0230
0001
0001
0001
,  // measure 54
0302
1000
1000
1000
,  // measure 55
2003
0010
0010
0010
,  // measure 56
3020
0000
0230
0000
,  // measure 57
0301
0000
1000
0000
0001
1000
0001
0000
,  // measure 58
1000
0000
0100
0000
1000
0100
1000
0000
,  // measure 59
0100
0000
0010
0000
0100
0010
0100
0000
,  // measure 60
0010
0000
0001
0000
0010
0001
0010
0000
,  // measure 61
0001
0000
1000
0000
0100
1000
0100
0000
,  // measure 62
0100
0000
0010
0000
0100
0010
0100
0000
,  // measure 63
0010
1000
0100
0010
,  // measure 64
1001
0001
0100
0010
,  // measure 65
0110
0000
0000
0000
;

//---------------dance-single - ----------------
#NOTES:
     dance-single:
     :
     Easy:
     3:
     0.170089,0.262340,0.010090,0.443960,0.000000,118.000000,117.000000,1.000000,44.000000,0.000000,0.000000,0.170089,0.262340,0.010090,0.443960,0.000000,118.000000,117.000000,1.000000,44.000000,0.000000,0.000000:
// measure 0
0000
0000
0000
0000
,  // measure 1
0000
0000
0000
0000
,  // measure 2
0000
0000
0000
0000
,  // measure 3
0000
0000
0000
0000
,  // measure 4
0000
0000
0000
0000
,  // measure 5
1000
0000
1000
0000
,  // measure 6
0002
0000
0103
0000
,  // measure 7
0200
0000
0310
0000
,  // measure 8
0020
0000
1030
0000
,  // measure 9
1000
0000
0001
0000
,  // measure 10
0100
0000
0001
0000
,  // measure 11
0010
0000
0001
0000
,  // measure 12
1000
0000
0100
0000
,  // measure 13
1000
0000
0000
0000
,  // measure 14
0010
0000
0000
0000
,  // measure 15
0200
0000
0000
0000
,  // measure 16
0320
0000
0000
0000
,  // measure 17
1030
0000
1000
0000
,  // measure 18
0001
0000
0001
0000
,  // measure 19
0100
0010
0100
0000
,  // measure 20
0010
0000
1000
0000
,  // measure 21
0001
0100
0001
0000
,  // measure 22
1000
0000
0010
0000
,  // measure 23
0100
0000
0001
0000
,  // measure 24
0020
0000
0230
0000
,  // measure 25
1300
0000
0000
0000
,  // measure 26
0002
0000
2003
0000
,  // measure 27
3002
0000
0103
0000
,  // measure 28
0020
0000
0230
0000
,  // measure 29
0320
0000
1030
0000
,  // measure 30
0200
0000
0320
0000
,  // measure 31
0032
0000
0103
0000
,  // measure 32
0020
0000
0000
0000
,  // measure 33
0230
0000
0000
0000
,  // measure 34
0301
0000
1000
0000
,  // measure 35
0001
0000
0000
0000
,  // measure 36
0200
0000
0320
0000
,  // measure 37
2030
0000
0000
0000
,  // measure 38
3001
0000
0100
0000
,  // measure 39
0020
0000
0130
0000
,  // measure 40
0200
0000
0301
0000
,  // measure 41
0001
0000
1000
0100
,  // measure 42
1000
0000
0010
0000
,  // measure 43
0100
0001
0100
0000
,  // measure 44
0001
0000
0010
0000
,  // measure 45
0200
0000
1300
0000
,  // measure 46
0001
0000
1000
0000
,  // measure 47
0002
0000
0103
0000
,  // measure 48
0100
0000
0010
0000
,  // measure 49
0020
0000
0000
0000
,  // measure 50
2030
0000
0001
0000
,  // measure 51
3002
0000
0100
0000
,  // measure 52
0203
0000
0010
0000
,  // measure 53
0320
0000
1000
0000
,  // measure 54
1030
0000
0100
0000
,  // measure 55
0010
0000
0001
0000
,  // measure 56
0200
0000
0320
0000
,  // measure 57
2030
0000
3200
0000
,  // measure 58
0320
0000
0032
0000
,  // measure 59
0023
0000
0230
0000
,  // measure 60
2300
0000
3002
0000
,  // measure 61
2003
0000
3002
0000
,  // measure 62
0203
0000
0320
0000
,  // measure 63
1030
0100
1000
0000
,  // measure 64
0001
0100
0001
0000
,  // measure 65
0110
0000
0000
0000
;

//---------------dance-single - ----------------
#NOTES:
     dance-single:
     :
     Beginner:
     2:
     0.087927,0.098378,0.000000,0.343060,0.000000,61.000000,61.000000,0.000000,34.000000,0.000000,0.000000,0.087927,0.098378,0.000000,0.343060,0.000000,61.000000,61.000000,0.000000,34.000000,0.000000,0.000000:
// measure 0
0000
0000
0000
0000
,  // measure 1
0000
0000
0000
0000
,  // measure 2
0000
0000
0000
0000
,  // measure 3
0000
0000
0000
0000
,  // measure 4
0000
0000
0000
0000
,  // measure 5
1000
0000
0000
0000
,  // measure 6
1000
0000
0000
0000
,  // measure 7
0001
0000
0000
0000
,  // measure 8
0002
0000
0003
0000
,  // measure 9
0200
0000
0300
0000
,  // measure 10
0020
0000
0030
0000
,  // measure 11
2000
0000
3000
0000
,  // measure 12
0002
0000
0003
0000
,  // measure 13
0020
0000
0030
0000
,  // measure 14
0200
0000
0300
0000
,  // measure 15
2000
0000
3000
0000
,  // measure 16
0001
0000
0000
0000
,  // measure 17
0001
0000
0000
0000
,  // measure 18
2000
0000
3000
0000
,  // measure 19
0020
0000
0030
0000
,  // measure 20
0200
0000
0300
0000
,  // measure 21
0002
0000
0003
0000
,  // measure 22
2000
0000
3000
0000
,  // measure 23
0001
0000
0000
0000
,  // measure 24
1000
0000
0000
0000
,  // measure 25
0020
0030
0000
0000
,  // measure 26
0200
0300
0000
0000
,  // measure 27
0002
0003
0000
0000
,  // measure 28
2000
3000
0000
0000
,  // measure 29
0020
0030
0000
0000
,  // measure 30
0200
0300
0000
0000
,  // measure 31
0002
0003
0000
0000
,  // measure 32
2000
0000
0000
0000
,  // measure 33
3001
0000
0000
0000
,  // measure 34
0001
0000
0000
0000
,  // measure 35
0100
0000
0000
0000
,  // measure 36
0100
0000
0000
0000
,  // measure 37
1000
0000
0000
0000
,  // measure 38
1000
0000
0000
0000
,  // measure 39
0100
0000
0000
0000
,  // measure 40
0200
0000
0000
0000
,  // measure 41
0301
0000
0000
0000
,  // measure 42
0002
0000
0003
0000
,  // measure 43
2000
0000
3000
0000
,  // measure 44
0020
0000
0030
0000
,  // measure 45
0200
0000
0300
0000
,  // measure 46
0001
0000
0000
0000
,  // measure 47
0001
0000
0000
0000
,  // measure 48
1000
0000
0000
0000
,  // measure 49
1000
0000
0000
0000
,  // measure 50
0020
0000
0000
0000
,  // measure 51
0230
0000
0000
0000
,  // measure 52
0302
0000
0000
0000
,  // measure 53
2003
0000
0000
0000
,  // measure 54
3200
0000
0000
0000
,  // measure 55
0302
0000
0000
0000
,  // measure 56
0203
0000
0000
0000
,  // measure 57
2300
0000
0000
0000
,  // measure 58
3001
0000
0000
0000
,  // measure 59
0001
0000
0000
0000
,  // measure 60
0100
0000
0000
0000
,  // measure 61
0100
0000
0000
0000
,  // measure 62
0010
0000
0000
0000
,  // measure 63
0010
0000
0000
0000
,  // measure 64
1000
0000
0000
0000
,  // measure 65
1000
0000
0000
0000
;

//---------------dance-single - ----------------
#NOTES:
     dance-single:
     :
     Challenge:
     13:
     0.652967,0.760029,0.343060,0.141260,0.428825,453.000000,419.000000,34.000000,14.000000,0.000000,0.000000,0.652967,0.760029,0.343060,0.141260,0.428825,453.000000,419.000000,34.000000,14.000000,0.000000,0.000000:
// measure 0
0000
0000
0000
0000
,  // measure 1
0000
0000
0000
0000
,  // measure 2
0000
0000
0000
0000
,  // measure 3
0000
0000
0000
0000
,  // measure 4
0000
0000
0000
0000
,  // measure 5
0002
0000
0000
0000
,  // measure 6
2003
0000
0100
0100
,  // measure 7
3002
0100
1000
0103
,  // measure 8
0021
0000
0001
0100
,  // measure 9
0130
1000
0100
0000
0001
0000
0100
0000
,  // measure 10
0010
0001
0010
0000
0100
1000
0001
0000
,  // measure 11
0100
0000
0010
0000
0001
0000
1000
0001
,  // measure 12
0100
1010
1100
0110
,  // measure 13
0011
0000
0001
0000
0100
0010
0100
0000
,  // measure 14
0010
1000
0100
0010
,  // measure 15
0001
1000
0001
1000
0100
0010
0100
0010
,  // measure 16
0001
0000
0001
0000
0100
0000
0100
0000
0010
1000
0010
1000
0001
0100
0001
0100
,  // measure 17
0010
0000
1010
0000
0001
0100
1000
0100
,  // measure 18
0001
1000
0010
0100
0010
1000
0001
0100
,  // measure 19
0001
0000
1001
0000
1000
0010
0001
0010
,  // measure 20
1000
0100
0010
1000
0010
0001
0100
0010
,  // measure 21
0001
0000
0011
0000
0010
1000
0100
0010
,  // measure 22
0001
1000
0100
1000
0001
0010
0001
0000
,  // measure 23
1100
0000
0011
0000
0001
0100
0001
1000
,  // measure 24
0010
0000
0100
0000
0010
0000
1000
0000
0100
0000
0010
0001
0010
0000
0001
0000
,  // measure 25
1001
0000
1010
0000
1000
0100
0001
0100
,  // measure 26
1000
0010
0001
0010
1000
0100
0010
0001
,  // measure 27
0101
0000
0110
0000
1000
0001
1000
0010
,  // measure 28
0100
0001
0010
1000
0001
0100
1000
0010
,  // measure 29
0001
0000
0011
0000
1010
1000
0100
0010
,  // measure 30
0001
0100
0001
1000
0010
0100
0001
0100
,  // measure 31
0010
0000
0110
0000
0001
0010
0100
0010
,  // measure 32
0001
0000
1000
0000
0001
0000
1000
0000
0010
0100
0010
0100
0010
0100
0010
0100
,  // measure 33
0001
0000
1001
0000
0001
0100
1000
0100
,  // measure 34
0001
0001
0010
0010
0100
0100
1000
1000
,  // measure 35
0120
0000
0230
0000
0310
1000
0010
0100
,  // measure 36
0001
0010
0001
1000
0010
0100
0010
1000
,  // measure 37
0002
0000
0203
0000
0301
0010
1000
0010
,  // measure 38
0100
1000
0001
1000
0010
1000
0001
0010
,  // measure 39
0100
0000
0101
0000
0100
1000
0001
0100
,  // measure 40
0010
0000
1000
0000
0100
0000
0010
0000
0001
0000
0000
0100
0001
0000
1000
0000
,  // measure 41
1001
0000
0110
0000
0100
0001
1000
1000
,  // measure 42
0010
0100
0001
0001
0100
0010
0001
0010
,  // measure 43
1000
0000
0101
0000
0100
0010
1000
0010
,  // measure 44
0100
0001
0010
0001
0100
0010
1000
0100
,  // measure 45
1000
0000
0101
0000
0010
0001
0010
0100
,  // measure 46
0000
1001
0000
1100
0000
0100
1000
0001
,  // measure 47
0022
0000
0000
0033
2002
0000
0000
3003
,  // measure 48
1000
1000
0100
0100
0010
0010
0001
0001
,  // measure 49
0100
0000
0000
0010
0100
0000
0001
0000
1000
0000
0000
1000
0001
0000
0100
0000
,  // measure 50
0010
0000
0100
0010
0000
1000
0000
0100
1000
0000
0100
0010
0000
0001
0000
0000
,  // measure 51
0011
0000
0000
0001
0000
0010
0000
0001
0100
0000
0000
0100
0000
0010
0000
0000
,  // measure 52
1000
0000
0000
0010
0000
0100
0000
0001
0010
0000
0001
0010
0000
0001
0000
0100
,  // measure 53
0010
0000
0000
1000
0000
1000
0000
0001
0100
0000
0000
0001
0000
0001
0000
0100
,  // measure 54
0010
0000
0000
1000
0000
1001
0000
0001
0100
0000
0100
0010
0000
1000
0000
0000
,  // measure 55
1100
0000
0000
0100
0010
0100
0010
0100
0000
0010
0000
0001
1000
0001
1000
0000
,  // measure 56
0010
0000
0000
0100
0000
0001
0000
0100
0010
0000
0000
0100
0000
1000
0000
0100
,  // measure 57
0010
0000
0000
0000
0110
0000
0000
0000
1000
0000
0000
0001
0000
0101
0000
0000
,  // measure 58
0010
0000
0000
0010
0100
0000
0001
0000
1000
0000
0000
0010
0000
0100
0000
0000
,  // measure 59
0001
0000
0000
0100
0000
0001
0000
0100
0001
0000
0000
0000
1000
0000
0010
0000
,  // measure 60
0100
0000
0000
0010
0000
1000
0000
0000
0100
0010
0100
0010
0001
1000
0001
1000
,  // measure 61
0010
0000
0000
0000
0100
0001
0000
0001
1000
0000
0001
0000
0100
0001
0000
0001
,  // measure 62
0010
0000
0010
1000
0000
1000
0000
0100
0010
0000
0000
0001
0000
0101
0000
0100
,  // measure 63
0010
0000
1000
0000
0001
0000
0100
0000
0001
1000
0001
1000
0010
0100
0010
0100
,  // measure 64
0001
0000
0000
0001
0000
1000
0000
0010
0100
0000
0010
0100
0000
0001
0000
2000
,  // measure 65
0002
0000
3003
0000
;

//---------------dance-single - ----------------
#NOTES:
     dance-single:
     :
     Hard:
     11:
     0.549184,0.561761,0.282520,0.474230,0.343060,381.000000,353.000000,28.000000,47.000000,0.000000,0.000000,0.549184,0.561761,0.282520,0.474230,0.343060,381.000000,353.000000,28.000000,47.000000,0.000000,0.000000:
// measure 0
0000
0000
0000
0000
,  // measure 1
0000
0000
0000
0000
,  // measure 2
0000
0000
0000
0000
,  // measure 3
0000
0000
0000
0000
,  // measure 4
0000
0000
0000
0000
,  // measure 5
2000
0000
0000
0000
,  // measure 6
3002
0000
0100
0100
,  // measure 7
2003
0100
0100
3001
,  // measure 8
0021
0000
0001
0100
,  // measure 9
1030
0100
0001
0000
0201
0000
2300
0000
,  // measure 10
3001
1000
0001
0000
0100
0010
2000
0000
,  // measure 11
3100
0000
0010
0000
0001
0000
1000
0001
,  // measure 12
0200
0320
2030
3002
,  // measure 13
2003
0000
3001
0000
0100
0010
0100
0000
,  // measure 14
0020
2030
3200
0320
,  // measure 15
0032
0000
1003
0000
0010
0100
0010
0001
,  // measure 16
0010
0010
0100
0100
0010
0010
1000
1000
,  // measure 17
0001
0000
1010
0000
0001
0001
0010
0100
,  // measure 18
1000
1000
0001
0100
0001
0010
0001
0100
,  // measure 19
0001
0000
1001
0000
1000
0100
0001
0100
,  // measure 20
1000
0100
0010
0001
0010
0100
1000
0010
,  // measure 21
0002
0000
0023
0000
1030
0001
0100
0001
,  // measure 22
0010
0100
1000
0001
0010
0001
0100
0010
,  // measure 23
0210
0000
0302
0000
1003
0100
0001
1000
,  // measure 24
0010
0001
1000
0100
0010
0001
0100
0010
,  // measure 25
0110
0000
1001
0000
1000
0100
1000
0000
,  // measure 26
0001
0010
0001
0100
0010
0000
1000
0001
,  // measure 27
0101
0000
0110
0000
1000
0001
1000
0010
,  // measure 28
0000
0010
0100
0001
0000
0001
0010
0100
,  // measure 29
1000
0000
0011
0000
0001
1000
0100
1000
,  // measure 30
0000
1000
0001
1000
0000
1000
0010
1000
,  // measure 31
0100
0000
0101
0000
0010
0001
0100
0010
,  // measure 32
0001
0010
1000
0001
2002
0000
0000
3003
,  // measure 33
0110
0000
1001
0000
0001
0100
0010
0200
,  // measure 34
0000
0302
0000
0023
0000
0230
0000
1300
,  // measure 35
1020
0000
0230
0000
0310
1000
0010
0200
,  // measure 36
0000
0301
0010
0002
0000
1003
0100
1000
,  // measure 37
0002
0000
0203
0000
0310
1000
0100
0010
,  // measure 38
0100
0001
0100
1000
0010
0100
0001
1000
,  // measure 39
0200
0000
2300
0000
3001
1000
0001
0100
,  // measure 40
0010
0000
1000
0000
0100
0000
1000
0000
0001
0000
0000
0100
0001
0000
1000
0000
,  // measure 41
1001
0000
0110
0000
0100
0001
1000
0100
,  // measure 42
1000
0001
0100
0000
0110
0000
0001
0010
,  // measure 43
0100
0000
1010
0000
0100
0010
1000
0100
,  // measure 44
0010
0001
0100
0010
0200
0000
0302
0000
,  // measure 45
2003
0000
3002
0000
0103
0001
0010
0100
,  // measure 46
0000
1100
0000
1010
0000
0010
0100
0010
,  // measure 47
0220
0000
0000
0330
2002
0000
0000
3003
,  // measure 48
0220
0000
0000
0000
0000
0000
0000
0330
,  // measure 49
0100
0000
0000
0100
0010
0000
1000
0000
0010
0000
0000
0010
0100
0000
0001
0000
,  // measure 50
1000
0000
0000
1000
0000
0010
0000
0100
0000
0000
0000
0100
0000
0001
0000
0000
,  // measure 51
1000
0000
0000
0100
0000
1000
0000
0000
0001
0000
0000
0100
0000
0001
0000
0000
,  // measure 52
1000
0000
0000
0010
0000
1000
0000
0010
0100
0000
0000
0001
0000
0100
0000
0000
,  // measure 53
0001
0000
0000
1000
0000
1000
0000
0000
0010
0000
0000
0100
0000
0100
0000
0000
,  // measure 54
0001
0000
0000
1000
0000
1000
0000
0001
0100
0000
0000
0100
0000
0010
0000
0000
,  // measure 55
1001
0000
0000
0100
0000
0010
0000
0100
0000
0000
0000
0001
0000
1000
0000
0000
,  // measure 56
0010
0000
0000
0100
0000
0001
0000
0100
0000
0000
0000
0100
0000
1000
0000
0100
,  // measure 57
0001
0000
0000
0000
1001
0000
0000
0000
1000
0000
0000
0001
0000
0101
0000
0000
,  // measure 58
0100
0000
0000
0010
0000
1000
0000
0000
0001
0000
0000
0010
0000
0100
0000
0000
,  // measure 59
1000
0000
0000
0001
0000
1000
0000
0001
0000
0000
0000
0000
1000
0000
0010
0000
,  // measure 60
0100
0000
0000
0010
0000
1000
0000
0000
0100
0000
0000
0010
0000
0001
0000
1000
,  // measure 61
0001
0000
0000
0100
0000
0001
0000
0100
0001
0000
0000
1000
0000
0010
0000
1000
,  // measure 62
0010
0000
0000
1000
0000
0001
0000
1000
0001
0000
0000
0001
0000
0100
0000
0001
,  // measure 63
0100
0010
1000
0000
0001
0100
0010
0100
,  // measure 64
0001
0000
0000
1000
0000
0001
0000
0100
0010
0000
0000
0100
0000
0010
0000
0000
,  // measure 65
2002
0000
3003
0000
;
