#TITLE:Hunny Bunny;
#SUBTITLE:;
#ARTIST:U1 overground;
#TITLETRANSLIT:;
#SUBTITLETRANSLIT:;
#ARTISTTRANSLIT:;
#GENRE:;
#CREDIT:;
#BANNER:Hunny Bunny.png;
#BACKGROUND:Hunny Bunny-bg.png;
#LYRICSPATH:;
#CDTITLE:;
#MUSIC:Hunny Bunny.ogg;
#OFFSET:-0.420000;
#SAMPLESTART:49.899975;
#SAMPLELENGTH:15.000000;
#SELECTABLE:YES;
#BPMS:0.000000=160.000000
,64.000000=320.000000
,68.000000=160.000000
,192.000000=80.000000
,208.500000=160.000000
;
#STOPS:64.000000=0.750000,
192.000000=1.125000
;
#BGCHANGES:;
#KEYSOUNDS:;
#ATTACKS:;

//---------------dance-single - ----------------
#NOTES:
     dance-single:
     :
     Beginner:
     5:
     0.202903,0.343525,0.008404,0.008404,0.000000,169.000000,168.000000,1.000000,1.000000,0.000000,0.000000,0.202903,0.343525,0.008404,0.008404,0.000000,169.000000,168.000000,1.000000,1.000000,0.000000,0.000000:
0000
0000
0000
0000
,
0000
0000
0000
0000
,
0000
0000
0000
0000
,
0000
0000
0000
0000
,
1000
0000
0000
0000
,
0001
0000
0000
0000
,
1000
0000
0000
0000
,
0100
0000
0000
0000
,
1000
0000
0000
0000
,
0010
0000
0010
0000
,
0100
0000
0100
0000
,
0001
0000
0001
0000
,
1000
0000
1000
0000
,
0100
0000
0100
0000
,
1000
0000
1000
0000
,
0001
0000
0001
0000
,
0020
0000
0000
0000
,
0030
0000
0000
0000
,
1000
0000
1000
0000
,
0001
0000
0001
0000
,
0100
0000
0100
0000
,
0010
0000
1000
0000
,
0010
0000
0100
0000
,
0001
0000
0010
0000
,
0100
0000
1000
0000
,
0001
0000
0000
0000
,
0001
0000
1000
1000
,
1000
0000
0010
0000
,
0100
0000
0100
0100
,
0100
0000
0001
0000
,
0001
0000
1000
1000
,
1000
0000
0010
0000
,
0100
0100
0100
0000
,
0001
0001
1000
1000
,
0010
0010
0100
0000
,
0100
0001
0100
0000
,
0010
1000
0010
0000
,
1000
0001
1000
0000
,
0001
0100
0001
0000
,
0010
0000
0010
0000
,
0100
0000
0100
0000
,
1000
0000
1000
0000
,
0001
0000
0001
0000
,
1000
0000
1000
0000
,
0010
0000
0010
0000
,
0100
0100
0000
0001
,
0001
0000
1000
0001
,
1000
0010
0100
0010
,
1001
0001
1000
0000
0010
1000
0000
0001
,
1000
0000
0000
0000
0001
0100
0000
0000
,
0001
1000
0001
0000
0000
1000
0000
0001
,
0000
0100
0000
0001
0000
0010
0000
0001
,
0000
1000
0000
0001
0000
1000
0000
0000
,
0000
0010
0000
0100
0000
0010
0000
0000
,
0000
1000
0000
0100
0000
1000
0000
0000
,
0000
0001
0000
0010
0000
0001
0000
0000
,
0000
1000
0000
0100
0000
1000
0000
0001
,
0000
0010
0000
0001
0000
0100
0000
0010
,
0000
1000
0000
0010
0000
0100
0000
0001
,
0000
0010
0000
0100
0000
1000
0000
0001
,
0000
1000
0000
0010
0000
0000
0000
1000
,
0000
0010
0000
1000
0000
0000
0000
0100
,
0000
1000
0000
0100
0000
0000
0000
0010
,
0000
0001
0000
1000
0000
0000
0000
0000
,
0000
0001
0000
1000
0000
0100
0000
1000
,
0000
0010
0000
0100
0000
0001
0000
0010
,
0000
0001
0000
1000
0000
0100
0000
1000
,
0000
0010
0000
0100
0000
0001
0000
0010
,
0000
0100
0000
0000
0000
0000
0000
0000
;

//---------------dance-single - ----------------
#NOTES:
     dance-single:
     :
     Easy:
     9:
     0.344575,0.434134,0.067234,0.058830,0.000000,287.000000,279.000000,8.000000,7.000000,0.000000,0.000000,0.344575,0.434134,0.067234,0.058830,0.000000,287.000000,279.000000,8.000000,7.000000,0.000000,0.000000:
0000
0000
0000
0000
,
0000
0000
0000
0000
,
0000
0000
0000
0000
,
0000
0000
0000
0000
,
1000
0100
1000
0010
,
0100
0001
0010
0001
,
1000
0010
0100
0010
,
1000
0100
0010
0001
,
1000
0001
1000
0010
,
0100
0000
0101
0000
0001
0000
0010
0100
,
1000
0010
0100
0001
,
0010
0000
0011
0000
0001
0000
1000
0001
,
1000
0010
0100
0010
,
1000
0100
0010
0001
,
1000
0001
1000
0000
0010
0000
0100
0000
,
0010
1000
0100
0010
,
2002
0000
0000
0000
,
3003
0000
1000
0000
0100
1000
0100
0000
,
0010
0000
0001
0000
1000
0001
1000
0000
,
0001
0100
0010
0100
,
0001
1000
0001
1000
,
0010
0100
0010
1000
,
0100
1000
0001
0010
,
0001
0100
1000
0100
,
0001
0010
1000
0010
,
0001
1000
0001
1000
,
0001
0000
1000
0000
0100
1000
0100
0000
,
0010
0001
1000
0001
,
1000
0000
0010
0000
1000
0100
1000
0000
,
0001
0010
0001
1000
,
0100
1000
0010
0100
,
0001
0010
0100
1000
,
0001
1000
0010
0100
,
0110
1010
1100
0110
,
0010
0000
0001
0100
0000
0000
0001
0000
,
1000
0010
1000
0100
,
1000
0100
1000
0000
0001
1000
0001
0000
,
1000
0010
0100
0010
,
1000
0100
0010
0001
,
1000
0001
1000
0010
,
0100
0001
0010
0100
,
1000
1000
0001
0001
,
0100
0100
0010
0010
,
1000
1000
0100
0100
,
0001
0001
0100
0100
,
1000
0010
0001
1000
,
0100
0001
1000
0010
,
0001
0010
1000
0001
,
0200
0310
1000
0000
0010
1000
0000
0001
,
0100
0010
0100
0000
0001
0010
0000
0100
,
1000
0010
1000
0000
0100
0010
0000
0001
,
1000
0001
1000
0010
0100
0010
0100
0001
,
0010
0001
0000
1000
0000
0010
0000
1000
,
0000
0100
0000
1000
0000
0010
0100
0010
,
0000
1000
0000
0100
0000
0010
0000
0001
,
0000
1000
0001
1000
0000
0001
0000
0010
,
0000
0001
0000
0010
0000
0100
0000
1000
,
0000
0010
0000
1000
0000
0001
0000
0100
,
0000
0010
0000
0100
0000
0001
0000
1000
,
0000
0001
0000
0100
0000
0010
0000
1000
,
0000
0200
0000
0320
0000
0031
0000
1000
,
0000
0100
0000
1000
0000
0010
0000
0100
,
0000
0001
0000
0010
0001
0010
0000
0001
,
0000
1000
0000
0100
0000
1000
0000
0010
,
0100
0010
0000
1000
0000
0001
0000
0010
,
0000
0001
0000
0100
0010
0100
0000
0010
,
1000
0010
0000
1000
0000
0100
0000
0010
,
0000
0001
0000
1000
0000
0100
0000
0010
,
0000
2002
0000
0000
0000
0000
0000
3003
;

//---------------dance-single - ----------------
#NOTES:
     dance-single:
     :
     Medium:
     13:
     0.517464,0.951627,0.201703,0.058830,0.088245,431.000000,407.000000,24.000000,7.000000,0.000000,0.000000,0.517464,0.951627,0.201703,0.058830,0.088245,431.000000,407.000000,24.000000,7.000000,0.000000,0.000000:
0000
0000
0000
0000
,
0000
0000
0000
0000
,
0000
0000
0000
0000
,
0000
0000
0000
0000
,
0001
0000
1000
0000
0010
0100
0010
0000
,
1000
0100
1000
0000
0001
0010
0001
0000
,
0100
0010
0100
0010
1000
0010
0100
0010
,
1000
0000
0001
0000
0100
0000
0010
0100
,
0010
0100
0010
0100
0010
0100
0010
0100
,
0010
1000
1100
0001
,
0101
0000
0100
0000
1000
0100
0001
0000
,
1100
0000
1100
0000
0001
0000
0010
1000
,
0010
0000
0001
0000
0100
1000
0100
0000
,
0001
0010
0100
1000
,
0010
0100
0010
0000
1000
0000
0001
0000
,
0100
0010
1000
0100
,
0110
0000
0000
0000
,
1001
1000
0100
0000
0010
0001
0100
0000
,
0010
0100
0010
0100
0010
0100
0010
0000
,
1000
0100
1000
0000
0001
0010
0001
0000
,
0001
0100
1000
0000
0100
0001
0010
0000
,
1000
0010
0001
0000
0001
1000
0001
1000
,
0001
1000
0010
0100
,
0010
0000
1000
0000
0100
1000
0100
0000
,
1000
0001
1000
0000
0001
0100
0001
0000
,
0100
0010
1000
0000
0010
0100
0001
0000
,
0010
0100
1000
0000
0010
0000
0101
0000
,
0010
1000
0010
0000
1000
0000
0100
0000
,
0010
0000
0001
0000
0100
0001
0100
0000
,
0001
1000
0001
0000
1000
0010
1000
0000
,
0010
0100
0001
0000
0010
0100
1000
0000
,
0010
0100
0010
0000
1000
0001
1000
0000
,
0001
0100
0010
0100
0001
0100
0010
0100
,
0001
1000
1001
1100
,
0110
0000
0011
0000
0001
0010
0100
0000
,
1000
0100
0010
0000
0011
0000
0011
0000
,
1001
1001
1100
1100
,
0100
0010
0001
0000
0010
1000
0010
0001
,
0010
1000
0010
0001
0010
1000
0020
0000
,
0032
0103
0010
1000
,
0100
0000
1000
0000
0010
0000
0100
0001
,
0100
0010
1000
0100
,
0010
0001
0010
0001
0010
0000
0110
0000
,
0100
0000
1000
0000
0100
1000
0100
0000
,
1000
0010
0100
0000
0001
0010
0100
0000
,
0010
0001
1000
0001
1000
0001
0100
0010
,
0100
0010
0100
0001
0100
0001
0100
0010
,
0100
0010
1000
0010
1000
0010
1000
0010
,
0100
0000
0000
0000
0001
0000
0000
0000
1001
0000
0000
0000
1000
0000
0000
0000
0100
0000
0000
0000
0010
0000
0000
0000
0001
0000
0000
0000
1000
0001
1000
0001
,
1000
0000
0000
0000
1010
0000
0000
0000
0110
0000
0000
0000
0000
0000
0000
0000
0200
0000
0000
0000
0302
0000
0000
0000
0023
0000
0000
0000
0130
1000
0100
0000
,
1000
0100
1000
0000
0001
0000
0100
0000
0010
0000
0000
0000
1010
0000
0000
0000
1000
0000
0001
0000
0100
0000
0000
0000
0001
0000
0000
0000
0010
0100
0010
0000
,
0100
1000
0001
1000
0010
0100
0001
0010
0100
1000
0001
0010
0100
1000
0001
0010
,
0100
1000
0001
0000
0010
0000
0001
1000
0001
0000
1000
0000
0010
0000
1000
0000
,
0100
1000
0010
0100
0010
0100
0001
0100
,
0001
0100
0010
1000
0100
0001
0100
1000
,
0100
0001
0100
1000
0010
0100
0010
0001
,
0010
0100
0001
0010
0001
1000
0010
0100
,
0010
1000
0100
1000
0000
0001
0100
0001
,
0000
0100
0010
1000
0010
0100
0001
0010
,
0001
1000
0001
0100
0010
0100
0001
0010
,
0100
1000
0000
1010
0000
0010
0000
0100
,
0001
0100
0001
0100
0000
0010
0000
1000
,
0000
0100
0010
0001
0000
0100
0000
0010
,
0000
1000
0000
0100
0000
1000
0100
1000
,
0000
0001
0010
0001
0000
0100
0010
0100
,
0000
0010
1000
0010
0000
1000
0100
1000
,
0000
0001
0100
0001
0000
0100
0010
0100
,
0000
0010
1000
0010
1000
0010
1000
0010
,
1000
2002
0000
0000
0000
3003
0000
0000
;

//---------------dance-single - ----------------
#NOTES:
     dance-single:
     :
     Challenge:
     17:
     0.960489,1.246775,0.352980,0.159681,1.100961,800.000000,758.000000,42.000000,19.000000,0.000000,0.000000,0.960489,1.246775,0.352980,0.159681,1.100961,800.000000,758.000000,42.000000,19.000000,0.000000,0.000000:
// measure 0
0000
0000
0000
0000
,  // measure 1
0000
0000
0000
0000
,  // measure 2
0000
0000
0000
0000
,  // measure 3
0000
0000
0000
0000
,  // measure 4
1000
0000
0100
0000
1000
0001
1000
0000
0010
0000
0100
0000
0001
0000
0010
0000
,  // measure 5
0001
1000
0001
0000
1000
0100
1000
0100
0010
0001
0010
0001
0100
0010
0200
0000
,  // measure 6
0310
1000
0010
0000
1000
0100
1000
0100
0010
0001
0010
0001
0100
0010
0100
0010
,  // measure 7
1000
0100
0010
0001
1000
0100
0010
0001
1000
0100
1000
0001
0010
0001
0100
0010
,  // measure 8
1000
0100
0001
0100
1000
0010
0001
0010
1000
0001
0100
0010
0100
0001
0010
0100
,  // measure 9
1000
0000
0001
0000
0100
0010
1000
0010
0100
0001
0100
0000
0001
0000
0010
0000
,  // measure 10
0100
0000
1000
0000
0010
1000
0010
0000
0100
0001
0100
0010
1000
0001
1000
0000
,  // measure 11
0010
1000
0001
1000
0010
1000
0001
0000
0100
0000
0010
1000
0100
0000
0010
0000
,  // measure 12
0001
1000
0010
0000
1000
0001
0100
0000
0010
0100
0001
0100
0010
1000
0010
0100
,  // measure 13
0001
0000
1000
0000
0010
1000
0100
0000
1000
0000
0010
0100
0001
0000
0100
0000
,  // measure 14
0010
1000
0100
1000
0001
0010
0001
0100
0010
1000
0010
0000
1000
0000
0100
0000
,  // measure 15
0010
0001
1000
0001
0100
0010
1000
0010
0100
0001
0010
0100
1000
0001
0010
0000
,  // measure 16
2002
0000
0000
3003
,  // measure 17
0110
0000
0100
0000
0001
1000
0010
0000
1000
0000
0010
0100
0001
0100
0010
0000
,  // measure 18
1000
0000
0100
0000
1000
0000
0001
0000
0010
0000
0001
0000
0100
0010
1000
0000
,  // measure 19
0010
0100
0001
0000
0010
0000
0001
0000
1000
0010
1000
0000
0001
0000
0100
0000
,  // measure 20
0010
1000
0001
0000
1000
0000
0010
0000
0100
0001
0010
0100
1000
0000
0001
0000
,  // measure 21
1000
1000
1001
1001
0010
0100
0110
0110
,  // measure 22
0010
0000
1000
0000
0100
0010
0001
0000
1000
0000
0001
0000
0100
0010
1000
0000
,  // measure 23
0010
0100
0001
0000
0100
0000
0010
1000
0001
0000
1000
0000
0010
1000
0100
0010
,  // measure 24
0001
0100
0001
0000
1000
0001
1000
0010
0100
0001
0100
0010
1000
0100
0010
0001
,  // measure 25
1000
0010
0100
0101
0010
1000
1010
0001
,  // measure 26
0100
0000
0010
0000
1000
0000
0010
0000
0100
0000
0001
0000
0010
0001
1000
0000
,  // measure 27
0010
1000
0010
1000
0001
0000
0100
0000
0010
0100
0010
0100
0001
1000
0001
0000
,  // measure 28
0010
1000
0010
0001
0100
0100
0110
1010
,  // measure 29
1000
0100
0010
0001
1000
0000
0010
1000
0001
1000
0010
0000
1000
0010
1000
0100
,  // measure 30
0010
0100
1000
0000
0001
0000
0010
0000
1010
0000
0010
0000
0011
0000
0001
0000
,  // measure 31
0101
0000
0100
0000
0010
1000
0001
1000
0010
0000
0100
0000
0101
0000
0001
0000
,  // measure 32
0010
0100
0010
0000
0100
1000
0001
0000
1000
0010
0100
0010
1000
0010
0100
0010
,  // measure 33
1000
0000
0001
0000
0010
0000
0001
0000
0100
0010
1000
0010
0100
0000
0001
0000
,  // measure 34
0010
0000
0110
0000
0100
0000
1000
0000
1001
0000
0001
0000
0100
0001
0100
0010
,  // measure 35
0100
0001
0010
0100
1000
0001
0100
0001
,  // measure 36
0010
0000
0100
0000
1000
0000
0100
0000
0010
0000
0001
0000
0100
0010
1000
0010
,  // measure 37
0100
0001
0010
0001
1000
1000
1010
1010
,  // measure 38
0010
0100
0001
0100
0010
0000
1000
0000
0100
0000
1000
0000
0001
0000
0010
0000
,  // measure 39
0011
0000
0000
0000
0001
0000
0100
1000
0100
0001
0100
0000
0010
1000
0001
0010
,  // measure 40
0001
0000
0100
0010
0100
0001
1000
0000
0010
1000
0100
1000
0001
0010
0001
0100
,  // measure 41
0010
1010
0000
1001
0000
1010
0000
0010
,  // measure 42
0110
0100
0202
0303
0022
0033
2020
3030
,  // measure 43
0010
0001
0100
0010
1000
0010
0100
0001
0010
0100
1000
0001
1000
0000
0010
0000
,  // measure 44
0110
0000
0100
0000
0101
0000
0001
0000
0010
0100
1000
0000
0010
1000
0001
1000
,  // measure 45
0010
0000
0010
0000
0100
0001
1000
0001
0100
0010
0100
0010
1000
0000
0100
0000
,  // measure 46
0010
0001
0100
0000
0010
0000
1000
0000
0001
0010
0100
0000
1000
0000
1010
0000
,  // measure 47
0010
0100
0001
0100
0010
0000
1000
0100
0010
0100
1000
0000
0001
0010
0100
0010
,  // measure 48
0001
0000
0000
0000
1001
0000
0000
0000
2002
0000
0000
0000
3003
0000
0000
0000
1010
0000
0000
0000
0220
0000
0000
0000
0330
0000
0000
0000
0001
0010
0001
0000
,  // measure 49
0010
0000
0100
0000
1000
0000
0000
0000
2002
0000
0000
0000
3003
0000
0000
0000
0110
0000
0000
0000
0100
0000
0000
0000
0001
0000
0000
0000
0010
0100
0000
0010
,  // measure 50
0100
1000
0000
0000
1001
0000
0001
0000
0202
0000
0303
0000
0110
0000
0000
0000
1010
0000
0000
0000
1000
0000
0100
0000
0010
0000
0001
0000
1000
0010
1000
0000
,  // measure 51
0001
0000
0000
0000
0100
0001
0100
0000
0010
1000
0010
0000
1000
0100
0001
0000
0100
1000
0010
0000
1000
0001
0100
0000
0001
0010
0100
0000
1000
0100
0010
0000
,  // measure 52
0001
1000
0010
0100
0001
0000
0000
0000
0010
0000
0000
0000
0001
0000
1000
0000
0010
0000
1000
0000
0100
0000
0010
0000
0001
0000
0010
0000
0100
0000
1000
0000
,  // measure 53
0001
0100
0001
0000
1000
0000
0010
1000
0001
0100
0001
1000
0001
0010
0001
0010
,  // measure 54
0100
0000
1000
0001
1000
0000
0001
0010
1000
0000
0010
0001
0100
0001
0010
0100
,  // measure 55
1000
0000
0010
1000
0100
1000
0001
0010
0001
0100
0010
1000
0010
0100
0001
0010
,  // measure 56
0100
1000
0001
0000
0010
0000
0001
1000
0010
1000
0100
0010
0100
1000
0010
1000
,  // measure 57
0000
0010
0100
0001
0010
0001
1000
0010
0100
0010
1000
0001
0100
0010
1000
0001
,  // measure 58
0100
0000
0010
1000
0100
0000
0010
0001
0100
0010
0100
0001
0010
0001
1000
0010
,  // measure 59
1000
0100
1000
0010
0100
0001
0100
0010
1000
0100
1000
0001
0010
0001
0100
0010
,  // measure 60
1000
0000
0100
0000
0010
0000
0001
0000
0100
0010
1000
0010
0100
0000
0001
0000
,  // measure 61
1000
0000
0001
0010
0100
0000
1000
0100
0001
0100
1000
0010
1000
0001
0100
0001
,  // measure 62
1000
0000
0010
0000
1000
0000
0001
0100
0010
0000
0100
0001
0010
0000
0100
1000
,  // measure 63
0001
0000
1000
0010
0100
0000
0001
0010
0100
0000
1000
0001
0010
0001
0100
0001
,  // measure 64
1000
0000
0010
1000
0001
0000
0100
0001
0010
0100
1000
0100
1000
0001
1000
0001
,  // measure 65
0100
0010
0100
0010
1000
0100
1000
0100
0010
0001
0100
0010
0100
0000
0010
1000
,  // measure 66
0010
0000
1000
0000
1001
0000
0001
0000
0101
0000
0100
0010
1000
0010
0100
0010
,  // measure 67
1000
0010
0100
0010
1000
0001
0010
0001
1000
0001
0010
0001
1000
0001
0010
0001
,  // measure 68
1000
2002
0000
0000
0000
0000
0000
0000
,  // measure 69
3003
0000
0000
0000
;

//---------------dance-single - ----------------
#NOTES:
     dance-single:
     :
     Hard:
     15:
     0.783999,1.213368,0.201703,0.243724,0.575693,653.000000,629.000000,24.000000,29.000000,0.000000,0.000000,0.783999,1.213368,0.201703,0.243724,0.575693,653.000000,629.000000,24.000000,29.000000,0.000000,0.000000:
// measure 0
0000
0000
0000
0000
,  // measure 1
0000
0000
0000
0000
,  // measure 2
0000
0000
0000
0000
,  // measure 3
0000
0000
0000
0000
,  // measure 4
0001
0000
1000
0000
0010
1000
0010
0000
0100
0000
0001
0000
0010
0000
0001
0000
,  // measure 5
1000
0100
1000
0000
0100
0010
0100
0000
0010
0000
0001
0000
0010
0001
0020
0000
,  // measure 6
0031
1000
0010
0000
1000
0010
0100
0000
0001
0000
0100
0000
1000
0000
0100
0000
,  // measure 7
0001
0000
1000
0000
0100
0010
0100
0000
1000
0000
0001
0000
0100
0000
0001
0000
,  // measure 8
0100
1000
0100
0000
0001
0010
0001
0000
1000
0010
1000
0000
0001
1000
0001
0000
,  // measure 9
1000
0010
0100
0001
0010
0100
1000
0010
,  // measure 10
1000
0000
0001
0000
0100
0001
0100
0000
0001
1000
0001
0000
1000
0000
0010
0000
,  // measure 11
0100
0001
1000
0000
0001
1000
0100
0000
1000
0000
0010
1000
0020
0000
0000
0000
,  // measure 12
0130
0000
0001
0000
0010
0001
0010
0000
0100
1000
0100
0000
1000
0100
1000
0000
,  // measure 13
0001
0000
0100
0000
1000
0000
0100
0000
0001
0000
0010
0100
0020
0000
0000
0000
,  // measure 14
0130
1000
0100
1000
0001
0000
1000
0000
0001
0100
0001
0100
0010
0000
1000
0000
,  // measure 15
0001
1000
0001
0000
1000
0100
1000
0000
0001
1000
0001
0000
0010
0001
0010
0000
,  // measure 16
0001
0000
0000
0000
,  // measure 17
1001
1000
0010
1000
0100
0010
0001
0100
,  // measure 18
0001
0000
0010
0000
1000
0000
0010
0000
0001
0000
0100
0000
0001
1000
0001
0000
,  // measure 19
1000
0000
0100
0000
0001
0000
0100
0000
1000
0010
1000
0000
0001
0000
0100
0000
,  // measure 20
0001
0010
0001
0000
0010
0000
0100
0000
1000
0000
0001
0000
0200
0000
0000
0000
,  // measure 21
0310
1000
0100
0100
0010
0010
0001
0001
,  // measure 22
0000
0000
1000
0000
0010
0100
0001
0000
0100
0000
0010
0000
1000
0000
0001
0000
,  // measure 23
1000
0100
1000
0000
0010
0000
0100
0000
0001
0000
0010
0000
0001
0100
0001
0000
,  // measure 24
0100
0000
0010
1000
0010
0000
1000
0000
0100
0010
0100
0000
0010
0001
0010
0000
,  // measure 25
0001
1000
0010
0110
0100
0001
0011
0010
,  // measure 26
0100
0000
1000
0000
0100
0000
0010
0000
0001
0000
1000
0000
0001
0100
0010
0000
,  // measure 27
1000
0000
1000
0000
0100
0000
0010
0001
0010
0000
0001
0000
0100
0010
0100
0000
,  // measure 28
0010
1000
0100
1000
0001
0001
0100
0100
,  // measure 29
0010
1000
0010
0000
1000
0000
0100
0000
0010
0001
0010
0000
0001
0000
0100
0000
,  // measure 30
0010
1000
0100
1000
1010
0010
0110
0100
,  // measure 31
0001
0000
0010
0000
0100
1000
0100
1000
0010
0000
0100
0000
0001
0000
0010
0000
,  // measure 32
0001
0000
1000
0000
0010
0000
0100
0000
0010
1000
0010
1000
0001
0100
0001
0100
,  // measure 33
0010
0000
1000
0000
0010
0000
1000
0000
0001
0100
0001
0100
0001
0000
0010
0000
,  // measure 34
0100
1000
0001
0000
1000
0000
0010
0000
0100
0000
0001
0000
0010
0001
0010
0000
,  // measure 35
0100
1000
0010
0100
0010
1000
0001
0100
,  // measure 36
0001
1000
0010
0000
1000
0000
0001
0000
0100
0000
0010
0000
0100
0000
0001
0000
,  // measure 37
0011
0010
0100
1000
1010
0010
0110
0100
,  // measure 38
0001
0010
0001
0000
1000
0001
1000
0000
0010
0000
1000
0000
0100
0000
0010
0000
,  // measure 39
0011
0000
0000
0000
0001
0000
0010
0000
0001
1000
0010
0000
1000
0000
0010
1000
,  // measure 40
0001
0000
0100
0001
1000
0000
0001
0000
0100
0001
1000
0000
0010
1000
0100
0000
,  // measure 41
0010
0010
0001
0001
1000
0100
1100
1000
,  // measure 42
1010
0010
0220
0330
0202
0303
0022
0033
,  // measure 43
0010
0220
0330
2200
3300
2002
3003
0001
,  // measure 44
0010
0000
1000
0000
0010
0000
0001
0000
0100
0010
1000
0000
0100
0010
0100
0000
,  // measure 45
0010
0000
0001
0000
1000
0000
0010
0000
1000
0001
1000
0000
0001
0000
0100
0000
,  // measure 46
0001
0000
0010
0000
0100
0000
1000
0000
0010
0100
0010
0000
1000
0000
0001
0000
,  // measure 47
0010
0000
0001
1000
0001
0000
1000
0000
0100
0010
0100
0000
1000
0000
0001
0000
,  // measure 48
1001
0000
0000
0000
2000
0000
0000
0000
3020
0000
0000
0000
0000
0000
0000
0000
0230
0000
0000
0000
0302
0000
0000
0000
0000
0000
0000
0000
1003
0100
1000
0000
,  // measure 49
0100
0000
0010
0000
0001
0000
0000
0000
2002
0000
0000
0000
3003
0000
0000
0000
0102
0000
0000
0000
0203
0000
0000
0000
2300
0000
0000
0000
3100
0001
0010
0000
,  // measure 50
0100
1000
0100
0000
1001
0000
0001
0000
0202
0000
0303
0000
1000
0000
0000
0000
1010
0000
0000
0000
0100
0000
0001
0000
0010
0000
0001
0000
0100
0010
0100
0000
,  // measure 51
0010
0000
1000
0000
0100
1000
0100
0000
0010
0001
0010
0000
0001
1000
0001
0000
1000
0010
1000
0000
0100
1000
0100
0000
0010
0001
0010
0000
0001
1000
0001
0000
,  // measure 52
1000
0010
1000
0000
0001
0000
0000
0000
0100
0000
0000
0000
0010
0000
1000
0000
0010
0000
1000
0000
0001
0000
0000
0000
0010
0000
0000
0000
0001
0000
0000
0000
,  // measure 53
0100
0000
0010
0000
1000
0000
0001
1000
0001
1000
0001
0000
0100
0001
0100
0000
,  // measure 54
0010
0000
1000
0000
0001
0000
0100
0001
0100
0000
0001
1000
0001
0000
1000
0010
,  // measure 55
1000
0000
0100
0010
0100
0010
0100
0010
0100
0000
0010
0001
0010
0001
0010
0001
,  // measure 56
0010
0000
0001
0000
0100
0000
0010
0001
0010
0000
1000
0000
0100
0000
1000
0001
,  // measure 57
0000
0010
0001
0100
0010
0000
1000
0000
0100
0000
0010
0001
0010
0000
0001
1000
,  // measure 58
0001
0000
1000
0100
1000
0000
0010
1000
0010
0000
0100
0000
0001
0000
0010
0000
,  // measure 59
0001
1000
0010
0100
0010
1000
0001
0100
,  // measure 60
0010
0000
1000
0000
0010
0000
0100
0000
0001
0000
0010
0000
0100
0000
1000
0001
,  // measure 61
1000
0000
0010
1000
0010
0000
0100
0001
0100
0000
0001
0000
0010
0000
1000
0000
,  // measure 62
0010
0001
0100
0010
1000
0100
0010
0001
,  // measure 63
0100
0000
0010
1000
0010
0000
1000
0100
1000
0000
0001
0000
0010
0000
0001
0000
,  // measure 64
0100
0000
0010
1000
0010
0000
1000
0100
1000
0000
0001
0010
0001
0010
0001
0010
,  // measure 65
0001
0000
0100
0010
0100
0010
0100
0010
0100
0010
1000
0100
1000
0000
0001
1000
,  // measure 66
0001
0100
0100
0010
0010
1000
1000
0001
,  // measure 67
0001
0000
0100
0010
0100
0000
0001
1000
0001
0000
1000
0100
1000
0000
0100
0010
,  // measure 68
0100
0022
0000
0000
0000
0000
0033
0000
;
