#TITLE:Hardcore is my life;
#SUBTITLE:;
#ARTIST:J-mi & Midi-D;
#TITLETRANSLIT:;
#SUBTITLETRANSLIT:;
#ARTISTTRANSLIT:;
#GENRE:;
#CREDIT:;
#BANNER:Hardcore (is my life).png;
#BACKGROUND:;
#LYRICSPATH:;
#CDTITLE:;
#MUSIC:Hardcore (is my life).ogg;
#OFFSET:-18.920002;
#SAMPLESTART:24.420002;
#SAMPLELENGTH:15.099994;
#SELECTABLE:YES;
#BPMS:0.000000=170.240005
,76.000000=185.000000
,78.000000=170.000000
,194.000000=172.500000
,206.000000=170.000000
;
#STOPS:
;
#BGCHANGES:;
#KEYSOUNDS:;
#ATTACKS:;

//---------------dance-single - ----------------
#NOTES:
     dance-single:
     :
     Beginner:
     2:
     0.149653,0.145381,0.000000,0.032994,0.000000,127.000000,127.000000,0.000000,4.000000,0.000000,0.000000,0.149653,0.145381,0.000000,0.032994,0.000000,127.000000,127.000000,0.000000,4.000000,0.000000,0.000000:
0000
0000
0000
0000
,
0000
0000
0000
0000
,
0000
0000
0000
0000
,
0000
0000
0000
0000
,
1000
0000
0010
0000
,
1000
0000
0001
0000
,
0100
0000
0010
0000
,
1000
0000
0010
0000
,
0100
0000
0001
0000
,
0010
0000
0010
0000
,
0100
0000
0100
0000
,
1000
0000
0001
0000
,
1000
0000
1000
0000
,
1000
0000
0010
0000
,
0100
0000
0100
0000
,
0100
0000
0001
0000
,
0010
0000
0010
0000
,
0010
0000
0001
0000
,
0100
0000
0000
0000
,
0010
0000
0000
0000
,
1000
0000
0001
0000
,
1000
0000
0010
0000
,
1000
0000
0100
0000
,
0010
0000
0001
0000
,
0010
0000
0001
0000
,
0100
0000
0010
0000
,
1000
0000
0001
0000
,
1000
0000
0010
0000
,
0100
0000
0001
0000
,
1000
0000
0001
0000
,
0010
0000
0001
0000
,
0100
0000
0010
0000
,
1000
0000
0010
0000
,
0100
0000
0001
0000
,
1000
0000
0001
0000
,
0200
0000
0000
0000
,
0310
0000
0010
0000
,
1000
0000
1000
0000
,
0001
0000
0001
0000
,
0001
0000
0100
0000
,
0100
0000
0010
0000
,
0010
0000
1000
0000
,
1000
0000
0001
0000
,
0001
0000
0100
0000
,
0010
0000
0000
0000
,
1000
0000
0001
0000
,
1000
0000
0001
0000
,
0010
0000
0001
0000
,
1000
0000
0100
0000
,
1000
0000
0010
0000
,
1000
0000
0100
0000
,
0010
0000
0001
0000
,
0010
0000
0001
0000
,
1000
0000
0100
0000
,
1000
0000
0010
0000
,
1000
0000
0001
0000
,
1000
0000
0010
0000
,
1000
0000
0100
0000
,
1000
0000
0001
0000
,
0010
0000
0001
0000
,
1000
0000
0100
0000
,
1000
0000
0010
0000
,
1000
0000
0001
0000
,
1000
0000
0001
0000
,
0010
0000
0001
0000
,
0100
0000
0010
0000
,
1000
0000
0100
0000
,
0010
0000
0001
0000
,
2000
0000
0000
0000
,
3002
0000
0000
0203
,
0000
0000
0300
0000
;

//---------------dance-single - ----------------
#NOTES:
     dance-single:
     :
     Easy:
     5:
     0.254528,0.290762,0.024746,0.041243,0.000000,216.000000,213.000000,3.000000,5.000000,0.000000,0.000000,0.254528,0.290762,0.024746,0.041243,0.000000,216.000000,213.000000,3.000000,5.000000,0.000000,0.000000:
0000
0000
0000
0000
,
0000
0000
0000
0000
,
0000
0000
0000
0000
,
0000
0000
0000
0000
,
1000
0000
1000
0000
,
0010
0000
0010
0000
,
0100
0001
0100
0000
,
0001
0010
0001
0000
,
1000
0001
1000
0000
,
0100
0010
0100
0000
,
0010
0001
0010
0000
,
1000
0010
0001
0000
,
0010
1000
0100
0000
,
0010
0001
0100
0000
,
0010
1000
0001
1000
,
0010
0100
0001
0100
,
0010
0000
0010
0000
,
1000
0000
1000
0000
,
0001
0000
1000
0000
,
1000
0000
0010
0000
,
0010
0000
1000
0001
,
1000
0000
0100
0010
,
0001
0000
0010
1000
,
0010
0000
0001
0100
,
1000
0000
0100
0001
,
1000
0000
0001
0010
,
0001
0100
0010
1000
,
0010
0100
0001
0010
,
0200
0000
1300
1000
,
1000
0000
0001
0001
,
0001
0000
0010
0010
,
0010
0000
0100
0100
,
1000
1000
0001
0001
,
0010
0000
0001
0100
,
1000
0000
0100
0001
,
0020
0000
0000
0000
,
1030
0010
0001
0010
,
1000
1000
1000
1000
,
0001
0001
0001
0001
,
0100
0100
0100
0100
,
0010
0010
0010
0010
,
1000
0001
1000
0001
,
0100
0010
0100
0010
,
1000
0100
1000
0100
,
0010
0001
0010
0001
,
0100
0100
0100
0100
,
0010
1000
0010
1000
,
0001
0001
0001
0001
,
0100
1000
0100
0001
,
0010
0010
0010
0010
,
1000
0010
0001
0100
,
1000
1000
1000
1000
,
0100
0001
0010
0100
,
1000
0001
1000
0001
,
0010
0100
1000
0100
,
0010
0000
0001
1000
,
0001
1000
0010
0100
,
0010
0000
1000
0100
,
1000
0000
0001
0010
,
0001
0000
0100
0010
,
0100
0000
0010
0010
,
1010
0000
1000
1000
,
1100
0000
0100
0100
,
0110
0000
0010
0001
,
0010
0000
0001
1000
,
0001
1000
0010
1000
,
0010
0000
0100
0001
,
0100
0000
0010
1000
,
0020
0000
0000
0000
,
2030
0000
0000
0000
,
3002
0000
0003
0000
;

//---------------dance-single - ----------------
#NOTES:
     dance-single:
     :
     Medium:
     9:
     0.333478,0.377991,0.082486,0.065989,0.000000,283.000000,273.000000,10.000000,8.000000,0.000000,0.000000,0.333478,0.377991,0.082486,0.065989,0.000000,283.000000,273.000000,10.000000,8.000000,0.000000,0.000000:
// measure 0
0000
0000
0000
0000
,  // measure 1
0000
0000
0000
0000
,  // measure 2
0000
0000
0000
0000
,  // measure 3
0000
0000
0000
0000
,  // measure 4
1000
0000
0100
0000
1000
0100
1000
0000
,  // measure 5
0010
0100
0001
0010
,  // measure 6
0001
1000
0100
1000
,  // measure 7
0010
0100
0001
0100
,  // measure 8
0010
1010
1000
1001
,  // measure 9
0001
0101
0100
0010
,  // measure 10
1000
0100
0010
0001
,  // measure 11
1000
0001
1000
0000
0010
1000
0010
0000
,  // measure 12
1000
0100
0010
0001
,  // measure 13
0010
0001
1000
0100
,  // measure 14
1000
0010
0100
0010
,  // measure 15
1000
0001
0100
0001
,  // measure 16
0010
0000
0100
0000
1000
0100
1000
0000
,  // measure 17
0001
0010
0001
0100
,  // measure 18
0010
1000
0010
0000
0000
1000
0100
1000
,  // measure 19
0000
0100
0000
0000
0010
0000
1000
0000
,  // measure 20
0001
0000
0100
0000
0001
0010
0001
0000
,  // measure 21
1000
0100
1000
0100
,  // measure 22
0010
0001
0010
0001
,  // measure 23
0100
0010
0100
0010
,  // measure 24
1000
0001
1000
0001
,  // measure 25
0100
0010
1000
0010
,  // measure 26
0100
0001
0010
0001
,  // measure 27
1000
0100
1000
0100
,  // measure 28
0020
0000
0031
1000
,  // measure 29
0200
0000
1300
0010
,  // measure 30
2000
0000
3001
0100
,  // measure 31
0020
0000
1030
0100
,  // measure 32
2000
0000
3001
0010
,  // measure 33
0002
0000
0103
0010
,  // measure 34
1000
0010
0100
0001
,  // measure 35
0010
0010
0010
0010
,  // measure 36
0100
0000
0000
0000
,  // measure 37
1000
0000
0001
0000
1000
0001
1000
0000
,  // measure 38
0010
0000
0100
0000
0010
0100
0010
0000
,  // measure 39
0100
0000
0001
0000
1000
0001
1000
0000
,  // measure 40
0010
1000
0010
0100
,  // measure 41
0101
0001
0010
0100
,  // measure 42
1100
1000
0010
0100
,  // measure 43
0101
0001
0011
0010
,  // measure 44
0110
0100
1000
0001
,  // measure 45
1000
0001
1000
0000
0010
0000
1000
0000
,  // measure 46
0100
0010
0001
1000
,  // measure 47
0001
1000
0001
0000
1000
0000
0100
0000
,  // measure 48
1000
0010
0100
0001
,  // measure 49
0010
0001
0010
0001
,  // measure 50
0100
0010
1000
0010
,  // measure 51
0100
0001
0010
0100
,  // measure 52
1000
0010
1000
0100
,  // measure 53
0010
0000
0001
0000
0010
0001
0010
0000
,  // measure 54
0100
1000
0001
0010
,  // measure 55
0001
0000
1000
0000
0100
1000
0100
0000
,  // measure 56
0010
0001
0010
0000
0001
0000
1000
0000
,  // measure 57
1001
0001
0100
0010
,  // measure 58
1000
0010
0100
0001
,  // measure 59
0010
0000
0100
0000
1000
0100
1000
0000
,  // measure 60
0001
0010
0001
0100
,  // measure 61
0101
0000
0100
0000
0010
1000
0010
1000
,  // measure 62
0010
1000
0100
0010
,  // measure 63
0001
0000
0010
0000
0001
0010
0001
0000
,  // measure 64
0100
0010
1000
0010
,  // measure 65
0100
0000
0100
0000
0001
1000
0001
0000
,  // measure 66
0100
0000
0000
0000
0010
1000
0010
0000
,  // measure 67
1000
0000
0100
0000
1000
0100
1000
0000
,  // measure 68
0010
0010
0010
0010
,  // measure 69
0200
0000
0000
0000
0000
0000
0000
0002
,  // measure 70
0300
0000
0003
0000
;

//---------------dance-single - ----------------
#NOTES:
     dance-single:
     :
     Hard:
     11:
     0.478418,0.527084,0.189717,0.412429,0.037119,406.000000,383.000000,23.000000,50.000000,0.000000,0.000000,0.478418,0.527084,0.189717,0.412429,0.037119,406.000000,383.000000,23.000000,50.000000,0.000000,0.000000:
// measure 0
0000
0000
0000
0000
,  // measure 1
0000
0000
0000
0000
,  // measure 2
0000
0000
0000
0000
,  // measure 3
0000
0000
0000
0000
,  // measure 4
0011
0000
0001
0000
1000
0010
0100
0001
,  // measure 5
0020
0031
1000
0001
,  // measure 6
1000
0100
0010
0001
1000
0010
1000
0001
,  // measure 7
0100
0010
1000
0010
0100
0000
0001
0000
,  // measure 8
1000
0101
1000
0101
,  // measure 9
0010
1000
0100
1000
0010
1000
0100
1000
,  // measure 10
0002
0013
0001
0100
,  // measure 11
0010
1000
0010
0000
1000
0000
1001
0000
,  // measure 12
0001
0100
0001
0000
0010
0100
1000
0000
,  // measure 13
1000
0100
0010
0000
0001
0000
1000
0000
,  // measure 14
0010
1000
0010
1000
0001
2000
0000
3020
,  // measure 15
0000
0032
0000
0203
0000
1300
0010
0100
,  // measure 16
0002
0000
0013
2000
0000
3020
0000
0032
,  // measure 17
0000
0103
0010
1000
0010
0100
0001
0100
,  // measure 18
0010
0010
1000
1000
0001
0001
0100
0100
,  // measure 19
0020
0000
0130
1001
,  // measure 20
0011
0010
0110
0100
,  // measure 21
1000
0010
0100
0001
0100
0000
0010
0000
,  // measure 22
1000
0000
0001
1000
0010
1000
0001
2000
,  // measure 23
0000
3020
0000
0230
0000
0302
0000
0023
,  // measure 24
0000
1030
0000
0010
0001
0200
0000
0320
,  // measure 25
0000
1030
0000
0001
1000
0001
0010
0200
,  // measure 26
0000
0300
2000
0000
3010
0200
0000
0302
,  // measure 27
0000
0023
0000
1030
0010
0001
0100
0020
,  // measure 28
0000
0030
1001
0000
0001
0100
0010
0100
,  // measure 29
0001
0000
1000
0001
0100
0001
1000
0020
,  // measure 30
0000
0130
0000
0001
0010
0001
0100
0002
,  // measure 31
0000
2003
0000
3010
2000
0000
3200
0000
,  // measure 32
0320
0000
0032
0000
0013
0002
0000
2003
,  // measure 33
0000
3010
0000
1000
0100
1000
0001
2000
,  // measure 34
0000
3010
0000
0110
0000
0101
0000
2002
,  // measure 35
0000
0000
0000
0000
,  // measure 36
0000
0000
0000
3003
,  // measure 37
0101
0000
1000
0010
1000
0000
0010
0100
,  // measure 38
0010
0100
0010
0000
0100
0001
0100
0000
,  // measure 39
0001
0010
0001
0010
0001
0000
1000
0000
,  // measure 40
0100
1000
0100
1000
0100
0000
0110
0000
,  // measure 41
1001
0000
0000
0000
1000
0000
0010
0000
1000
0000
0010
1000
0000
0010
0000
0000
,  // measure 42
0100
0000
0001
0000
0010
0000
0001
0000
0010
0000
0001
0010
0000
0001
0000
0000
,  // measure 43
1000
0100
1000
0100
0010
0001
0010
0000
,  // measure 44
2002
0000
0000
3003
,  // measure 45
1000
0001
0001
0100
0010
0100
0001
2000
,  // measure 46
0000
0000
3010
0000
1000
0000
0100
0000
1000
0000
0010
1000
0000
0000
0001
0000
,  // measure 47
0100
0000
0010
0100
0010
0000
0100
0000
0001
0000
0010
0000
0100
0000
1200
0000
,  // measure 48
0000
0000
1300
0000
0010
0000
0100
0000
0001
0000
0010
0001
0000
0000
1000
0000
,  // measure 49
0010
1000
1000
0001
1000
0010
0100
0001
,  // measure 50
0000
0000
0001
0000
0010
0000
1000
0000
0010
0000
0001
0100
0000
0000
0100
0000
,  // measure 51
0010
0000
1000
0010
1000
0000
0010
0000
0100
0000
0001
0000
0010
0000
0001
0000
,  // measure 52
1000
0010
1000
0000
0010
0000
0110
0000
,  // measure 53
0001
0010
0001
0000
1000
0100
1000
0010
,  // measure 54
1000
0100
1000
0000
0001
0100
0010
0100
,  // measure 55
0001
0000
1000
0010
0100
0010
1000
0001
,  // measure 56
0100
0001
0010
0100
1000
0010
0100
0010
,  // measure 57
2000
0000
3001
0100
0001
0010
0001
0100
,  // measure 58
0010
0000
1000
0000
0010
1000
0100
0010
,  // measure 59
0002
0000
0203
0000
0301
0010
1000
0020
,  // measure 60
0000
0032
0000
0103
0010
0000
1010
0000
,  // measure 61
1100
0000
0110
0000
0010
0001
0100
1000
,  // measure 62
0100
0001
0000
0010
0100
1000
0100
0020
,  // measure 63
0000
0031
0000
0010
1000
0010
0001
0100
,  // measure 64
0000
0110
0000
0000
1001
0000
1100
0000
,  // measure 65
0100
0010
0001
0000
1000
0100
0001
0100
,  // measure 66
1000
0010
1000
0000
0001
0100
1000
0100
,  // measure 67
0001
0000
0010
0000
0100
1000
0010
1000
,  // measure 68
0100
0010
0100
0010
0001
1000
0001
1000
,  // measure 69
0020
0000
0000
0230
,  // measure 70
0302
0000
2000
0000
,  // measure 71
3003
0000
0000
0000
;

//---------------dance-single - ----------------
#NOTES:
     dance-single:
     :
     Challenge:
     13:
     0.540871,0.671125,0.379435,0.503163,0.136102,459.000000,413.000000,46.000000,61.000000,56.000000,0.000000,0.540871,0.671125,0.379435,0.503163,0.136102,459.000000,413.000000,46.000000,61.000000,56.000000,0.000000:
// measure 0
0000
0000
0000
0000
,  // measure 1
0000
0000
0000
0000
,  // measure 2
0000
0000
0000
0000
,  // measure 3
0000
0000
0000
0000
,  // measure 4
1001
0000
1000
0000
0100
1000
0010
1000
,  // measure 5
0200
1300
0010
0100
,  // measure 6
0001
0010
0100
1000
0010
0100
0010
1000
,  // measure 7
0100
0010
1000
0010
0100
0010
0001
0000
,  // measure 8
1000
0001
0101
0000
0100
0010
0110
0000
,  // measure 9
0010
1000
0100
1000
0010
1000
0100
1000
,  // measure 10
0002
0023
0032
0203
,  // measure 11
0310
1000
0010
0100
0001
0010
0011
0000
,  // measure 12
0001
0100
0001
0000
0010
0100
1000
0000
,  // measure 13
1000
0100
0010
0000
0001
0010
0100
0000
,  // measure 14
0100
0010
0001
0000
1000
0010
0100
0000
,  // measure 15
0100
0010
1000
0000
0001
0100
0010
1000
,  // measure 16
0001
1000
0010
1000
0000
0011
0000
1001
,  // measure 17
0000
0100
0010
1000
0010
0100
0001
0100
,  // measure 18
0010
0010
1000
1000
0001
0001
0100
0100
,  // measure 19
0020
0000
0230
0302
,  // measure 20
2003
3020
0230
0302
,  // measure 21
1003
0010
0100
0001
2000
0010
3020
0000
,  // measure 22
2030
0000
3001
1000
0010
1000
0001
2000
,  // measure 23
0000
3020
0000
0230
0000
0302
0000
0023
,  // measure 24
0000
2030
0000
3010
0001
0200
0000
0320
,  // measure 25
0000
2030
0000
3001
1000
0001
0010
0200
,  // measure 26
0000
0310
0002
0000
0103
2000
0000
3200
,  // measure 27
0000
0302
0000
1003
0020
0100
0130
0001
,  // measure 28
2001
0000
3002
0000
0203
1000
2300
0000
,  // measure 29
3200
0000
0310
1000
0100
1000
0001
0020
,  // measure 30
0000
0032
0000
0203
0010
0310
1000
0002
,  // measure 31
0000
2003
0000
3010
2000
0000
3200
0000
,  // measure 32
0320
0000
0032
0000
0013
0002
0000
2003
,  // measure 33
0000
0000
0000
3010
0100
0001
1000
0002
,  // measure 34
0000
0103
0000
0110
0000
0101
0000
2002
,  // measure 35
0000
0000
0000
0000
,  // measure 36
0000
0000
0000
3003
,  // measure 37
0110
0000
0000
0000
0010
0000
0100
0000
0001
0000
1000
0001
0000
1000
0010
0000
,  // measure 38
0100
0000
0100
0000
0010
0100
0010
0000
0010
0000
0100
0010
0000
0100
0001
0000
,  // measure 39
1000
0000
0010
0000
0001
0000
0010
0000
1000
0000
0001
1000
0000
0001
1000
0000
,  // measure 40
0100
1000
0100
0010
0011
0000
0110
0000
,  // measure 41
1001
0000
0000
0000
1000
0000
0010
0000
1000
0000
0010
1000
0000
0010
0000
1000
,  // measure 42
0100
0000
0001
0000
0100
0000
1000
0000
0010
0000
0001
0010
0000
0100
0000
0001
,  // measure 43
1000
0100
0010
0001
0010
0100
1000
0001
,  // measure 44
1001
0110
1001
0110
,  // measure 45
1000
0000
0001
0010
0001
0000
0100
0000
0010
0000
0100
0000
0001
0000
2001
0000
,  // measure 46
0000
0000
3010
0000
1000
0000
0100
0000
1000
0000
0010
0100
0000
0100
0001
0000
,  // measure 47
1000
0000
0010
0100
0010
0000
0001
0000
0010
0000
1000
0000
0100
0000
1200
0000
,  // measure 48
0000
0000
1300
0000
0010
0000
0100
0000
0001
0000
0010
0001
1000
0000
0010
0000
,  // measure 49
1000
0000
0001
1000
0001
0000
0100
0000
0010
0000
1000
0000
0001
0000
2001
0000
,  // measure 50
0000
0000
3001
0000
0010
0000
1000
0000
0010
0000
0001
0100
0000
0001
0100
0000
,  // measure 51
0010
0000
1000
0010
1000
0000
0010
0000
0100
0000
0001
0000
0010
0000
0001
0000
,  // measure 52
1000
0001
1000
0000
1001
0000
1001
0000
1010
0000
0000
0000
0110
0000
0000
0000
,  // measure 53
0100
0001
1000
0000
1000
0100
1000
0010
,  // measure 54
1000
0000
0100
1000
0000
0001
1000
0000
0001
0000
0100
0000
0010
0000
0100
0000
,  // measure 55
0001
0010
1000
0010
0011
0001
0100
1000
,  // measure 56
0100
0001
0010
0110
0100
1000
0100
0110
,  // measure 57
0020
0000
0031
0100
0001
0010
0001
0100
,  // measure 58
0010
0000
1000
0001
0000
1000
0001
0000
0010
0000
0001
0000
0010
0000
0100
0000
,  // measure 59
2000
0100
3200
0000
0301
0100
1000
1002
,  // measure 60
0000
0000
0103
0000
0000
0000
0100
0000
0010
0000
1000
0000
0010
1000
0000
0001
,  // measure 61
1000
0000
0100
0000
0010
0000
0001
0000
0010
0000
0100
1000
0000
0100
1000
0000
,  // measure 62
0100
0000
0001
0000
0100
0000
1000
0000
0010
0000
0001
0010
0000
1000
0020
0000
,  // measure 63
0000
0130
0001
0010
1000
0010
0001
0100
,  // measure 64
0000
0110
0000
0000
1001
MMMM
1100
MMMM
,  // measure 65
0011
MMMM
0110
MMMM
1001
MMMM
1010
MMMM
,  // measure 66
1100
MMMM
0110
MMMM
0011
MMMM
0101
MMMM
,  // measure 67
1010
MMMM
1001
MMMM
0110
MMMM
1001
MMMM
,  // measure 68
1020
0000
0000
0000
,  // measure 69
2000
0000
3030
2002
,  // measure 70
0000
0000
0000
3003
;
