#TITLE:Ha lle lu jah (Ryu Remix);
#SUBTITLE:;
#ARTIST:SOUND HOLIC feat. Nana Takahashi;
#TITLETRANSLIT:;
#SUBTITLETRANSLIT:;
#ARTISTTRANSLIT:;
#GENRE:;
#CREDIT:;
#BANNER:Ha-lle-lu-jah (Ryu Remix).png;
#BACKGROUND:Ha-lle-lu-jah (Ryu Remix)-bg.png;
#LYRICSPATH:;
#CDTITLE:;
#MUSIC:Ha-lle-lu-jah (Ryu Remix).ogg;
#OFFSET:-6.480000;
#SAMPLESTART:61.419991;
#SAMPLELENGTH:15.000000;
#SELECTABLE:YES;
#DISPLAYBPM:155.000000;
#BPMS:0.000000=155.000000
;
#STOPS:
;
#BGCHANGES:;
#KEYSOUNDS:;
#ATTACKS:;

//---------------dance-double - ----------------
#NOTES:
     dance-double:
     :
     Easy:
     4:
     0.168495,0.223751,0.046253,0.061671,0.000000,153.000000,147.000000,6.000000,8.000000,0.000000,0.000000,0.168495,0.223751,0.046253,0.061671,0.000000,153.000000,147.000000,6.000000,8.000000,0.000000,0.000000:
00000000
00000000
00000000
00000000
,
00000000
00000000
00000000
00000000
,
00000000
00000000
00000000
00000000
,
00000000
00000000
00000000
00000000
,
00000000
00000000
00000000
00000000
,
00001000
00000000
00010000
00000000
,
00100000
00000000
01000000
00000000
,
00010000
00000000
10000000
00000000
,
01000000
00000000
00100000
00000000
,
00001000
00000000
00010000
00000000
,
00000010
00000010
00000100
00000000
,
00000001
00000001
00000100
00000000
,
00001000
00001000
00010000
00000000
,
00001000
00000000
00010000
00000000
,
00100000
00000000
10000000
10000000
,
00000000
01000000
01000000
00000000
,
00010000
00000000
00001000
00000000
,
00000100
00000000
00000001
00000000
,
00000010
00000000
00000001
00000001
,
00000001
00000100
00000100
00000100
,
00001000
00000000
00010000
00000000
,
00011000
00000000
00000000
00000000
,
00010000
00000000
00100000
00000000
,
10000000
00000000
01000000
00000000
,
00010000
00001000
00010000
00000000
,
00010000
00001000
00000100
00000000
,
00000001
00000001
00000001
00000000
,
00000100
00000100
00001000
00000000
,
00020000
00000000
01000000
00000000
,
00031000
00000000
00000000
00000000
,
00011000
00000000
00000000
00000000
,
00011000
00000000
00010000
00000000
,
00001000
00000000
00000100
00000000
,
00000001
00000000
00000000
00000000
,
00001010
00000000
00000000
00000000
,
00011000
00000000
00000000
00000000
,
00100000
00000000
00001000
00000000
,
00000010
00000000
00001000
00000000
,
00010000
00000000
01000000
01000000
,
10000000
10000000
00100000
00000000
,
01000000
00000000
00001000
00000000
,
00020000
00000000
01000000
00000000
,
00031000
00000000
00000100
00000100
,
00000001
00000001
00000010
00000000
,
00000100
00000000
00010000
00000000
,
00001000
00000000
00010000
00001000
,
00010000
00000000
00100000
00000000
,
10000000
00000000
01000000
00000000
,
00020000
00000000
00001000
00001000
,
00030010
00000000
00000100
00000000
,
00000001
00000000
00000010
00000010
,
00000001
00000001
00000100
00000100
,
00002000
00000000
00010000
00013000
,
00100000
00100000
01000000
01000000
,
10000000
00000000
01000000
01000000
,
10000000
10000000
00100000
00100000
,
01000000
01000000
00001000
00001000
,
00020000
00000000
00001000
00001000
,
00031000
00000000
00000100
00000100
,
00000001
00000001
00000010
00000010
,
00000100
00000000
00010000
00000000
,
00002000
00000000
00010000
00010000
,
00023000
00000000
01000000
00000000
,
00032000
00000000
00000100
00000000
,
00013000
00000000
00011000
00000000
;

//---------------dance-double - ----------------
#NOTES:
     dance-double:
     :
     Medium:
     9:
     0.285230,0.397009,0.069380,0.061671,0.019272,259.000000,250.000000,9.000000,8.000000,0.000000,0.000000,0.285230,0.397009,0.069380,0.061671,0.019272,259.000000,250.000000,9.000000,8.000000,0.000000,0.000000:
00000000
00000000
00000000
00000000
,
00000000
00000000
00000000
00000000
,
00000000
00000000
00000000
00000000
,
00000000
00000000
00000000
00000000
,
00000000
00000000
00000000
00000000
,
00000000
00000000
00000000
00000000
,
00100000
10000000
01000000
00010000
,
00001000
00000000
00000100
00000000
00000001
00000010
00001000
00000000
,
00010000
01000000
10000000
00100000
,
00010000
00002000
00000100
00013000
,
00001000
00010000
00000100
00001000
,
00010000
00000000
01000000
00000000
10000000
00100000
00010000
00000000
,
00001000
00000100
00000001
00000010
,
00001000
00020000
01000000
00031000
,
00010000
00001000
00010000
00000000
00001000
00000000
00010000
00000000
,
00001000
00000010
00000001
00000100
,
00001000
00000000
00010000
00001000
00000000
00000100
00000000
00000001
,
00000000
00000000
00000010
00000001
00001000
00000000
00000000
00000000
,
00000010
00000001
00000100
00001000
,
00010000
00100000
10000000
01000000
,
00010000
00000000
00001000
00010000
00000000
01000000
00000000
10000000
,
00000000
00000000
00000000
00000000
,
01000000
10000000
00100000
00000000
00010000
00000000
00011000
00000000
,
00000010
00001000
00000100
00000000
00010000
00000000
00001000
00000000
,
00010000
00001000
00100000
00000000
00001000
00000000
00000100
00000000
,
00000010
00000011
00001000
00000011
,
00000100
00000001
00000010
00000000
00001000
00000000
00010000
00000000
,
00001000
00010000
00001000
00000000
00010000
00000000
00100000
00000000
,
01000000
00000000
00000000
00010000
00000000
00000000
00100000
00000000
00010000
00000000
00000000
10000000
00000000
00000000
01000000
00000000
,
00010000
00000000
00000000
00001000
00010000
00001000
00010000
00001000
,
00000200
00000000
00000001
00000000
,
00000301
00000000
00000000
00000001
00000100
00001000
00010000
00000000
,
02000000
00000000
10000000
00000000
,
13000000
00000000
00000000
00000000
00000000
00100000
00010000
00001000
,
00011000
00000000
00001000
00010000
00000000
00001000
00000100
00000010
,
00000110
00000000
00000000
00000010
00000100
00001000
00010000
00001000
,
00011000
00000000
00000000
00010000
00001000
00000000
00000000
00000100
,
00001000
00000000
00000000
00010000
01000000
00000000
00100000
00000000
,
00000000
00000000
00000000
00000000
00100000
10000000
01000000
00000000
,
00010000
00002000
00000100
00013000
,
01000000
00000000
10000000
00100000
00000000
00010000
00001000
00000000
,
00010000
00000000
00001000
00010000
00000000
00001000
00000100
00000000
,
00000001
00000000
00000000
00000000
00000010
00000001
00000100
00000000
,
00001000
00020000
01000000
00031000
,
00000100
00000000
00000001
00000010
00000000
00000001
00000100
00000000
,
00001000
00000000
00010000
00100000
00000000
01000000
00100000
00000000
,
01100000
00000000
00100000
10000000
,
01000000
00010000
00001000
00000100
,
00000001
00000000
00000001
00000100
,
00001000
00000000
00000000
00010000
00000000
00000000
00000000
00000000
00000100
00000000
00000000
00000000
00001000
00000000
00000000
00000000
,
00100000
00000000
00000000
00001000
00000000
00000000
00000000
00000000
00000010
00000000
00000000
00000000
00001000
00000000
00000000
00000000
,
00000100
00000000
00010000
00001000
00010000
00000000
01000000
00000000
,
10000000
10000000
00100000
00010000
,
00001000
00000000
00000000
00001000
00000000
00000000
00000000
00000000
00000100
00000000
00000000
00000000
00000001
00000000
00000000
00000000
,
00001001
00000000
00000000
00000000
00000010
00000001
00000100
00000000
,
00001000
00020000
01000000
00031000
,
00000100
00000000
00000001
00000010
00000000
00001000
00010000
00000000
,
00001000
00000000
00010000
00001000
00000000
00010000
01000000
00000000
,
10000000
00000000
00000000
00000000
00100000
10000000
01000000
00000000
,
00010000
00002000
00000100
00013000
,
01000000
00000000
10000000
00100000
00000000
10000000
01000000
00000000
,
00010000
00000000
00001000
00000010
00000000
00000100
00000010
00000000
,
00000110
00000000
00000010
00000001
,
00000100
00001000
00010000
01000000
,
10000000
00000000
00010000
00100000
00000000
00000000
00000000
00000000
;

//---------------dance-double - ----------------
#NOTES:
     dance-double:
     :
     Hard:
     12:
     0.411876,0.421822,0.238976,0.053962,0.088652,374.000000,343.000000,31.000000,7.000000,0.000000,0.000000,0.411876,0.421822,0.238976,0.053962,0.088652,374.000000,343.000000,31.000000,7.000000,0.000000,0.000000:
00000000
00000000
00000000
00000000
,
00000000
00000000
00000000
00000000
,
00000000
00000000
00000000
00000000
,
00000000
00000000
00000000
00000000
,
00000000
00000000
00000000
00000000
,
00000000
00000000
00000000
00000000
,
01000000
00000000
10000000
00000000
00100000
00000000
00000000
00010000
00000000
00000000
00001000
00000000
00000010
00000000
00000001
00000000
,
00000100
00000000
00001000
00000000
00010000
00000000
00000000
00100000
00000000
00000000
00010000
00000000
00001000
00000000
00010000
00000000
,
00001000
00000000
00000100
00000000
00000001
00000000
00000000
00000010
00000000
00000000
00001000
00000000
00010000
00000000
01000000
00000000
,
10000000
00100000
00010000
00000000
00001000
00000000
00011000
00000000
,
00000100
00000000
00000001
00000000
00000010
00000000
00000000
00001000
00000000
00000000
00010000
00000000
00100000
00000000
10000000
00000000
,
01000000
00000000
00010000
00000000
00001000
00000000
00000000
00000010
00000000
00000000
00001000
00000000
00010000
00000000
00001000
00000000
,
00010000
00000000
01000000
00000000
10000000
00000000
00000000
00100000
00000000
00000000
00010000
00000000
00001000
00000000
00000100
00000000
,
00000001
00000010
00000001
00000100
00001000
00010000
00001000
00000000
,
00010000
00100000
10000000
01000000
11000000
00000000
00010000
00001000
,
00000100
00000001
00000101
00000000
00000001
00000010
00001000
00010000
,
01000000
00000000
10000000
01000000
00000000
00010000
00000000
01100000
,
00000000
00000000
10000000
00100000
00000000
00010000
00000000
00000000
,
00001000
00000010
00000001
00000100
00000101
00000000
00001000
00010000
,
01000000
10000000
11000000
00000000
01000000
00010000
00001000
00000010
,
00000001
00000000
00000100
00000010
00000000
00000100
00000000
00001001
,
00000000
00000000
00001100
00011000
,
01000000
00000000
10000000
00000000
01000000
00000000
00010000
00000000
00001000
00000000
00000000
00010000
00000000
00000000
00001000
00000000
,
00000100
00000000
00000001
00000000
00000010
00000000
00000100
00000000
00010000
00000000
00000000
00001000
00000000
00000000
00010000
00000000
,
01000000
00000000
10000000
00000000
00100000
00000000
00010000
00000000
00001000
00000000
00010000
00001000
00000000
00000000
00000100
00000000
,
00000110
00000000
00000000
00000010
00000000
00000000
00000100
00000000
00001000
00000000
00000000
00000100
00000000
00000000
00000001
00000000
,
00000010
00000000
00000001
00000000
00000100
00000000
00000010
00000000
00010000
00000000
00000000
00001000
00000000
00000000
00010000
00000000
,
01000000
00000000
10000000
00000000
00100000
00000000
01000000
00000000
00010000
00000000
00000000
00100000
00000000
00000000
00001000
00000000
,
00000100
00000000
00000000
00000001
00000000
00000000
00000010
00000000
00001000
00000000
00000000
00020000
00000000
00000000
00001000
00000000
,
00031000
00000000
00000000
00100000
00010000
01000000
00010000
00100000
,
00002000
00000000
00000010
00000000
,
00013000
00000000
00000000
00000010
00010000
00000100
00001000
00000100
,
00020000
00000000
00100000
00000000
,
00031000
00000000
00000000
00000000
00000000
00010000
00001000
00010000
,
00011000
00000000
00001000
00010000
00000000
00001000
00010000
01000000
,
10000000
00000000
00000000
00100000
00010000
00001000
00010000
00001000
,
00000100
00000000
00000000
00000010
00000100
00000000
00000000
00000001
,
00000100
00000000
00000000
00001000
00000000
00000000
00010000
00001000
00010000
00000000
00000000
00000000
00011000
00000000
00000000
00000000
,
00000000
00000000
00011000
00110000
,
10100000
00000000
11000000
00000000
01000000
00010000
00001000
00000000
,
00000010
00000001
00000010
00001000
00000000
00010000
00100000
10000000
,
01000000
00010000
00001000
00010000
00000000
00001000
00000010
00001000
,
00010000
00000000
00011000
01010000
,
11000000
00000000
10100000
00000000
00010000
00001000
00010000
00000000
,
00001000
00000010
00000001
00000010
00000000
00001000
00010000
00000100
,
00000001
00000100
00001000
00000010
00000000
00000001
00000010
00001000
,
00010000
00000000
01010000
00000000
00100000
10000000
01000000
00010000
,
00001000
00000000
00010000
00001000
00010000
00000000
00001000
00000000
00020000
00000000
00000000
00000000
01030000
00000000
00000000
00000000
,
00002000
00003100
00000101
00001010
,
00000001
00000010
00001000
00010000
00100000
10000000
01000000
00010000
,
00001000
00000000
00000000
00000110
00000000
00000000
00000000
00000000
00000010
00000000
00000001
00000000
00000100
00000000
00001000
00000000
,
00010000
00000000
01000000
10000000
01000000
00000000
00000000
00000000
00200000
00000000
00000000
00000000
00310000
00000000
00000000
00000000
,
00002000
00013000
00011000
01010000
,
10000000
00100000
00010000
00001000
00010000
00001000
00000100
00001000
,
00011000
00000000
00100000
00011000
,
00000010
00000100
00000001
00000000
00000010
00001000
00010000
00000000
,
01000000
10000000
00100000
00010000
00000000
00001000
00000010
00000001
,
00000100
00001000
00010000
00001000
00000000
00010000
00100000
00010000
,
00011000
00000000
00001100
00000000
00000001
00000010
00001000
00010000
,
00100000
00010000
00001000
00000000
00100000
01000000
10000000
00000000
,
01000000
00010000
00001000
00000010
00000000
00001000
00010000
00100000
,
00010000
00001000
00000100
00000010
00000000
00000001
00000010
00001000
,
00010000
00000000
00000000
00000000
00000000
00000000
00000000
00000000
10000000
00000000
01000000
00000000
00010000
00000000
00000000
00001000
,
00000000
00000000
00000010
00000000
00000011
00000000
00000000
00000000
00000001
00000000
00000100
00000000
00001000
00000000
00000000
00010000
,
00000000
00000000
00100000
00000000
10000000
00010000
10000000
00000000
00000000
00000000
00000000
00000000
00000000
00000000
00000000
00000000
;

//---------------dance-single - ----------------
#NOTES:
     dance-single:
     :
     Beginner:
     3:
     0.155280,0.205057,0.000000,0.084798,0.000000,141.000000,141.000000,0.000000,11.000000,0.000000,0.000000,0.155280,0.205057,0.000000,0.084798,0.000000,141.000000,141.000000,0.000000,11.000000,0.000000,0.000000:
0000
0000
0000
0000
,
0000
0000
0000
0000
,
0000
0000
0000
0000
,
1000
1000
0000
0000
,
0010
0010
0000
0000
,
0100
0100
0000
0000
,
0001
0001
0000
0000
,
1000
1000
0000
0000
,
0010
0010
0000
0000
,
0100
0100
0000
0000
,
0001
0001
0000
0000
,
1000
0000
0001
0000
,
1000
0000
0010
0000
,
1000
0000
0000
0000
,
0001
0000
0010
0000
,
0001
0000
0100
0000
,
0001
0000
1000
0000
,
0001
0000
0010
0000
,
0001
0000
1000
0000
,
0100
0000
1000
0000
,
0010
0000
1000
0000
,
0100
0000
0010
0000
,
0001
0000
0100
0000
,
0010
0000
1000
0000
,
0010
0000
0100
0000
,
0001
0000
0010
0000
,
0100
0000
0000
0000
,
2000
0000
0000
0000
,
3002
0000
0000
0000
,
0023
0000
0000
0000
,
0230
0000
1000
0000
,
2300
0000
0000
0000
,
3002
0000
0000
0000
,
2003
0000
3002
0000
,
2003
0000
3002
0000
,
0203
0000
0000
0000
,
0310
0010
0000
0000
,
1000
1000
0000
0000
,
0001
0001
0000
0000
,
0100
0000
0010
0010
,
0000
0000
1000
1000
,
0000
0000
0001
0001
,
0000
0000
0100
0100
,
0100
0000
0010
0010
,
0010
0000
1000
0000
,
0001
0000
1000
0000
,
0001
0000
0100
0000
,
0010
0000
0100
0000
,
0001
0000
1000
0000
,
0001
0000
1000
0000
,
0010
0000
0100
0000
,
0010
0000
1000
0000
,
0001
0000
1000
0000
,
0001
0000
1000
0000
,
0010
0000
0100
0000
,
0001
0000
0010
0000
,
0100
0000
1000
0000
,
0001
0000
1000
0000
,
0001
0000
1000
0000
,
0010
0000
0100
0000
,
0001
0000
1000
0000
,
0001
0001
0001
0000
,
1000
0000
0100
0000
,
1000
0000
0010
0000
,
0100
0000
0001
0000
,
1000
0000
0001
0000
,
1000
0000
0001
0000
,
1000
0000
0001
0000
,
0010
0000
0001
0000
,
0010
0000
0001
0000
,
0100
0000
0010
0000
,
1000
0000
0100
0000
,
0010
0000
0001
0000
,
1000
0000
0001
0000
,
1000
0000
0100
0000
,
1000
0000
0000
0000
,
0001
0000
0000
0000
;

//---------------dance-single - ----------------
#NOTES:
     dance-single:
     :
     Easy:
     5:
     0.251090,0.322232,0.015418,0.223558,0.000000,228.000000,226.000000,2.000000,29.000000,0.000000,0.000000,0.251090,0.322232,0.015418,0.223558,0.000000,228.000000,226.000000,2.000000,29.000000,0.000000,0.000000:
0000
0000
0000
0000
,
0000
0000
0000
0000
,
0000
0000
0000
0000
,
0001
0001
1000
1000
,
0010
0010
0100
0100
,
0001
0001
1000
1000
,
0010
0010
0101
0101
,
1000
1000
0001
0001
,
1000
1000
0010
0010
,
0100
0100
0001
0001
,
1000
1000
0000
0000
,
0010
0100
0010
1000
,
0010
0100
0010
0001
,
0010
0000
0100
0000
,
0010
1000
0020
0030
,
0100
0001
0200
0300
,
0001
0010
0001
1000
,
0200
1300
0100
0000
,
0010
0000
0001
0000
,
1000
0001
2000
3000
,
0010
0100
0020
0030
,
1000
0001
0200
0300
,
0002
0003
0020
0030
,
0100
1000
0200
0300
,
0010
0001
0200
0300
,
0020
0030
2000
3000
,
0002
0003
1000
0001
,
2000
0000
3020
0000
,
0230
0000
0301
1000
,
0002
0000
2003
0000
,
3020
0000
1030
0100
,
0020
0000
0032
0000
,
0203
0000
0320
0000
,
2030
0000
3002
0000
,
2003
0000
3020
0000
,
0130
0100
0001
0001
,
1000
1000
0010
0100
,
0010
1000
0001
0100
,
0001
1000
0010
1000
,
0002
0003
0100
0010
,
1000
0010
0100
0001
,
0010
0100
1000
0100
,
0010
0001
1000
0001
,
2000
3000
0010
0010
,
0100
0100
0001
0001
,
1000
0000
0010
0010
,
1000
1000
0100
0100
,
0001
0000
0100
1000
,
0010
0000
0001
0010
,
1000
0000
0100
0001
,
0100
0000
1000
0001
,
1000
0000
0001
0000
,
0010
0001
0010
0000
,
0001
0100
0001
0000
,
1000
0100
1000
0000
,
0010
0100
0010
0000
,
1000
0100
1000
0000
,
0001
0010
0001
0000
,
0100
0010
0100
0000
,
0001
1000
0001
0000
,
1000
0100
1000
0000
,
0100
0100
0100
0000
,
0010
0001
0010
0000
,
0100
1000
0100
0000
,
0010
0001
0010
0000
,
0001
0001
0001
0000
,
0100
0010
0100
0000
,
0010
1000
0010
0000
,
1000
0001
1000
0000
,
0001
1000
0000
0001
,
1000
0000
0010
0100
,
0000
0010
0100
0000
,
0001
0010
0001
0000
,
1000
0100
1000
0000
,
0010
0100
0010
0000
,
0100
0001
0100
0000
,
0001
0000
0000
0000
;

//---------------dance-single - ----------------
#NOTES:
     dance-single:
     :
     Medium:
     11:
     0.376635,0.523821,0.208141,0.115634,0.000000,342.000000,315.000000,27.000000,15.000000,0.000000,0.000000,0.376635,0.523821,0.208141,0.115634,0.000000,342.000000,315.000000,27.000000,15.000000,0.000000,0.000000:
0000
0000
0000
0000
,
0000
0000
0000
0000
,
0000
0000
0000
0000
,
1000
0100
1000
0010
,
0100
0001
0010
0001
,
1000
0100
1000
0010
,
0100
0001
1001
0110
,
0001
0100
0001
0010
,
0100
1000
0100
1000
,
0010
0100
0001
0010
,
0001
0000
1000
0000
0100
1000
0100
0000
,
0010
0000
0001
0000
1000
0000
0001
1000
,
0001
1000
0010
0100
,
0010
0000
1000
0100
0000
0100
0000
0100
,
0000
0100
0000
1000
0000
0010
0000
0000
,
0100
0001
0100
0001
0100
0000
0010
0000
,
1000
0100
1000
0001
,
0100
0000
0001
0100
0000
0100
0000
0100
,
0000
0000
0010
1000
,
0100
0000
1000
0000
0001
0100
0000
0100
,
0010
0000
1000
0000
0100
1000
0000
1000
,
0100
0000
0010
0000
0001
0100
0000
0100
,
0001
1000
0010
1000
,
0010
0000
0100
0000
0001
0100
0001
0000
,
1000
0000
0100
0000
1000
0100
1000
0000
,
0010
0100
0001
0010
,
0002
0000
2003
3200
,
0320
0000
0032
0000
,
2003
0000
3100
0010
,
0002
0000
0203
0000
,
0320
0000
1030
0100
,
1000
0001
1000
0002
0000
0013
0001
0010
,
0001
1000
0100
1000
,
0020
0000
0230
0000
,
0302
0000
2003
0000
,
3001
0010
0001
0100
,
0010
1000
0010
0000
1000
0100
1000
0000
,
0001
0100
0001
0100
0000
0010
1000
0000
,
0100
0010
0001
1000
,
1001
0010
0100
0010
,
0100
0010
0100
0000
0010
1000
0010
0000
,
1000
0001
0100
0001
,
1000
0010
1000
0100
,
1000
0001
0010
0001
,
0100
0010
1000
0100
,
0010
0001
1000
0001
,
0100
0001
0010
0100
,
1000
1010
0010
0100
,
0001
0010
0001
1000
,
1100
0010
0110
0010
,
0001
0010
0100
1000
,
1001
0001
0100
0010
,
1000
0010
0100
0001
,
0010
0001
0010
0001
0000
1000
0000
0000
,
0100
1000
0100
0010
,
0001
0000
1000
0000
0100
1000
0100
1000
,
0010
0100
0001
0010
,
0001
1000
0100
1000
,
0010
0100
0001
0010
,
0001
1000
0100
1000
,
0010
0100
0101
0101
,
0101
0001
0010
0010
,
1000
1000
0010
0001
,
0001
0100
1000
0000
0100
0000
0001
0000
,
0010
1000
1010
1010
,
0011
0000
0001
0000
0100
1000
0100
1000
,
0100
1000
0100
0000
0001
0010
0001
0010
,
0001
0100
1001
1001
,
1001
1001
0110
0110
,
1001
1001
1100
0110
,
0011
0110
1100
1001
,
0001
0100
0001
0000
0100
0010
1000
0010
,
0100
0001
0010
0000
0100
1000
0100
0000
,
1000
0001
1000
0010
0000
0100
0010
1000
,
0010
0100
0001
0010
0000
0100
1000
0010
,
0200
0000
0300
0000
;

//---------------dance-single - ----------------
#NOTES:
     dance-single:
     :
     Hard:
     13:
     0.607903,0.611124,0.262103,0.269812,0.215850,552.000000,518.000000,34.000000,35.000000,0.000000,0.000000,0.607903,0.611124,0.262103,0.269812,0.215850,552.000000,518.000000,34.000000,35.000000,0.000000,0.000000:
// measure 0
0000
0000
0000
0000
,  // measure 1
0000
0000
0000
0000
,  // measure 2
0000
0000
0000
0000
,  // measure 3
0001
0000
0000
0010
0001
0000
1000
0000
0100
0000
0000
1000
0010
0000
0100
0000
,  // measure 4
0010
0000
0000
0100
0001
0000
0010
0000
0001
0000
0000
1000
0001
0000
1000
0000
,  // measure 5
0100
0000
0000
1000
0010
0000
0100
0000
0001
0000
0000
0100
0001
0000
0010
0000
,  // measure 6
0001
0000
0000
0010
0100
0000
1000
0000
1100
0000
0000
0000
0011
0000
0000
0000
,  // measure 7
0001
0100
1000
0100
0000
0001
0010
1000
,  // measure 8
0000
0010
0001
0100
0000
0010
1000
0100
,  // measure 9
0000
0010
0001
0100
0000
0010
1000
0100
,  // measure 10
0010
0001
0010
0000
0001
0000
0100
0000
0010
0000
1000
0000
0100
0000
1000
0000
,  // measure 11
0001
0100
1000
0100
0001
0000
0010
1000
,  // measure 12
0010
0001
0100
0000
0010
1000
0100
1000
,  // measure 13
0002
0000
0013
0001
0100
0020
0000
1030
,  // measure 14
0002
0000
0103
1000
0100
0001
0010
0100
,  // measure 15
1000
0010
0100
0010
2000
0000
3001
1000
,  // measure 16
0100
1000
0020
0000
0130
0001
0010
0100
,  // measure 17
2000
0000
3010
0100
0001
0020
0000
0032
,  // measure 18
0100
0103
0010
1000
1010
0100
0001
0010
,  // measure 19
0100
0000
0001
0000
0100
0000
1000
0000
0010
0000
0000
0010
0000
0000
0100
0000
,  // measure 20
0001
0000
1000
0000
0001
0000
0010
0000
0001
0000
0000
1001
0000
0000
1000
0000
,  // measure 21
0010
0000
0001
0000
0010
0000
1000
0000
0100
0000
0000
0110
0000
0000
0010
0000
,  // measure 22
0001
0000
0000
1001
0000
0000
1000
0000
0100
0000
0000
0101
0000
0000
0001
0000
,  // measure 23
0100
0000
1000
0000
0010
0000
1000
0000
0100
0000
0010
0001
0010
0000
0001
0000
,  // measure 24
0100
0000
0010
0000
1000
0000
0100
0000
1000
0000
0001
1000
0001
0000
0100
0000
,  // measure 25
0010
0000
0000
0110
0000
0000
0010
0000
0100
0000
0000
1100
0000
0000
0100
0000
,  // measure 26
0002
0000
0000
0000
0013
0100
0010
0001
,  // measure 27
2000
0000
0100
0000
3100
0001
0100
1000
,  // measure 28
0020
0000
0130
0001
0100
0010
1000
0100
,  // measure 29
0020
0000
0001
0000
0032
0000
1000
1000
,  // measure 30
0103
0010
0001
0100
0010
1000
0100
1000
,  // measure 31
0010
0100
0001
0010
0001
0100
0010
0100
,  // measure 32
0001
0010
1000
0010
0001
0100
1000
0100
,  // measure 33
0001
1000
0001
0000
0100
0000
0010
0000
1000
0100
1000
0000
0001
0000
0010
0000
,  // measure 34
0001
0100
0001
0000
1000
0000
0010
1000
0020
0000
0000
0000
0000
0000
0000
0000
,  // measure 35
0130
0001
0100
0000
0001
0000
0100
0000
0010
0000
1000
0000
0100
0000
0001
0000
,  // measure 36
0100
1000
0000
1000
0010
0000
0000
0000
1000
0001
0000
1000
0001
0000
0000
0000
,  // measure 37
0100
0010
1000
0002
0000
0013
1000
0001
,  // measure 38
0100
0001
0010
0200
0000
1300
0010
0100
,  // measure 39
0010
0001
0010
0000
1000
0001
0100
0001
,  // measure 40
0010
0100
0000
0100
0020
0000
0000
0000
0031
0000
1000
0000
1020
0000
0000
0000
,  // measure 41
1030
0100
0001
0201
0000
1300
0010
0100
,  // measure 42
0010
0001
0010
0210
0000
0301
1000
0010
,  // measure 43
1000
0000
0100
0000
0010
0000
0001
0000
1000
0000
0000
1000
0000
0000
0010
0000
,  // measure 44
0100
0000
0000
0100
0000
0000
0001
0000
1000
0000
0000
1010
0000
0000
0010
0000
,  // measure 45
0100
0000
0000
0101
0000
0000
0001
0000
0010
0000
0000
1010
0000
0000
1000
0000
,  // measure 46
0010
0000
0000
0011
0000
0000
0001
0000
0100
0000
0000
0110
0000
0000
0010
0000
,  // measure 47
1000
0000
0000
1100
0000
0000
0100
0000
0010
0000
0001
0000
0000
0000
1000
0000
,  // measure 48
0010
0000
0000
1000
0000
0000
0001
0000
0100
0000
0000
0001
0000
0000
0010
0000
,  // measure 49
1000
0000
0000
0010
0000
0000
0001
0000
0100
0010
0100
0000
0010
0000
1000
0000
,  // measure 50
0100
0000
0000
0110
0000
0000
0010
0000
0001
0000
0000
1001
0000
0000
1000
0000
,  // measure 51
0100
0010
0100
0010
0100
0000
1000
0000
0001
0000
0010
0000
0001
0000
0100
0000
,  // measure 52
0010
1000
1010
0000
0001
0100
1000
0000
,  // measure 53
0100
0001
0010
0200
0000
1300
0010
0100
,  // measure 54
0001
0100
0010
2000
0000
3100
0001
0100
,  // measure 55
1000
0000
0010
1000
0010
0000
0100
0000
0001
0000
0010
0000
0001
0000
0100
0000
,  // measure 56
0010
1000
1001
0000
0001
0100
0101
0000
,  // measure 57
0010
1000
0010
0002
0000
0103
0010
1000
,  // measure 58
0010
0100
0001
0020
0000
0130
1000
0010
,  // measure 59
0002
0000
1003
0000
0010
1000
0001
1000
,  // measure 60
0010
0000
0100
0001
0100
0000
0001
0000
0011
0000
0000
0000
0110
0000
0000
0000
,  // measure 61
2200
0000
3300
0000
0001
1000
0100
1000
,  // measure 62
0010
0000
0100
0001
0100
0000
0010
0000
1000
0000
0100
1000
0100
0000
0001
0000
,  // measure 63
0100
0000
0000
1000
0000
0000
0010
0000
0100
0000
0001
0000
0100
0000
0010
0000
,  // measure 64
1000
0000
0001
1000
0001
0000
0100
0000
0110
0000
0000
0000
1010
0000
0000
0000
,  // measure 65
1001
0000
0000
0001
0100
0000
0010
0000
0100
0000
0001
0000
0010
0000
0100
0000
,  // measure 66
1000
0000
0010
1000
0001
0000
0100
0000
0010
0000
0010
0000
1000
0000
1000
0000
,  // measure 67
1001
0000
0202
0303
1001
1000
0010
0100
,  // measure 68
0001
0010
0001
0000
0100
0000
0000
0000
0010
1000
0010
0000
0200
0000
0000
0000
,  // measure 69
0301
1000
0010
2000
0000
3100
0010
1000
,  // measure 70
0010
0001
0100
0020
0000
0130
0001
0010
,  // measure 71
0001
1000
0001
0000
0011
0000
0000
0000
0100
0000
1000
0000
0001
0000
1000
0000
,  // measure 72
0010
1000
0100
0000
0010
0001
0201
0000
,  // measure 73
0301
0100
1000
0200
0000
0301
0010
1000
,  // measure 74
0010
0001
1000
0020
0000
0130
0001
0010
,  // measure 75
0001
0000
1000
0001
1000
0000
0010
0000
0100
0000
0000
0000
0000
0000
0000
0000
;

//---------------dance-single - ----------------
#NOTES:
     dance-single:
     :
     Challenge:
     16:
     0.799524,0.814832,0.377737,0.208141,0.662966,726.000000,677.000000,49.000000,27.000000,0.000000,0.000000,0.799524,0.814832,0.377737,0.208141,0.662966,726.000000,677.000000,49.000000,27.000000,0.000000,0.000000:
// measure 0
0000
0000
0000
0000
,  // measure 1
0000
0000
0000
0000
,  // measure 2
0000
0000
0000
0000
,  // measure 3
0011
0000
0000
0010
0001
0000
1000
0000
1100
0000
0000
1000
0010
0000
0100
0000
,  // measure 4
0110
0000
0000
0100
0001
0000
0010
0000
1001
0000
0000
1000
0001
0000
1000
0000
,  // measure 5
1100
0000
0000
0100
0010
0000
0001
0000
0101
0000
0000
0100
0001
0000
0010
0000
,  // measure 6
0011
0000
0000
0010
0100
0000
1000
0000
1100
0000
0100
0000
0011
0000
0001
0000
,  // measure 7
1000
0000
0100
0001
0100
0000
1000
0000
0001
0000
0010
0001
0010
0000
0100
0000
,  // measure 8
1000
0000
0010
0100
0010
0000
0100
0000
0001
0000
0010
1000
0010
0000
0100
0000
,  // measure 9
1000
0000
0001
0010
0001
0000
0100
0000
0001
0000
0010
1000
0010
0000
0001
0000
,  // measure 10
1000
0100
1000
0100
0010
0001
0010
0001
1000
0001
1000
0001
0100
0010
0100
0010
,  // measure 11
1000
0000
0001
1000
0001
0000
0100
0000
0010
1000
0010
0000
1000
0000
0001
1000
,  // measure 12
0001
0000
0100
0000
0001
0010
0001
0000
0010
0000
0100
0001
0100
0000
0010
0000
,  // measure 13
0021
0000
0000
0000
0031
0000
1000
0100
1000
0000
2001
0000
0000
0000
3100
0000
,  // measure 14
0012
0000
1003
0100
0001
0100
0010
0100
,  // measure 15
1000
0010
1000
0000
0100
0010
0100
0000
0010
0000
0001
0000
1000
0001
1000
0000
,  // measure 16
0100
1000
0100
0000
0020
0000
0000
0000
0031
0000
0010
0000
0100
0000
1000
0000
,  // measure 17
0002
0000
0000
0000
1003
0000
0010
0100
0010
0000
2000
0000
0000
0000
3002
0000
,  // measure 18
0100
0103
0010
1000
1001
0100
0001
0010
,  // measure 19
0100
0010
0100
0000
0100
1000
0100
0000
0010
0001
0000
0010
0001
0000
0100
0000
,  // measure 20
0001
1000
0001
0000
0001
0100
0001
0000
1000
0010
0000
1000
0100
0000
1000
0000
,  // measure 21
0010
0001
0010
0000
0010
1000
0010
0000
0100
0001
0000
0001
0010
0000
0010
0000
,  // measure 22
0100
1000
0000
1000
0001
0000
1000
0000
0100
0010
0000
0001
0010
0000
0001
0000
,  // measure 23
0100
0010
0100
0000
0100
0010
0100
0000
0001
0000
0010
0001
0010
0000
0001
0000
,  // measure 24
1000
0100
1000
0000
1000
0100
1000
0000
0010
0000
0100
0001
0100
0000
0010
0000
,  // measure 25
1000
0100
0000
1000
0001
0000
0010
0000
0100
1000
0000
0001
1000
0000
0100
0000
,  // measure 26
0020
0000
0000
0000
0031
1000
0010
1000
,  // measure 27
0200
0000
0010
0000
0310
0001
0010
1000
,  // measure 28
0020
0000
0000
0000
0130
0000
0001
0000
0100
1000
0010
0000
0100
0000
0001
0000
,  // measure 29
0021
0000
1000
0000
0032
0000
1000
1000
,  // measure 30
0103
0010
0001
0100
0010
1000
0100
1000
,  // measure 31
0010
0100
0010
0000
1000
0000
0001
0010
0001
0000
1000
0000
0010
1000
0010
0000
,  // measure 32
0010
0001
0010
0000
1000
0000
0010
0100
0010
0000
0100
0000
0001
0000
0100
0000
,  // measure 33
0001
1000
0001
0000
0100
0000
0010
0000
1000
0100
1000
0000
0001
0000
0010
0000
,  // measure 34
0001
0100
0001
0000
1000
0000
0010
1000
0001
0100
0001
0100
0001
0100
0001
0100
,  // measure 35
0001
0000
1000
0100
1000
0100
0010
0001
0010
0000
0001
0000
0100
0000
1000
0000
,  // measure 36
0100
0000
0001
1000
0001
0000
0000
0000
0100
0000
0010
1000
0001
0000
0000
0000
,  // measure 37
1000
0000
0010
0000
0100
0000
0001
0010
0001
0000
0010
0000
0100
1000
0001
0000
,  // measure 38
0100
0000
0001
0000
0010
0000
0100
1000
0100
0000
1000
0000
0010
0000
0100
0001
,  // measure 39
0010
0000
0001
0000
0011
0000
0000
0000
1000
0000
0001
0000
0100
0001
1000
0000
,  // measure 40
0010
1000
0100
0000
0110
0000
0000
0000
0001
1000
0100
0000
1000
0001
0010
0000
,  // measure 41
1000
0000
0010
0000
0001
0000
0100
0010
1000
0000
0001
0000
1000
0001
0100
0000
,  // measure 42
0010
0000
1000
0000
0010
0000
0100
0001
0010
0000
0001
0000
1000
0000
0010
0000
,  // measure 43
1000
0100
1000
0100
0010
0001
0010
0001
1000
0000
0000
1010
0000
0000
0010
0000
,  // measure 44
0110
0000
0000
0101
0000
0000
0001
0000
1001
0000
0000
1010
0000
0000
0010
0100
,  // measure 45
0001
0000
0000
0101
0000
0000
0001
0000
0011
0000
0000
1010
0000
0000
0100
0000
,  // measure 46
1100
0000
0000
0011
0000
0000
0001
0000
0101
0000
0000
0110
0000
0000
1010
0000
,  // measure 47
1100
0000
0000
0000
1100
0000
0100
0000
0010
0001
0000
0001
0100
0000
0010
0000
,  // measure 48
1000
0001
0000
0001
0100
0000
0010
0000
1000
0100
0000
0010
0001
0000
0010
0000
,  // measure 49
1000
0010
0000
0001
0100
0000
1000
0000
0100
0010
0000
1000
0010
0000
0100
0000
,  // measure 50
0101
0000
0000
0011
0000
0000
0110
0000
1100
0000
0000
1001
0000
0000
1001
0000
,  // measure 51
0001
0010
0100
1000
0010
1000
0001
0000
0100
0000
0010
1000
0001
0000
0100
0000
,  // measure 52
0010
0000
1000
0000
1010
0000
0000
0000
0001
0000
0100
0010
1000
0000
0001
0000
,  // measure 53
0100
0001
0010
0000
0001
0000
0100
0010
1000
0000
0001
0000
0010
0100
0001
0000
,  // measure 54
0001
0100
1000
0000
0001
0000
2001
0000
0000
0000
3010
0000
0100
0001
1000
0000
,  // measure 55
0001
0000
0010
1000
0010
0000
0001
0000
1000
0000
0010
0001
0010
0000
1000
0000
,  // measure 56
0010
0100
0010
0100
0001
0000
1000
0000
0001
0010
0001
0010
0001
0000
0100
0000
,  // measure 57
0010
0000
1000
0001
0010
0001
2000
0000
0000
0000
3100
0000
0010
0001
0010
0000
,  // measure 58
0010
1000
0010
0000
0001
1000
0020
0000
0000
0000
0130
0000
0001
0010
0001
1000
,  // measure 59
0002
0000
1003
0000
0100
0010
0001
0100
,  // measure 60
0001
0000
1000
0001
1000
0000
1100
0000
0220
0000
0000
0330
0022
0000
0000
0033
,  // measure 61
2200
0000
0000
3300
0001
0010
1000
0010
,  // measure 62
0001
0000
0100
0001
0100
0000
0010
0000
1000
0000
0100
1000
0100
0000
0001
0000
,  // measure 63
0100
0001
0100
0010
0001
0000
0010
0000
0100
0000
0010
0000
0001
0000
0010
0000
,  // measure 64
1000
0000
0010
0001
1000
0000
0100
0000
0001
0000
0100
0010
0001
0000
0100
0000
,  // measure 65
0010
0000
0001
1000
0001
0000
0010
0000
0100
0000
0100
0000
0001
0000
1000
0000
,  // measure 66
0100
0000
0010
0100
0001
0000
0100
0000
0010
0001
1000
0000
1000
0100
0001
0000
,  // measure 67
0101
0000
0220
0330
1001
1000
0010
0100
,  // measure 68
0001
0010
0001
0100
0010
0000
1000
0000
0001
0010
0100
0010
0002
0000
0000
0000
,  // measure 69
1003
0010
1000
0010
0100
0000
0001
1000
0010
0000
0010
0000
1000
0100
1000
0000
,  // measure 70
0010
0100
0001
0000
0100
0000
0010
1000
0100
0000
0010
0000
0100
0010
0001
0000
,  // measure 71
1000
0001
1000
0000
0101
0000
0000
0000
0100
0010
1000
0000
1000
0100
0001
0000
,  // measure 72
0001
0100
0010
0001
0100
0000
0000
0000
0001
0010
0100
0010
0001
0000
0000
0000
,  // measure 73
1000
0100
0010
0100
1000
0001
0020
0000
0000
0000
0031
0000
1000
0001
0010
0000
,  // measure 74
0001
0100
0010
0000
0100
0000
0102
0000
0000
0000
1003
0000
0100
1000
0010
0000
,  // measure 75
1000
0100
0010
0001
0100
0000
0010
0000
0110
0000
0000
0000
0000
0000
0000
0000
;
