#TITLE:HONEY PUNCH -L.E.D.- G STYLE MIX-;
#SUBTITLE:;
#ARTIST:小坂りゆ;
#TITLETRANSLIT:;
#SUBTITLETRANSLIT:;
#ARTISTTRANSLIT:RIYU KOSAKA;
#GENRE:;
#CREDIT:;
#BANNER:HONEY PUNCH -L.E.D.- G STYLE MIX-.png;
#BACKGROUND:HONEY PUNCH -L.E.D.- G STYLE MIX--bg.png;
#LYRICSPATH:;
#CDTITLE:;
#MUSIC:HONEY PUNCH -L.E.D.- G STYLE MIX-.mp3;
#OFFSET:-0.640000;
#SAMPLESTART:34.730022;
#SAMPLELENGTH:15.000000;
#SELECTABLE:YES;
#DISPLAYBPM:175.000000;
#BPMS:0.000000=175.000000
;
#STOPS:
;
#BGCHANGES:;
#KEYSOUNDS:;
#ATTACKS:;

//---------------dance-single - ----------------
#NOTES:
     dance-single:
     :
     Beginner:
     3:
     0.177857,0.202925,0.078425,0.000000,0.000000,127.000000,119.000000,8.000000,0.000000,0.000000,0.000000,0.177857,0.202925,0.078425,0.000000,0.000000,127.000000,119.000000,8.000000,0.000000,0.000000,0.000000:
0000
0000
0000
0000
,
0000
0000
0000
0000
,
0000
0000
0000
0000
,
0000
0000
0000
0000
,
0000
0000
0000
0000
,
1000
0000
1000
0000
,
0001
0000
0001
0000
,
0100
0000
0100
0000
,
0010
0000
0010
0000
,
1000
1000
0000
0000
,
0001
0001
0000
0000
,
0100
0100
0000
0000
,
0010
0010
0000
0000
,
1000
0000
0001
0000
,
1000
0000
0100
0000
,
0001
0000
0100
0000
,
1000
0000
0000
0000
,
0001
0000
0001
0000
,
0010
0010
0010
0000
,
0100
0000
0100
0000
,
0100
0000
1000
1000
,
0000
0000
0001
0000
,
0001
0000
0100
0000
,
0100
0000
0010
0000
,
0010
0000
0000
0000
,
1001
0000
0000
0000
,
1001
0000
0000
0000
,
0001
0000
0100
0000
,
0010
0000
0100
0100
,
0100
0000
0001
0000
,
1000
0000
0010
0000
,
1000
0000
0100
0000
,
0010
0000
0001
0001
,
1000
0000
0000
0000
,
0010
0000
0000
0000
,
0100
0000
0000
0000
,
0010
0000
0010
0010
,
1000
0000
0000
0000
,
0001
0000
0000
0000
,
0001
0000
0001
0000
,
0100
0000
0100
0000
,
0010
0010
0000
0000
,
1000
1000
0000
0000
,
0001
0000
0001
0000
,
0100
0000
0100
0000
,
1000
0000
1000
0000
,
0100
0100
0000
0000
,
0001
0001
0000
0000
,
0010
0000
0010
0000
,
0100
0000
0100
0000
,
0001
0000
0001
0000
,
1000
0000
1000
0000
,
0010
0000
0010
0100
,
0010
0000
0100
0000
,
0001
0000
1000
0000
,
0001
0000
0100
0000
,
0010
0000
0100
0000
,
0001
0000
0000
0000
,
1001
0000
0000
0000
,
1010
0000
0000
0000
,
0110
0000
0000
0000
,
0101
0000
0000
0000
,
1001
0000
0000
0000
,
1000
0000
1000
0000
,
0010
0000
0010
0000
,
0100
0000
0100
0000
,
0001
0000
0001
0000
,
1000
0000
1000
0000
,
0010
0000
0010
0000
,
0110
0000
0000
0000
;

//---------------dance-single - ----------------
#NOTES:
     dance-single:
     :
     Easy:
     5:
     0.301097,0.304388,0.000000,0.000000,0.000000,215.000000,215.000000,0.000000,0.000000,0.000000,0.000000,0.301097,0.304388,0.000000,0.000000,0.000000,215.000000,215.000000,0.000000,0.000000,0.000000,0.000000:
0000
0000
0000
0000
,
0000
0000
0000
0000
,
0000
0000
0000
0000
,
0000
0000
0000
0000
,
0000
0000
0000
0000
,
1000
0000
1000
0000
,
0001
0000
0001
0000
,
0100
0000
0100
0000
,
0010
0010
1000
1000
,
0001
0100
0001
0000
,
1000
0010
1000
0000
,
0001
0100
0010
0000
,
0100
0010
1000
0000
,
0001
0100
1000
0000
,
0001
0010
1000
0000
,
1000
0100
0001
0100
,
1000
0010
0001
0010
,
1000
1000
0001
0000
,
0001
0001
0100
0100
,
0000
0010
0010
1000
,
1000
0001
0001
0100
,
0000
0010
0010
0000
,
1000
0001
1000
0001
,
0000
0100
0010
1000
,
0010
0100
0001
0100
,
0010
0000
1000
0001
,
1000
0000
0001
0100
,
0001
0000
1000
0010
,
0100
0000
0010
0100
,
0001
0000
1000
0010
,
1000
0000
0001
0100
,
0010
0100
0001
0010
,
0100
1000
0001
1000
,
0001
0000
0100
0100
,
0010
0000
0010
1000
,
0010
0000
0100
0001
,
1000
0001
1000
0010
,
0100
0000
0001
0100
,
0010
0000
0100
0010
,
1000
0001
1000
0010
,
0100
0001
0100
0010
,
1000
1000
0001
0000
,
0001
0001
0100
0000
,
0100
0100
0010
0010
,
1000
0000
0000
0000
,
0001
0100
0001
0010
,
0001
1000
0001
0000
,
0100
0010
1000
0010
,
0100
0010
1000
0000
,
0010
0100
0000
0010
,
0100
0000
0001
0001
,
1000
1000
0001
0001
,
0100
0100
0010
0010
,
1000
1000
0001
0001
,
0100
0100
0010
0010
,
0100
0100
0001
0001
,
1000
1000
0010
0010
,
0100
0000
0100
0001
,
0100
0000
0001
1000
,
0001
0000
0100
0010
,
1000
0010
0100
0001
,
0100
0000
0001
0010
,
0001
0000
1000
0010
,
0100
0010
1000
0100
,
1000
0001
0100
0001
,
0010
0001
0010
0100
,
1000
0100
1000
0100
,
0010
0001
0010
0001
,
1000
0001
1000
0010
,
0100
0000
0000
0000
;

//---------------dance-single - ----------------
#NOTES:
     dance-single:
     :
     Hard:
     12:
     0.655411,0.647253,0.421536,0.029409,0.156850,468.000000,425.000000,43.000000,3.000000,0.000000,0.000000,0.655411,0.647253,0.421536,0.029409,0.156850,468.000000,425.000000,43.000000,3.000000,0.000000,0.000000:
// measure 0
0000
0000
0000
0000
,  // measure 1
0000
0000
0000
0000
,  // measure 2
0000
0000
0000
0000
,  // measure 3
0000
0000
0000
0000
,  // measure 4
0000
0000
0000
0000
,  // measure 5
1000
0000
0000
1000
0000
0000
0001
0000
0100
0000
0000
0100
0000
0000
0001
0000
,  // measure 6
1000
0000
0000
1000
0000
0000
1000
0000
0000
0000
0001
0000
0010
0000
0100
0000
,  // measure 7
0010
0000
0000
0010
0000
0000
0001
0000
0100
0000
0000
0110
0000
0000
0010
0000
,  // measure 8
1000
0000
0000
1010
0000
0000
0100
0000
0001
0000
0010
0000
0100
0000
1000
0000
,  // measure 9
0001
0100
0010
0100
0000
0001
1000
0001
,  // measure 10
0000
0011
0000
0101
0000
0100
0010
1000
,  // measure 11
0100
1000
0001
0010
0000
0001
1000
0010
,  // measure 12
0000
1010
0000
1001
0000
0001
1000
0010
,  // measure 13
0100
0010
1000
0001
0010
0100
1000
0001
,  // measure 14
0000
1001
0000
1010
0000
0010
0100
0010
,  // measure 15
1000
0010
0100
0001
0000
1000
0010
1000
,  // measure 16
0000
1001
0000
0101
0000
0001
1000
0001
,  // measure 17
0100
1010
1001
0001
,  // measure 18
0100
0010
1000
0010
0100
0010
1000
0010
,  // measure 19
0100
0000
0001
1000
0001
0100
0001
1000
,  // measure 20
0010
1000
0001
1000
1001
0000
0110
0000
,  // measure 21
1001
0000
1000
0100
1000
0001
1000
0000
,  // measure 22
0001
1000
0100
1000
0001
1000
0100
1000
,  // measure 23
0001
0010
0001
0010
0100
1000
0100
1000
,  // measure 24
0010
0000
0100
0100
0001
0010
0100
1000
,  // measure 25
0001
0010
0001
0000
0100
0010
0100
0010
,  // measure 26
1000
0100
1000
0001
0100
0010
0001
0010
,  // measure 27
1000
0001
1000
0001
0010
0000
0001
0100
,  // measure 28
0010
0100
1001
1010
,  // measure 29
1000
0000
1001
0000
0001
1000
0010
1000
,  // measure 30
0001
0100
0001
0000
0100
0010
1000
0010
,  // measure 31
0100
0000
1001
0000
0001
0010
0100
1000
,  // measure 32
0001
0010
1000
0010
0001
0100
1000
0100
,  // measure 33
0001
0000
1000
0000
0010
0100
0001
0100
,  // measure 34
0010
0000
0000
1010
0000
0000
1000
0000
0100
0000
0010
0000
0001
0000
0100
0000
,  // measure 35
0010
0001
0000
0010
0100
0001
0010
0100
,  // measure 36
1100
0000
0000
0000
1001
0000
0000
0000
0001
0000
0000
0001
1000
0000
0010
0000
,  // measure 37
1000
0010
1000
0010
0001
0010
0001
0010
,  // measure 38
0100
0010
0100
0010
1000
0100
0010
0001
,  // measure 39
0100
0010
0100
0010
0100
0010
0100
0010
,  // measure 40
1001
0101
0110
1010
,  // measure 41
1100
0000
1001
0000
0010
0100
0001
0100
,  // measure 42
0010
0000
0101
0000
1000
0010
0100
0010
,  // measure 43
2000
3001
0101
0110
,  // measure 44
1010
0000
0000
0000
1000
0000
0000
0000
0100
0000
0010
0001
0010
0000
0001
0000
,  // measure 45
0100
0010
1000
0010
0000
0100
0001
0010
,  // measure 46
1000
0010
0001
0100
0010
0000
0100
0001
,  // measure 47
0010
0100
1000
0001
0010
0001
0100
0010
,  // measure 48
0100
0000
0001
0000
0100
0000
0010
0000
1000
0000
0100
0000
0010
0100
0010
0000
,  // measure 49
0001
0000
0000
1000
0000
0000
0001
0000
0100
0000
0000
0100
0000
0000
0001
0000
,  // measure 50
0010
0000
0000
0010
0000
0000
0001
0000
0000
0001
1000
0000
0100
0000
1000
0000
,  // measure 51
0010
0000
0000
0010
0000
0000
0100
0000
0001
0000
0000
0001
0000
0000
1000
0000
,  // measure 52
0010
0000
0000
0010
0000
0000
1000
0000
0100
0000
0000
0100
0000
0000
1000
0000
,  // measure 53
0001
0000
0000
0001
0000
0000
0100
0000
0010
0000
0000
0010
0000
0000
1000
0000
,  // measure 54
0001
0000
0000
0001
0000
0000
0010
0000
0001
1000
0000
0000
1000
0000
0010
0000
,  // measure 55
0001
0000
0000
0010
0000
0000
1000
0000
0001
0000
0000
0100
0000
0000
0010
0000
,  // measure 56
0100
0001
0010
0001
1000
0010
0100
0010
,  // measure 57
1001
0000
0010
0000
0100
0001
0010
0001
,  // measure 58
1000
0100
1000
0000
0001
0100
0001
1000
,  // measure 59
0001
0010
0001
0000
0100
0010
1000
0100
,  // measure 60
0010
1001
0101
1010
,  // measure 61
0100
0001
0010
0000
0001
0010
0001
0010
,  // measure 62
0100
1000
0100
1000
0010
0100
0001
0100
,  // measure 63
0010
1000
0010
1000
0001
0100
0001
0100
,  // measure 64
0010
0100
0010
0000
0100
0000
0001
0000
1000
0000
0100
0000
0010
0000
0001
0000
,  // measure 65
0100
0000
0000
0110
0000
0000
0010
0000
1000
0000
0000
1010
0000
0000
0010
0000
,  // measure 66
0100
0000
0000
0101
0000
0000
1001
0000
0000
0000
1000
0000
0010
0000
0100
0000
,  // measure 67
0010
0000
0000
1010
0000
0000
1000
0000
0001
0000
0000
0011
0000
0000
0010
0000
,  // measure 68
0100
0000
0010
0001
0000
1000
0001
0000
0010
0000
0100
0000
1000
0000
0001
0000
,  // measure 69
2002
0000
3003
0000
;

//---------------dance-single - ----------------
#NOTES:
     dance-single:
     :
     Medium:
     9:
     0.397728,0.473492,0.254882,0.029409,0.000000,284.000000,258.000000,26.000000,3.000000,0.000000,0.000000,0.397728,0.473492,0.254882,0.029409,0.000000,284.000000,258.000000,26.000000,3.000000,0.000000,0.000000:
0000
0000
0000
0000
,
0000
0000
0000
0000
,
0000
0000
0000
0000
,
0000
0000
0000
0000
,
0000
0000
0000
0000
,
1000
0001
1000
0001
,
0100
0010
0100
0001
,
0010
0001
1000
0100
,
1000
0010
0100
0010
,
1000
0010
1000
0000
0000
0000
0000
0000
,
0001
0001
0001
0100
,
0010
0000
0100
0000
0010
0000
1000
0010
,
1000
0001
0100
0010
,
0100
0000
0001
0000
0010
0000
0001
1000
,
0001
0010
0100
1000
,
0001
1000
0001
0100
,
0001
0100
0010
0000
,
1010
0000
0001
0000
1001
0000
0000
0010
,
0000
0100
0001
0100
,
0000
0000
0010
1000
0010
0000
1000
0000
,
0001
0100
0010
0100
,
0000
0011
1100
0000
,
0001
0000
1000
0010
1000
0000
0010
0000
,
0000
0100
0001
0010
,
0001
0100
0010
0100
,
0010
0000
1000
0000
0100
1000
0100
0000
,
0001
0100
1000
0001
,
1000
0010
0100
0010
,
1000
0010
1000
0000
0001
0000
0100
0000
,
0010
0100
0001
0010
,
0100
1000
0010
0100
,
1010
0001
0101
0010
,
0110
0010
1010
1000
,
1001
0001
0100
0010
,
0100
0000
0001
0000
1000
0001
1000
0000
,
0010
0000
0100
0000
0010
1000
0010
0000
,
0100
0001
0010
0100
,
1000
0001
1000
0001
,
0101
0010
0100
0010
,
1010
0001
0101
0010
,
0110
1000
0010
1010
,
0010
0000
0100
0000
0001
0100
0001
0000
,
1000
0000
0010
0000
0100
0010
0100
0000
,
0020
0000
2030
0000
,
3002
0000
0103
0000
,
0100
0000
0010
0000
1000
0000
0010
0100
,
0010
0100
0001
0000
,
1000
0001
1000
0000
0001
0000
0100
0000
,
0010
0100
0001
0000
,
0010
0100
1000
0001
,
0100
0001
1001
0010
,
0100
0010
1000
0001
,
0101
0100
0010
1000
,
0110
0010
1000
0001
,
1000
0100
0001
0100
,
1000
0010
0001
0010
,
1000
0001
0100
0001
,
1001
0010
0100
0010
,
1010
0100
0001
0100
,
0010
0000
0100
0000
0001
1000
0001
0000
,
0100
0010
1010
1000
,
1100
0001
0100
0010
,
0101
0010
1000
0100
,
1000
0000
0010
0000
0100
0010
0100
0000
,
0010
1000
0001
1000
,
1001
0010
0100
1000
,
0010
0100
0001
0010
,
0011
0001
1000
0100
,
1100
0010
0100
0010
,
1010
0000
0000
0000
;
