#TITLE:Gale Rider;
#SUBTITLE:;
#ARTIST:P*Light;
#TITLETRANSLIT:;
#SUBTITLETRANSLIT:;
#ARTISTTRANSLIT:;
#GENRE:;
#CREDIT:;
#BANNER:Gale Rider.png;
#BACKGROUND:Gale Rider-bg.png;
#LYRICSPATH:;
#CDTITLE:;
#MUSIC:Gale Rider.mp3;
#OFFSET:0.676000;
#SAMPLESTART:13.056081;
#SAMPLELENGTH:15.000000;
#SELECTABLE:YES;
#DISPLAYBPM:193.000000;
#BPMS:0.000000=193.000000
,188.000000=386.000000
,192.000000=193.000000
;
#STOPS:188.000000=1.244000
;
#BGCHANGES:;
#KEYSOUNDS:;
#ATTACKS:TIME=57.825771:LEN=1.865761:MODS=Stealth, Overhead, Midi-note;

//---------------dance-single - ----------------
#NOTES:
     dance-single:
     :
     Easy:
     6:
     0.332634,0.380367,0.025218,0.000000,0.000000,277.000000,274.000000,3.000000,0.000000,0.000000,0.000000,0.332634,0.380367,0.025218,0.000000,0.000000,277.000000,274.000000,3.000000,0.000000,0.000000,0.000000:
// measure 0
0000
0000
0000
0000
,  // measure 1
0000
0000
0000
0000
,  // measure 2
0000
0000
0000
0000
,  // measure 3
1001
0000
1000
0000
,  // measure 4
1000
0000
0000
0000
,  // measure 5
0001
0000
0001
0000
,  // measure 6
0100
0000
0100
0000
,  // measure 7
0010
0000
0000
0000
,  // measure 8
1000
0000
0000
0000
,  // measure 9
0010
0000
1000
0000
,  // measure 10
0010
0000
0100
0000
,  // measure 11
0001
0001
1000
1000
,  // measure 12
0010
0010
0100
0100
,  // measure 13
0010
0010
1000
1000
,  // measure 14
0001
0001
0100
0100
,  // measure 15
0010
0010
1000
1000
,  // measure 16
0001
0001
0100
0101
,  // measure 17
0010
0010
0100
0100
,  // measure 18
0010
1000
0010
1000
,  // measure 19
0001
0000
1000
0000
,  // measure 20
1000
0001
1000
0001
,  // measure 21
0010
0100
0010
0100
,  // measure 22
1000
0001
1000
0001
,  // measure 23
0100
0010
0100
0010
,  // measure 24
0100
0010
0100
0010
,  // measure 25
1000
0001
1000
0001
,  // measure 26
1000
0000
0000
0000
,  // measure 27
0001
0100
0001
0000
,  // measure 28
1000
0010
1000
0000
,  // measure 29
0010
0100
0010
0000
,  // measure 30
0100
0100
0100
0000
,  // measure 31
0001
1000
0001
0000
,  // measure 32
1000
0100
1000
0000
,  // measure 33
0001
0010
0001
0000
,  // measure 34
0100
0010
0100
0000
,  // measure 35
0010
1000
0010
1000
,  // measure 36
0001
0100
0001
0100
,  // measure 37
0010
0100
0010
0100
,  // measure 38
1000
0100
0001
0100
,  // measure 39
1000
0010
0001
0010
,  // measure 40
1000
0001
0010
0001
,  // measure 41
0100
0010
1000
0010
,  // measure 42
0100
0100
0100
0100
,  // measure 43
0000
0001
0001
0001
,  // measure 44
0010
0010
0010
0010
,  // measure 45
0100
0100
0100
1000
,  // measure 46
1000
0001
1000
0001
,  // measure 47
1000
0000
0000
0000
,  // measure 48
0000
0000
0001
0000
,  // measure 49
0000
0000
1000
0000
,  // measure 50
0000
0000
0001
0000
,  // measure 51
0000
0000
1000
0000
,  // measure 52
0000
0000
0001
0000
,  // measure 53
0000
0000
0100
0000
,  // measure 54
0000
0000
0010
0000
,  // measure 55
0000
0000
0100
0000
,  // measure 56
0000
0000
0001
0001
,  // measure 57
0001
0000
1000
1000
,  // measure 58
1000
0000
0010
0010
,  // measure 59
0010
0000
0100
0100
,  // measure 60
0100
0000
0001
1000
,  // measure 61
0001
1000
0001
0100
,  // measure 62
0001
0100
0010
0100
,  // measure 63
0010
0100
0010
0000
,  // measure 64
0000
0000
1000
0001
,  // measure 65
1000
0001
1000
0001
,  // measure 66
0001
0001
0100
0010
,  // measure 67
0100
0010
0100
0010
,  // measure 68
1000
0000
0001
0100
,  // measure 69
0001
1000
0001
1000
,  // measure 70
0010
0100
0010
1000
,  // measure 71
0001
1000
0100
0001
,  // measure 72
0100
1000
0010
0001
,  // measure 73
0010
1000
0100
0010
,  // measure 74
0001
0100
0010
1000
,  // measure 75
0001
1000
0001
0100
,  // measure 76
0010
0100
0001
0010
,  // measure 77
0001
1000
0100
1000
,  // measure 78
0010
0001
0010
1000
,  // measure 79
0100
0001
0010
0001
,  // measure 80
0100
1000
0001
0010
,  // measure 81
0001
0100
0010
0100
,  // measure 82
0001
0010
0001
0100
,  // measure 83
0010
0100
0001
0010
,  // measure 84
0001
1000
0010
0000
,  // measure 85
0100
0010
1000
0000
,  // measure 86
0001
0100
0001
0000
,  // measure 87
1000
0000
0001
0000
,  // measure 88
1000
0000
0010
0100
,  // measure 89
0010
0000
1000
0000
0000
0010
0000
0000
,  // measure 90
1000
0001
1001
0000
;

//---------------dance-single - ----------------
#NOTES:
     dance-single:
     :
     Beginner:
     4:
     0.174122,0.228220,0.000000,0.058841,0.000000,145.000000,145.000000,0.000000,7.000000,0.000000,0.000000,0.174122,0.228220,0.000000,0.058841,0.000000,145.000000,145.000000,0.000000,7.000000,0.000000,0.000000:
// measure 0
0000
0000
0000
0000
,  // measure 1
0000
0000
0000
0000
,  // measure 2
0000
0000
0000
0000
,  // measure 3
1000
0000
0000
0000
,  // measure 4
1000
0000
0000
0000
,  // measure 5
0001
0001
0001
0000
,  // measure 6
0100
0000
0000
0000
,  // measure 7
0100
0000
0100
0000
,  // measure 8
0010
0000
0010
0000
,  // measure 9
1000
0000
1000
0000
,  // measure 10
0001
0000
0000
0000
,  // measure 11
0001
0000
0100
0000
,  // measure 12
0010
0000
1000
0000
,  // measure 13
0010
0000
0100
0000
,  // measure 14
0001
0001
0001
0000
,  // measure 15
1000
0000
0100
0000
,  // measure 16
1000
0000
0010
0000
,  // measure 17
0001
0000
0010
0000
,  // measure 18
1000
1000
1000
0000
,  // measure 19
0001
0001
0000
0000
,  // measure 20
0100
0100
0000
0000
,  // measure 21
0010
0010
0000
0000
,  // measure 22
0100
0100
0000
0000
,  // measure 23
0001
0001
0000
0000
,  // measure 24
1000
1000
0000
0000
,  // measure 25
0100
0000
0100
0000
,  // measure 26
0010
0000
0010
0000
,  // measure 27
0001
1000
0001
0000
,  // measure 28
1000
0000
0000
0000
,  // measure 29
0010
0000
0100
0000
,  // measure 30
0010
0010
0000
0000
,  // measure 31
0100
0000
0100
0000
,  // measure 32
0001
0000
0001
0000
,  // measure 33
1000
0000
1000
0000
,  // measure 34
0100
0000
0100
0000
,  // measure 35
0010
0000
0000
0000
,  // measure 36
0010
0000
0000
0000
,  // measure 37
0001
0000
0000
0000
,  // measure 38
0001
0000
0000
0000
,  // measure 39
1000
0000
1000
0000
,  // measure 40
1000
0000
0000
0000
,  // measure 41
0001
0000
0001
0000
,  // measure 42
0001
0000
0000
0000
,  // measure 43
0100
0000
0100
0000
,  // measure 44
0100
0000
0000
0000
,  // measure 45
0010
0000
0010
0000
,  // measure 46
0010
0000
0100
0000
,  // measure 47
0200
0000
0000
0000
,  // measure 48
0300
0000
0010
0000
,  // measure 49
0000
0000
0010
0000
,  // measure 50
0000
0000
1000
0000
,  // measure 51
0000
0000
0002
0000
,  // measure 52
0000
0000
1003
0000
,  // measure 53
0000
0000
1000
0000
,  // measure 54
0000
0000
0010
0000
,  // measure 55
0000
0000
0020
0000
,  // measure 56
0000
0000
0130
0000
,  // measure 57
0000
0000
0100
0000
,  // measure 58
0000
0001
0000
0000
,  // measure 59
0000
0000
1000
0000
,  // measure 60
0000
0010
0000
0000
,  // measure 61
0000
0000
1000
0000
,  // measure 62
0000
0000
0100
0000
,  // measure 63
0000
0000
0020
0000
,  // measure 64
0000
0000
0031
0000
,  // measure 65
0001
0000
1000
0000
,  // measure 66
1000
0000
0010
0000
,  // measure 67
0010
0000
0100
0000
,  // measure 68
0100
0000
0001
0000
,  // measure 69
0001
0000
1000
0000
,  // measure 70
1000
0000
0010
0000
,  // measure 71
0010
0000
0100
0000
,  // measure 72
0100
0000
0001
0000
,  // measure 73
0001
0000
1000
0000
,  // measure 74
1000
0000
0100
0000
,  // measure 75
0100
0000
0010
0000
,  // measure 76
0010
0000
0001
0000
,  // measure 77
0000
0000
1000
0000
,  // measure 78
2000
0000
3001
0000
,  // measure 79
0001
0000
0100
0000
,  // measure 80
0200
0000
0310
0000
,  // measure 81
0010
0000
1000
0000
,  // measure 82
1000
0000
0001
0000
,  // measure 83
0001
0000
0010
0000
,  // measure 84
0000
0000
0010
0000
,  // measure 85
0100
0000
0100
0000
,  // measure 86
0000
0000
1000
0000
,  // measure 87
0001
0000
1000
0000
,  // measure 88
0000
0000
0002
0000
,  // measure 89
0000
0000
1003
0000
,  // measure 90
1000
0000
0001
0000
;

//---------------dance-single - ----------------
#NOTES:
     dance-single:
     :
     Medium:
     11:
     0.494748,0.532514,0.109277,0.000000,0.000000,412.000000,399.000000,13.000000,0.000000,0.000000,0.000000,0.494748,0.532514,0.109277,0.000000,0.000000,412.000000,399.000000,13.000000,0.000000,0.000000,0.000000:
// measure 0
0000
0000
0000
0000
,  // measure 1
0000
0000
0000
0000
,  // measure 2
0000
0000
0000
0000
,  // measure 3
1000
0001
1000
0001
,  // measure 4
0010
0001
0010
0001
,  // measure 5
0100
0010
0100
0010
,  // measure 6
1010
1000
0001
0100
,  // measure 7
0001
0100
0010
0100
,  // measure 8
0110
0010
1000
0100
,  // measure 9
0010
0001
0100
0010
,  // measure 10
0100
0010
0100
0010
0100
0010
0100
0000
,  // measure 11
0010
1000
0010
1000
,  // measure 12
0001
0100
0001
0000
1000
0000
0100
0000
,  // measure 13
1000
0100
1000
0000
0010
0000
0100
0000
,  // measure 14
0010
1000
0100
0010
,  // measure 15
0001
0100
0010
0110
,  // measure 16
0010
1000
0100
0011
,  // measure 17
0100
0010
1000
1010
,  // measure 18
0001
0000
0100
0000
0010
0100
0010
0000
,  // measure 19
1000
0100
0010
0001
,  // measure 20
0010
0001
0110
0010
,  // measure 21
1000
0100
1100
0001
,  // measure 22
0100
0000
0010
0000
0100
0010
0100
0000
,  // measure 23
0010
1000
0100
0001
,  // measure 24
0100
1000
0100
0001
,  // measure 25
0100
0010
0100
0010
,  // measure 26
1000
0100
1000
0001
,  // measure 27
1000
0001
0010
0100
,  // measure 28
0010
0000
0001
0000
1000
0000
0010
1000
,  // measure 29
0010
1000
0001
0100
,  // measure 30
0010
0100
0001
0010
,  // measure 31
0001
1000
0100
1000
,  // measure 32
0010
0000
0100
0000
0010
0000
0100
0010
,  // measure 33
0100
0010
1000
0100
,  // measure 34
0010
0001
0010
0000
0001
0100
0001
0000
,  // measure 35
0001
1000
0001
0000
1000
0000
0010
0000
,  // measure 36
0100
0010
1100
1000
,  // measure 37
0001
0100
0110
0010
,  // measure 38
1000
0000
0100
0000
0010
0100
0010
0000
,  // measure 39
1000
0100
0010
0001
,  // measure 40
1000
0001
1000
0100
,  // measure 41
1000
0100
0001
0100
,  // measure 42
1000
0000
0010
0000
0001
0010
0001
0000
,  // measure 43
1000
0000
0001
0000
1000
0001
1000
0000
,  // measure 44
0001
0000
0100
0000
0010
0100
0010
0000
,  // measure 45
0100
0010
0100
0000
0010
1000
0010
0000
,  // measure 46
1000
0001
1000
0000
0001
0100
0001
0000
,  // measure 47
0101
0000
0000
0000
,  // measure 48
0000
0000
0100
0010
,  // measure 49
1000
0010
0100
0001
,  // measure 50
0010
0001
1000
0001
,  // measure 51
0100
0010
0100
0001
,  // measure 52
0010
1000
0010
0001
,  // measure 53
0100
1000
0100
0001
,  // measure 54
0010
1000
0010
0001
,  // measure 55
0100
1000
0100
0001
,  // measure 56
0010
0000
0100
0000
1000
0001
1000
0000
,  // measure 57
0010
0100
0010
0000
0100
0010
0100
0000
,  // measure 58
0010
1000
0010
0000
1000
0001
1000
0000
,  // measure 59
0001
0100
0001
0000
0100
0010
0100
0000
,  // measure 60
0010
1000
0010
0000
1000
0100
1000
0000
,  // measure 61
0001
0000
0100
0000
0010
0100
0010
0000
,  // measure 62
1000
0100
1000
0000
0001
0100
0001
0000
,  // measure 63
0100
0010
0100
0000
0000
0110
0000
0101
,  // measure 64
0000
0000
0000
0000
1000
0100
1000
0000
,  // measure 65
0001
0100
0001
0000
0100
0010
0100
0010
,  // measure 66
0100
0010
0100
0000
0010
1000
0010
0000
,  // measure 67
1000
0000
0001
0000
0100
0010
0100
0000
,  // measure 68
0010
1000
0100
0010
,  // measure 69
0001
0100
0001
0000
1000
0000
0001
0000
,  // measure 70
1000
0001
1000
0000
0010
0000
0100
0000
,  // measure 71
0010
1000
0010
0000
1000
0000
0100
0000
,  // measure 72
0010
0001
0010
0000
0001
0000
0100
0000
,  // measure 73
0010
0100
0010
0000
1000
0100
1000
0100
,  // measure 74
1000
0000
0001
0100
,  // measure 75
0010
0100
0010
0000
1000
0000
0100
0000
,  // measure 76
0001
0100
1000
0000
0001
0000
0100
0000
,  // measure 77
0010
0100
0010
0000
1000
0000
0100
0001
,  // measure 78
0100
1000
0000
0000
0001
0000
0100
0000
,  // measure 79
0010
0100
0010
0000
1000
0000
0010
0000
,  // measure 80
0100
0010
0100
0000
0001
1000
0001
0000
,  // measure 81
1000
0001
1000
0000
0010
0100
0010
0100
,  // measure 82
0010
0000
1000
0100
,  // measure 83
0001
0100
1000
0010
,  // measure 84
0001
0010
1000
0001
,  // measure 85
0100
0001
0100
0010
,  // measure 86
1000
0100
0010
0000
,  // measure 87
0001
0100
0010
0100
,  // measure 88
0000
0010
1000
0010
,  // measure 89
0100
0000
0001
0000
0010
0000
0001
1000
,  // measure 90
0001
1000
0001
0000
1001
0000
0000
0000
;

//---------------dance-single - ----------------
#NOTES:
     dance-single:
     :
     Hard:
     15:
     0.876616,0.846054,0.806967,0.067247,0.369860,730.000000,634.000000,96.000000,8.000000,44.000000,0.000000,0.876616,0.846054,0.806967,0.067247,0.369860,730.000000,634.000000,96.000000,8.000000,44.000000,0.000000:
// measure 0
0000
0000
0000
0000
,  // measure 1
0000
0000
0000
0000
,  // measure 2
0000
0000
0000
0000
,  // measure 3
0100
0000
0000
0010
0000
0000
1001
0000
0000
0000
0001
0000
0010
0000
0100
0000
,  // measure 4
1000
0000
0000
1001
0000
0000
0101
0000
0000
0000
0110
0000
0000
0000
0100
0000
,  // measure 5
0001
0000
1000
0001
1000
0000
0010
0000
0100
0000
1000
0100
1000
0000
0100
0000
,  // measure 6
0001
0011
0000
1010
0000
0011
1001
0000
,  // measure 7
0001
0100
1000
0100
0001
1000
0100
0010
,  // measure 8
0001
0000
0000
0011
0000
0000
0110
0000
0000
0000
1100
0000
0000
0000
1000
0000
,  // measure 9
0001
0000
0001
0000
0100
0000
0000
0000
0010
0100
0010
0000
1000
0001
1000
0000
,  // measure 10
0010
0010
0100
0100
0001
1000
1001
0000
,  // measure 11
1000
0000
0000
1100
0000
0000
0100
0000
0000
0011
0000
0000
0001
0000
0000
0000
,  // measure 12
1001
0000
0000
0110
0000
0000
1001
0000
0000
0110
0000
0000
1001
0000
0000
0000
,  // measure 13
0011
0000
0000
1100
0000
0000
0011
0000
0000
1100
0000
0000
0011
0000
0000
0000
,  // measure 14
1001
0000
0110
0000
0010
0010
1000
0001
,  // measure 15
0100
0001
0000
0100
0010
0000
1000
0010
0000
0100
0010
0000
1000
0000
0000
0000
,  // measure 16
0001
0100
0000
0010
0100
0000
0001
0100
0000
0010
0100
0000
0001
0000
0000
0000
,  // measure 17
1000
0100
0000
0001
0100
0000
1000
0010
0000
0001
0010
0000
1010
0000
0000
0000
,  // measure 18
0101
0000
0011
0000
0100
0100
0001
0100
,  // measure 19
1100
0000
1000
0001
1000
0010
1000
0000
,  // measure 20
0101
0000
0001
0010
0001
1000
0001
0000
,  // measure 21
0110
0000
0010
1000
0010
0100
0101
0000
,  // measure 22
0011
0000
0110
0000
1000
1000
1000
0000
,  // measure 23
1001
0000
0000
0011
0000
0000
0010
0000
0110
0000
0000
1100
0000
0000
1000
0000
,  // measure 24
1001
0000
0000
0101
0000
0000
0100
0000
0110
0000
0000
1010
0000
0000
1000
0000
,  // measure 25
0001
1000
0001
0000
0100
0000
0000
0110
0000
0000
0010
0000
1000
0000
0100
0000
,  // measure 26
1000
0000
0001
0000
0010
0000
0001
0000
1000
0001
1000
0000
0100
1000
0100
1000
,  // measure 27
0001
0000
0000
0100
0000
0000
1001
0000
0000
0000
0100
0000
0010
0000
0001
0000
,  // measure 28
1000
0000
0000
1100
0000
0000
0110
0000
0000
0000
0011
0000
0000
0000
0100
0000
,  // measure 29
0010
0000
1000
0001
1000
0000
0001
0000
0100
0000
0010
0100
0010
0000
1000
0000
,  // measure 30
1001
1001
0000
0101
0000
0110
0110
0000
,  // measure 31
0000
1010
MMMM
1001
MMMM
1010
MMMM
0101
,  // measure 32
MMMM
0110
MMMM
1010
MMMM
1001
0101
0000
,  // measure 33
0000
1001
MMMM
1010
MMMM
0110
MMMM
0101
,  // measure 34
0001
0010
0100
1000
0001
MMMM
1001
0000
,  // measure 35
0001
0100
0000
0100
0010
0000
0100
0001
0000
0001
1000
0000
0010
0000
0000
0000
,  // measure 36
0100
0001
0000
0001
1000
0000
0010
0100
0000
0100
0001
0000
1000
0000
0000
0000
,  // measure 37
0001
0010
0000
0100
0010
0000
0001
0010
0000
0100
0010
0000
1001
0000
0000
0000
,  // measure 38
1100
0000
0101
0000
0100
1000
1010
0000
,  // measure 39
0010
0100
0000
0100
0010
0000
0001
0010
0000
0010
0001
0000
1010
0000
0000
0000
,  // measure 40
0100
1000
0000
1000
0100
0000
0001
0100
0000
0100
0001
0000
1100
0000
0000
0000
,  // measure 41
1000
0010
0000
0010
0001
0000
0010
1000
0000
1000
0100
0000
1100
0000
0000
0000
,  // measure 42
0011
0000
0110
0000
1100
1000
1001
0000
,  // measure 43
0101
0000
0110
0000
1010
1000
1001
0000
,  // measure 44
0110
0000
0101
0000
1001
1000
1010
0000
,  // measure 45
1000
0100
1000
0100
0010
0001
0010
0001
,  // measure 46
1000
0000
0010
0100
0010
0000
0100
0001
0100
0000
0001
1000
0001
0000
1000
0010
,  // measure 47
2000
0000
0000
0000
,  // measure 48
3000
0000
0000
0000
0001
0001
0100
1000
,  // measure 49
0100
0001
1000
1000
0100
0001
0100
1000
,  // measure 50
0001
0010
0001
1000
0010
0100
0010
1000
,  // measure 51
0001
0100
0010
0100
0001
1000
0010
0010
,  // measure 52
0100
0100
0001
0000
1000
1000
0100
0001
,  // measure 53
0100
0010
0001
0001
0010
0001
1000
0010
,  // measure 54
1000
1000
0010
0100
0010
0001
0010
1000
,  // measure 55
0100
0100
0001
0100
0010
0100
1000
1000
,  // measure 56
0001
0001
0100
0000
0001
0001
0100
0100
,  // measure 57
0010
0010
1000
1000
0010
0010
0100
0100
,  // measure 58
0010
1000
0010
0000
1000
0000
0000
0000
0001
0000
0001
0000
0100
0000
0100
0000
,  // measure 59
1000
1000
0100
0100
0001
0001
0010
0100
,  // measure 60
1000
0001
1000
0000
1001
0000
0000
0000
0100
0000
0100
0000
0001
0000
0001
0000
,  // measure 61
1000
1000
0010
0010
0001
0001
1000
1000
,  // measure 62
0100
0100
0001
0001
1000
1000
0010
1000
,  // measure 63
0001
1000
0001
0000
0100
0000
0001
0000
0000
0000
0011
0000
0000
0000
0001
0000
,  // measure 64
0100
0010
0110
0000
0100
0100
0010
0010
,  // measure 65
1000
1000
0001
0001
0100
0100
0010
0010
,  // measure 66
1000
0100
1000
0100
1000
0000
0000
0000
0001
0000
0010
0000
1000
0000
0010
0000
,  // measure 67
0100
0100
0010
0001
1000
0100
0001
0100
,  // measure 68
1000
0001
1000
0000
0001
0000
0000
0000
0010
0000
0100
0000
0001
0000
0100
0000
,  // measure 69
0010
0010
0001
0010
0100
0100
1000
0100
,  // measure 70
1000
0010
1000
0010
1000
0000
0000
0000
0001
0000
1000
0000
0100
0000
0010
0000
,  // measure 71
1000
1000
0010
0001
0100
0100
0010
1000
,  // measure 72
0001
0100
0001
0100
0001
0000
0000
0000
1000
0000
0010
0000
0100
0000
0010
0000
,  // measure 73
1000
0001
0010
0100
1000
1000
0001
0001
,  // measure 74
1001
0000
MMMM
0000
0100
0100
0010
1000
,  // measure 75
0100
0100
1000
1000
0001
0001
0100
0010
,  // measure 76
0100
1000
0100
0000
0010
0000
0000
0000
1000
0000
1000
0000
0100
0000
0100
0000
,  // measure 77
0010
0010
0001
0001
1000
0100
0001
0100
,  // measure 78
0010
0001
0010
0100
1000
0000
0000
0000
0001
0000
0001
0000
0100
0000
0010
0000
,  // measure 79
0100
0100
1000
0100
0010
0001
0010
1000
,  // measure 80
0100
0001
0100
0000
1000
0000
0000
0000
0001
0000
0001
0000
0100
0000
0001
0000
,  // measure 81
1000
0100
0010
0001
1000
1000
0100
0100
,  // measure 82
1100
0000
1001
0000
0001
0010
1000
0010
,  // measure 83
0001
0100
1000
0100
0001
1000
0010
0100
,  // measure 84
0001
0000
0100
0000
0010
0000
1000
0000
2002
0000
0000
0000
3003
0000
0001
0100
,  // measure 85
0002
0000
0000
0000
1003
0000
0010
0100
0010
0000
0100
0001
0100
0000
0001
0000
,  // measure 86
1000
0000
0010
0000
0100
0000
0010
0000
2000
0000
0000
0000
3001
0000
0100
0010
,  // measure 87
0200
0000
0000
0000
0310
0000
1000
0001
1000
0000
0100
0000
0010
0000
0001
0000
,  // measure 88
0101
0100
0010
1000
0010
0100
0001
0010
,  // measure 89
0001
1000
0001
1000
0001
1000
0001
0000
0000
0000
0101
0000
0000
0000
0100
0000
,  // measure 90
0010
0100
0110
0000
2002
0000
0000
0000
,  // measure 91
0000
0000
3003
0000
;

//---------------dance-single - ----------------
#NOTES:
     dance-single:
     :
     Challenge:
     17:
     1.039930,1.269081,1.017114,0.084059,0.764937,866.000000,745.000000,121.000000,10.000000,8.000000,0.000000,1.039930,1.269081,1.017114,0.084059,0.764937,866.000000,745.000000,121.000000,10.000000,8.000000,0.000000:
// measure 0
0000
0000
0000
0000
,  // measure 1
0000
0000
0000
0000
,  // measure 2
0000
0000
0000
0000
,  // measure 3
1010
0000
0000
0110
0000
0000
0101
0000
0000
0000
0001
0000
0100
0000
0010
0000
,  // measure 4
0110
0000
0000
0101
0000
0000
0011
0000
0000
0000
0110
0000
0000
0000
0100
0000
,  // measure 5
1000
0000
0001
1000
0001
0000
0100
0000
0010
0000
1000
0010
1000
0000
0100
0000
,  // measure 6
0110
0110
0000
0011
0000
1001
1001
0000
,  // measure 7
0001
0000
0100
0000
0001
0000
1000
0000
0001
0000
1000
0000
0100
0010
0001
0000
,  // measure 8
0010
0000
0001
0000
1000
0010
1000
0010
1000
0100
1000
0100
0010
0001
0010
0001
,  // measure 9
0100
0000
0010
0000
1000
0001
0100
0000
0001
0010
0001
0010
0100
1000
0100
1000
,  // measure 10
0010
0110
0100
0101
0001
1001
1001
0000
,  // measure 11
1010
0000
0000
1001
0000
0000
0011
0000
0000
0110
0000
0000
1100
0000
0000
0000
,  // measure 12
1001
0000
0000
0011
0000
0000
0101
0000
0000
1100
0000
0000
0101
0000
0000
0000
,  // measure 13
0110
0000
0000
1010
0000
0000
1001
0000
0000
0101
0000
0000
0110
0000
0000
0000
,  // measure 14
0101
0000
1001
0000
0010
0010
0010
1000
,  // measure 15
0001
0100
0000
0001
1000
0000
0010
1000
0000
0001
1000
0000
1001
0000
0000
0000
,  // measure 16
1000
0001
0000
0100
0001
0000
0010
0001
0000
1000
0001
0000
0101
0000
0000
0000
,  // measure 17
0010
1000
0000
0100
1000
0000
0001
0010
0000
0001
1000
0000
1010
0000
0000
0000
,  // measure 18
0001
0101
0100
0110
0010
0010
0100
0001
,  // measure 19
1000
0010
1010
1000
0100
0010
0011
0000
,  // measure 20
0001
0010
0000
0010
0001
0000
1000
0010
0000
0010
1000
0000
0110
0000
0000
0000
,  // measure 21
0100
0010
0000
0010
0100
0000
0010
0100
0000
0100
0010
0000
1001
0000
0000
0000
,  // measure 22
0110
0000
1001
0000
1000
0001
1001
0000
,  // measure 23
0101
0000
0000
0110
0000
0000
1010
0000
1001
0000
0000
0011
0000
0000
0110
0000
,  // measure 24
1100
0000
0000
1001
0000
0000
0101
0000
0101
0000
0000
0110
0000
0000
1010
0000
,  // measure 25
0000
0000
1001
0000
0101
0000
0000
0110
0000
0000
0011
0000
0001
0000
0010
0000
,  // measure 26
1000
0000
0100
0000
0010
0000
0100
0000
1000
0010
1000
0010
0100
0001
0100
0001
,  // measure 27
0010
0000
0000
0110
0000
0000
1100
0000
0000
0000
1000
0000
0001
0000
0010
0000
,  // measure 28
0001
0000
0000
0101
0000
0000
0110
0000
0000
0000
1001
0000
0000
0000
0100
0000
,  // measure 29
0010
0000
1000
0001
1000
0001
1000
0000
0100
0000
0010
0100
0010
0100
0010
0000
,  // measure 30
1001
1001
0000
0101
0000
0110
0110
0000
,  // measure 31
1000
0100
0000
0010
0001
0000
0100
0001
0000
0010
0001
0000
1000
0001
1000
0000
,  // measure 32
0100
0000
0000
0110
0000
0000
0011
0000
0000
0000
1001
0000
0101
0000
0000
0000
,  // measure 33
0100
0000
0010
0000
1000
0000
0010
0000
0100
0001
0100
0001
0010
0100
0010
0100
,  // measure 34
1000
1000
0001
0001
1001
1000
1010
0000
,  // measure 35
0001
0100
0000
1000
0100
0000
0001
0010
0000
1000
0010
0000
0011
0000
0000
0000
,  // measure 36
1000
0100
0000
0001
0100
0000
1000
0010
0000
0001
0010
0000
1010
0000
0000
0000
,  // measure 37
0001
0100
0000
1000
0100
0000
0001
0010
0000
1000
0010
0000
0011
0000
0000
0000
,  // measure 38
0101
0000
0110
0000
0110
0010
1010
1000
,  // measure 39
1000
0100
0000
0010
1000
0000
0010
0001
0000
0100
1000
0000
0100
0001
0000
0000
,  // measure 40
0001
0010
0000
1000
0010
0000
0001
0100
0000
1000
0100
0000
0001
0000
0000
0000
,  // measure 41
1000
0010
0000
0010
1000
0000
0001
0100
0000
0100
0010
0000
0110
0000
0000
0000
,  // measure 42
1100
0100
0110
0010
0011
0001
1001
0000
,  // measure 43
0101
0100
0110
0010
1010
1000
1100
0000
,  // measure 44
0110
0010
0011
0001
0101
0100
0110
0000
,  // measure 45
1000
0100
1000
0100
0010
0001
0010
0001
0100
0010
0100
0010
1000
0001
1000
0001
,  // measure 46
0100
0010
1000
0100
0010
0001
0100
0010
1000
0100
0010
0001
1000
0100
1000
0010
,  // measure 47
1000
0000
0000
0000
,  // measure 48
0000
0000
0000
0000
1100
0100
0001
0100
,  // measure 49
1000
0010
0001
0010
1000
0100
0010
0001
,  // measure 50
0100
0010
1000
0001
0010
0100
0010
1000
,  // measure 51
0010
0001
0100
0010
1000
0001
0100
0001
,  // measure 52
1000
0100
2100
0000
3001
0100
0010
1000
,  // measure 53
0100
0010
0001
0100
0010
1000
0100
0010
,  // measure 54
0100
1000
0001
0010
0001
0100
0010
1000
,  // measure 55
0001
0100
0010
0100
0001
1000
0010
1000
,  // measure 56
0100
0010
0012
0000
1003
1000
0010
0100
,  // measure 57
0001
0001
0010
1000
0010
0010
0001
0100
,  // measure 58
0010
1000
0010
0000
1010
0000
0000
0000
0001
0000
0001
0000
0100
0000
0010
0000
,  // measure 59
1000
1000
0100
0001
1000
1000
0010
0001
,  // measure 60
1000
0100
0010
0000
0011
0000
0000
0000
0110
0000
0100
0000
0001
0000
0010
0000
,  // measure 61
0001
1000
0010
0100
0110
0010
1000
0100
,  // measure 62
0010
0001
1000
1000
1001
0010
0001
1000
,  // measure 63
0010
0100
0010
0100
0001
0010
0001
0000
0000
0000
1001
0000
0000
0000
1000
0000
,  // measure 64
0010
0100
0110
0000
1000
1000
0001
0010
,  // measure 65
0001
1000
0010
0001
0010
1000
0010
0100
,  // measure 66
0001
1000
0001
1000
0001
0000
0000
0000
0100
0010
0100
0000
0001
1000
0001
0000
,  // measure 67
0100
0000
0001
0000
0010
0000
0001
0000
1000
0100
1000
0000
0001
0100
0001
0000
,  // measure 68
1000
0001
1000
0001
0100
0000
0000
0000
0010
0100
0010
0000
0100
0010
0100
0000
,  // measure 69
0001
0001
0100
0100
0010
1000
0100
0010
,  // measure 70
0001
0010
0100
1000
0010
0000
0000
0000
1000
0010
0100
0000
0100
0010
1000
0000
,  // measure 71
0001
0010
0001
0000
0010
0001
0010
0000
0100
0000
0100
0000
1000
0000
0010
0000
,  // measure 72
0100
0001
0010
0001
1000
0000
0000
0000
0001
0100
0010
0000
1000
0010
0100
0000
,  // measure 73
0001
1000
0010
0000
0010
0100
0001
0000
0010
0100
0010
0100
1000
0001
1000
0001
,  // measure 74
0100
0000
0000
0000
MMMM
0000
0000
0000
0100
0001
0010
0000
0100
1000
0010
0000
,  // measure 75
0100
0001
0100
0000
0010
1000
0010
0000
0100
0001
1000
0000
0001
1000
0010
0000
,  // measure 76
1000
0001
1000
0001
0100
0000
0000
0000
0010
0100
0001
0000
0100
0001
0010
0000
,  // measure 77
0100
1000
0010
0000
1000
0010
0100
0000
0001
0000
1000
0000
0100
0000
0010
0000
,  // measure 78
0001
0010
0100
1000
0010
0000
0000
0000
1000
0100
0010
0000
0001
0010
0100
0000
,  // measure 79
1000
0100
0010
0000
0001
0010
0100
0000
1000
0100
0001
0000
0001
0100
1000
0000
,  // measure 80
0100
0010
0001
0010
0100
0000
0000
0000
0001
0010
0100
0000
1000
0100
0010
0000
,  // measure 81
0001
0010
0100
0000
1000
0100
0010
0000
0001
0010
0001
0010
0100
1000
0100
1000
,  // measure 82
0010
0000
MMMM
0000
0101
0100
0110
0010
,  // measure 83
1010
1000
0100
0010
0011
0001
1000
0010
,  // measure 84
0110
0000
0100
0000
0001
0000
0100
0000
0202
0000
0000
0000
0303
0000
0010
0001
,  // measure 85
2000
0000
0000
0000
3001
0000
0100
0010
1000
0000
0010
1000
0001
0000
0001
1000
,  // measure 86
0010
0000
0010
0100
0001
0000
0010
0000
0210
0000
0000
0000
1300
0000
0100
0010
,  // measure 87
0200
0000
0000
0000
0310
0000
0001
1000
0001
0000
0010
0001
0010
0000
0100
1000
,  // measure 88
0100
0000
0010
0001
0010
0000
0100
0000
0120
0000
0000
0000
0130
0000
0010
0000
,  // measure 89
0001
0010
0100
1000
0001
0010
0001
0000
0000
0000
1100
0000
0000
0000
0110
0000
,  // measure 90
0110
1001
1001
0000
0220
0000
0000
0000
,  // measure 91
0000
0000
0330
0000
;
