#TITLE:FIRE 2;
#SUBTITLE:;
#ARTIST:泉 陸奥彦;
#TITLETRANSLIT:;
#SUBTITLETRANSLIT:;
#ARTISTTRANSLIT:Mutsuhiko Isumi;
#GENRE:;
#CREDIT:;
#BANNER:FIRE 2.png;
#BACKGROUND:FIRE 2-bg.png;
#LYRICSPATH:;
#CDTITLE:;
#MUSIC:FIRE 2.ogg;
#OFFSET:-0.626000;
#SAMPLESTART:45.574001;
#SAMPLELENGTH:15.000000;
#SELECTABLE:YES;
#DISPLAYBPM:172.000000;
#BPMS:0.000000=172.000000
;
#STOPS:
;
#BGCHANGES:;
#KEYSOUNDS:;
#ATTACKS:;

//---------------dance-single - ----------------
#NOTES:
     dance-single:
     :
     Beginner:
     3:
     0.123490,0.172773,0.000000,0.108054,0.000000,96.000000,96.000000,0.000000,12.000000,0.000000,0.000000,0.123490,0.172773,0.000000,0.108054,0.000000,96.000000,96.000000,0.000000,12.000000,0.000000,0.000000:
// measure 0
0000
0000
0000
0000
,  // measure 1
0000
0000
0000
0000
,  // measure 2
0000
0000
0000
0000
,  // measure 3
0000
0000
0000
0000
,  // measure 4
0000
1000
0000
1000
,  // measure 5
0000
0001
0000
0001
,  // measure 6
0000
0001
0000
0100
,  // measure 7
0000
0100
0000
0010
,  // measure 8
0000
0010
0000
1000
,  // measure 9
0000
1000
0000
0001
,  // measure 10
0000
0001
0000
0100
,  // measure 11
0000
0100
0000
0010
,  // measure 12
0000
0010
0000
1000
,  // measure 13
0000
1000
0000
0001
,  // measure 14
0000
0001
0000
0100
,  // measure 15
0000
0100
0000
0010
,  // measure 16
0000
0010
0000
0000
,  // measure 17
0000
1000
0000
0000
,  // measure 18
0000
1000
0000
0000
,  // measure 19
0000
0001
0000
0000
,  // measure 20
0100
0000
0000
0000
,  // measure 21
0010
0000
0000
0000
,  // measure 22
0100
0000
0000
0000
,  // measure 23
0001
0000
0000
0000
,  // measure 24
1000
0000
0000
0000
,  // measure 25
0100
0000
0000
0000
,  // measure 26
0010
0000
0000
0000
,  // measure 27
0001
0000
0100
0000
,  // measure 28
1000
0000
0000
0000
,  // measure 29
0100
0000
0000
0000
,  // measure 30
0001
0000
0000
0000
,  // measure 31
0000
0000
0000
0000
,  // measure 32
1000
0000
0000
0000
,  // measure 33
0001
0000
0000
0000
,  // measure 34
1000
0000
0000
0000
,  // measure 35
0010
0000
1000
0000
,  // measure 36
0010
0000
0000
0000
,  // measure 37
0100
0000
0000
0000
,  // measure 38
0001
0000
0000
0000
,  // measure 39
0010
0000
0000
0000
,  // measure 40
0100
0000
0100
0000
,  // measure 41
1000
0000
1000
0000
,  // measure 42
0001
0000
0001
0000
,  // measure 43
0000
0000
0000
0000
,  // measure 44
0100
0000
0000
0000
,  // measure 45
0100
0000
0000
0000
,  // measure 46
0010
0000
0000
0000
,  // measure 47
0010
0000
0000
0000
,  // measure 48
1000
0000
0000
0000
,  // measure 49
1000
0000
0000
0000
,  // measure 50
0001
0000
0000
0000
,  // measure 51
0001
0000
0000
0000
,  // measure 52
0100
0000
0000
0000
,  // measure 53
0100
0000
0000
0000
,  // measure 54
0010
0000
0010
0000
,  // measure 55
0010
0000
0000
0000
,  // measure 56
1000
0000
0000
0000
,  // measure 57
0000
0000
0000
0000
,  // measure 58
0002
0000
0000
2003
,  // measure 59
0000
0000
0000
3200
,  // measure 60
0000
0000
0320
0000
,  // measure 61
0030
0000
0000
0002
,  // measure 62
0000
2003
0000
3200
,  // measure 63
0000
0320
0000
0032
,  // measure 64
0000
0103
0000
0100
,  // measure 65
0000
0010
0000
0010
,  // measure 66
0000
1000
0000
0000
,  // measure 67
0000
1000
0000
0000
,  // measure 68
0000
0001
0000
0000
,  // measure 69
0000
0001
0000
0000
,  // measure 70
0000
0100
0000
0000
,  // measure 71
0000
0020
0000
0000
,  // measure 72
0000
2030
0000
0000
,  // measure 73
0000
3002
0000
0000
,  // measure 74
0000
1003
0000
1000
,  // measure 75
0000
1000
0000
0001
,  // measure 76
0000
0001
0000
0100
;

//---------------dance-single - ----------------
#NOTES:
     dance-single:
     :
     Easy:
     4:
     0.243121,0.345546,0.045022,0.540268,0.000000,189.000000,184.000000,5.000000,60.000000,0.000000,0.000000,0.243121,0.345546,0.045022,0.540268,0.000000,189.000000,184.000000,5.000000,60.000000,0.000000,0.000000:
// measure 0
0000
0000
0000
0000
,  // measure 1
0000
0000
0000
0000
,  // measure 2
0000
0000
0000
0000
,  // measure 3
0000
0000
0000
0000
,  // measure 4
0000
1000
1000
0001
,  // measure 5
0000
0001
0001
0200
,  // measure 6
0310
0010
1000
0000
,  // measure 7
0100
0100
0020
0030
,  // measure 8
0001
0001
1000
1000
,  // measure 9
0001
0001
0100
0000
,  // measure 10
0010
0010
1000
1000
,  // measure 11
0100
0100
0010
0000
,  // measure 12
0002
0000
0000
0000
,  // measure 13
2003
0000
3200
0000
,  // measure 14
0320
0000
0030
0000
,  // measure 15
0002
0000
0203
0000
,  // measure 16
0310
1000
0020
0000
,  // measure 17
0130
0001
0020
0000
,  // measure 18
0230
0000
2300
0000
,  // measure 19
3002
0000
0203
0000
,  // measure 20
0310
1000
0020
0000
,  // measure 21
0130
0001
1000
0001
,  // measure 22
2000
0000
3200
0000
,  // measure 23
0320
0000
0032
0000
,  // measure 24
0103
0010
0100
0001
,  // measure 25
0020
0000
0230
0000
,  // measure 26
2300
0000
3200
0000
,  // measure 27
0320
0000
0032
0000
,  // measure 28
0103
0010
0100
0010
,  // measure 29
2000
0000
3002
0000
,  // measure 30
0203
0000
0000
0000
,  // measure 31
0320
0000
0000
0000
,  // measure 32
2030
0000
0000
0000
,  // measure 33
3100
0100
0010
0010
,  // measure 34
0002
0000
0000
0000
,  // measure 35
0103
0100
0010
0010
,  // measure 36
1000
1000
0100
0010
,  // measure 37
0001
0010
0100
1000
,  // measure 38
0002
0100
0100
0100
,  // measure 39
0103
0010
0010
0010
,  // measure 40
0010
1000
1000
0000
,  // measure 41
0001
0001
0100
0100
,  // measure 42
0000
0000
0010
0000
,  // measure 43
0010
0000
1000
1000
,  // measure 44
2000
0000
0000
0000
,  // measure 45
3002
0000
0000
0000
,  // measure 46
0203
0000
0000
0000
,  // measure 47
0320
0000
0000
0000
,  // measure 48
1030
1000
0100
0000
,  // measure 49
0010
0010
0002
0000
,  // measure 50
0103
0100
0010
0000
,  // measure 51
0010
0010
2000
0000
,  // measure 52
3100
0100
0001
0000
,  // measure 53
0100
0100
1000
0000
,  // measure 54
0010
0010
0001
0000
,  // measure 55
0010
0010
1000
0000
,  // measure 56
0100
0001
0200
0000
,  // measure 57
0000
1300
0010
0100
,  // measure 58
0002
0000
0203
0000
,  // measure 59
0320
0000
1030
0100
,  // measure 60
0010
0001
0100
0020
,  // measure 61
0000
1030
0100
0020
,  // measure 62
0000
0230
0000
2300
,  // measure 63
0000
3002
0000
0203
,  // measure 64
0000
0310
0010
2000
,  // measure 65
0000
3200
0000
0310
,  // measure 66
0010
0002
0000
0203
,  // measure 67
0000
0320
0000
1030
,  // measure 68
1000
0200
0000
2300
,  // measure 69
0000
3002
0000
0103
,  // measure 70
0010
0200
0000
0000
,  // measure 71
0000
0320
0000
0000
,  // measure 72
2000
0030
0000
0000
,  // measure 73
0000
3200
0000
0000
,  // measure 74
0000
0310
0000
0101
,  // measure 75
0000
1010
0000
1100
,  // measure 76
0000
0110
0000
1001
;

//---------------dance-single - ----------------
#NOTES:
     dance-single:
     :
     Medium:
     10:
     0.427069,0.553775,0.252125,0.018009,0.000000,332.000000,304.000000,28.000000,2.000000,0.000000,0.000000,0.427069,0.553775,0.252125,0.018009,0.000000,332.000000,304.000000,28.000000,2.000000,0.000000,0.000000:
// measure 0
0000
0000
0000
0000
,  // measure 1
0000
0000
0000
0000
,  // measure 2
0000
0000
0000
0000
,  // measure 3
0000
0000
0000
0000
,  // measure 4
1000
0000
0000
1000
0000
1000
0000
0010
,  // measure 5
0000
0010
0000
0100
0000
0100
0000
0001
,  // measure 6
0000
0010
0000
0001
0000
0010
0000
0100
,  // measure 7
0000
1000
0000
0100
0000
1000
0000
0100
,  // measure 8
0000
0010
0000
0001
0000
0010
0000
0100
,  // measure 9
0000
0010
0000
0001
0000
1000
0001
1000
,  // measure 10
0000
0010
0000
0100
0000
0010
0000
1000
,  // measure 11
0000
0100
0000
0010
0000
0001
1000
0001
,  // measure 12
0000
0100
0000
0010
0000
0100
0000
0010
,  // measure 13
0000
1000
0000
0100
0000
1000
0000
0100
,  // measure 14
0000
0010
0000
0001
0000
0010
0000
0100
,  // measure 15
0000
1000
0001
1000
0000
0001
0100
0001
,  // measure 16
0000
0100
0000
0010
0000
1000
0000
0100
,  // measure 17
0000
0010
0000
0011
0000
0011
0000
0110
,  // measure 18
0000
1100
0000
0001
0000
1000
0000
0001
,  // measure 19
0000
0101
0000
0100
0000
0110
0000
0010
,  // measure 20
0000
1010
0000
0100
0000
0010
0000
0001
,  // measure 21
0000
0010
0000
0100
1000
0100
0000
0010
,  // measure 22
0000
0001
0000
0010
0000
1000
0000
0010
,  // measure 23
0000
0001
0000
0100
0000
1000
0000
0100
,  // measure 24
0000
1001
0000
0001
0000
0010
0000
0100
,  // measure 25
1000
0100
0000
0010
0000
0001
0000
0100
,  // measure 26
0000
0110
0000
0010
0000
1000
0000
0100
,  // measure 27
1000
0100
0000
0010
0000
0001
0000
0100
,  // measure 28
0000
0110
0000
0010
0000
1000
0000
0100
,  // measure 29
0001
0100
0000
1000
0000
0010
0000
0001
,  // measure 30
0000
0010
1000
0001
0000
0100
0000
0010
,  // measure 31
0000
0100
0000
0010
0000
1000
0000
0100
,  // measure 32
0000
0010
0000
0001
0000
0010
0001
0010
,  // measure 33
0000
0100
1000
0100
0000
0010
0000
0001
,  // measure 34
0000
0011
0000
0010
0000
0100
0000
1000
,  // measure 35
0001
1000
0000
0001
0000
0100
0000
0010
,  // measure 36
0000
0110
0000
0100
0000
0001
0000
0010
,  // measure 37
0000
0100
0000
1000
0100
1000
0000
1100
,  // measure 38
0000
0100
0000
0010
0000
0001
0000
1000
,  // measure 39
0000
0001
0000
0100
0000
0010
0000
0100
,  // measure 40
0000
0010
0100
0000
0100
0010
0000
0010
,  // measure 41
1000
0000
1000
0001
0000
1000
0000
1000
,  // measure 42
0000
0100
1000
0000
1000
1000
0000
0010
,  // measure 43
0010
0000
0100
0100
0000
0001
0000
1000
,  // measure 44
0000
0001
1000
0001
1000
0000
0000
0000
,  // measure 45
0000
0001
0100
0001
0100
0000
0000
0000
,  // measure 46
0000
0010
0100
0010
0100
0000
0000
0000
,  // measure 47
0000
0100
0010
0100
0010
0000
0000
0000
,  // measure 48
0000
1001
0000
0000
0000
1100
0000
0000
,  // measure 49
0000
0010
0000
0100
0000
0010
0000
0000
,  // measure 50
0000
1100
0000
0100
0000
0010
0000
0000
,  // measure 51
0000
0011
0000
0010
0000
0100
0000
0000
,  // measure 52
0000
1000
0000
0100
0000
1000
0000
0100
,  // measure 53
0000
0010
0000
0001
0000
0010
0000
0001
,  // measure 54
0000
0100
0000
0010
0000
0100
0000
0010
,  // measure 55
0000
1000
0000
0100
0000
1000
0000
0100
,  // measure 56
0000
0010
0000
0001
0200
0000
0000
0000
,  // measure 57
0000
0300
0000
0010
1000
0010
0000
0100
,  // measure 58
0000
0000
0002
0000
0000
0000
0000
1003
,  // measure 59
0000
0000
0000
0100
0000
0000
0000
0010
,  // measure 60
0000
0000
0000
0001
0000
1000
0000
0001
,  // measure 61
0000
0000
0000
0100
0000
0010
0000
0100
,  // measure 62
0000
0010
0000
1000
0000
0000
0000
0100
,  // measure 63
0000
0000
0000
0010
0000
0000
0000
0001
,  // measure 64
0000
0010
0000
0001
0000
0010
0000
0100
,  // measure 65
0000
1000
0000
1100
0000
0100
0000
0010
,  // measure 66
0000
0001
0000
1001
0000
1000
0000
0100
,  // measure 67
0000
1000
0000
0100
0000
0010
0000
0001
,  // measure 68
0000
0010
0000
0100
0000
1000
0000
0100
,  // measure 69
0000
0001
0000
0100
0000
1000
0000
0010
,  // measure 70
0000
0001
0000
0010
1000
0010
1000
0010
,  // measure 71
1000
0010
0000
1000
0100
1000
0100
1000
,  // measure 72
0100
1000
0000
0001
1000
0001
1000
0001
,  // measure 73
1000
0001
0000
1000
0100
1000
0100
1000
,  // measure 74
0100
1000
0000
1010
0000
0000
0101
0000
,  // measure 75
0000
1100
0000
1100
0000
0000
0101
0000
,  // measure 76
0000
1100
0000
0101
0000
1100
0000
1010
;

//---------------dance-single - ----------------
#NOTES:
     dance-single:
     :
     Hard:
     12:
     0.618735,0.693344,0.144071,0.324161,0.072036,481.000000,465.000000,16.000000,36.000000,0.000000,0.000000,0.618735,0.693344,0.144071,0.324161,0.072036,481.000000,465.000000,16.000000,36.000000,0.000000,0.000000:
// measure 0
0000
0000
0000
0000
,  // measure 1
0000
0000
0000
0000
,  // measure 2
0000
0000
0000
0000
,  // measure 3
0000
0000
0000
0000
,  // measure 4
1000
0001
1000
0001
0000
0001
0010
0100
,  // measure 5
1000
0001
0010
0100
0010
0001
2000
0000
,  // measure 6
3100
0010
0100
2000
0000
3001
0010
0100
,  // measure 7
0010
0001
1000
0100
0010
0001
2000
0000
,  // measure 8
3001
0010
0100
1000
0001
0010
0001
0000
,  // measure 9
0100
0010
0100
0001
1000
0100
2000
0000
,  // measure 10
3001
1000
0100
1000
0010
0100
0001
0010
,  // measure 11
0100
1000
0010
0100
0001
1000
0001
0010
,  // measure 12
0002
0000
0013
0000
0001
0000
1000
0001
,  // measure 13
0200
0000
0000
0000
0000
0000
0301
0000
0000
1000
0000
0000
0200
0000
0000
0000
0000
0000
1300
0000
0001
0000
1000
0000
,  // measure 14
0001
0010
0100
0000
0010
0000
0001
0000
,  // measure 15
0100
0010
1000
0000
1001
0000
0001
0010
,  // measure 16
0001
1000
0100
0010
0200
0000
1000
0000
,  // measure 17
0010
0000
0000
0000
1300
0000
0100
0000
0010
0000
0000
0100
0000
0000
1000
0000
,  // measure 18
0002
0000
0013
0100
0020
0000
0031
1000
,  // measure 19
0001
0000
0010
0100
1000
0100
0020
0000
,  // measure 20
0031
1000
0100
0000
1000
0001
0100
0000
,  // measure 21
0001
0010
0001
1000
0010
0100
0001
0000
,  // measure 22
1000
0100
1000
0000
0001
0010
0001
0000
,  // measure 23
0100
0010
0100
0001
0100
1000
0100
0010
,  // measure 24
0100
0000
1001
0000
0001
0010
0001
0010
,  // measure 25
0002
0000
0003
0000
0100
0010
0100
0010
,  // measure 26
0200
0000
0310
1000
0000
1000
0100
0000
,  // measure 27
0110
0000
0010
0001
0000
0001
0100
0010
,  // measure 28
1000
0100
0010
0000
0001
1000
0100
1000
,  // measure 29
0001
0100
0010
1000
0100
0010
0001
0000
,  // measure 30
1000
0010
1000
1010
0000
0010
0100
0000
,  // measure 31
0100
0001
0100
0101
0000
0001
1000
0001
,  // measure 32
1000
0010
0100
0000
0001
0010
0100
1000
,  // measure 33
0001
0000
0000
0100
0000
0000
0001
0000
0010
0000
0000
0100
0000
0000
1000
0000
,  // measure 34
0001
1000
0001
0010
0001
0000
0100
0010
,  // measure 35
0100
0000
0000
0001
0000
0000
1000
0000
0001
0000
0000
0010
0000
0000
0100
0000
,  // measure 36
1000
0001
0000
0010
0100
1000
0001
0010
,  // measure 37
0001
0000
1000
0010
1000
0000
1001
0000
,  // measure 38
0001
0100
0010
0000
0001
0000
0010
0100
,  // measure 39
0001
0010
0001
0000
1000
0100
1000
0000
,  // measure 40
0010
0010
0100
0001
0001
0000
1000
1000
,  // measure 41
0010
0100
0100
0000
1001
0000
0110
0000
,  // measure 42
0100
0100
0001
1000
1000
0000
0010
0010
,  // measure 43
0100
0001
0001
0000
0100
0100
0010
0010
,  // measure 44
1000
0001
1000
1001
0000
0001
0100
0001
,  // measure 45
1000
0100
0010
0001
0000
1000
0100
1000
,  // measure 46
0001
0010
0100
1000
0000
0001
0100
0001
,  // measure 47
1000
0001
1000
0001
1000
0001
1000
0001
1000
0001
1000
0001
,  // measure 48
1000
0100
1000
0010
0000
1000
0010
0100
,  // measure 49
0001
0010
0001
1000
0100
0010
0002
0000
,  // measure 50
1003
0010
0100
0010
0000
0010
0001
0010
,  // measure 51
1000
0010
0100
0001
0010
0002
0000
0003
,  // measure 52
1000
0010
1000
0020
0000
0130
0001
0100
,  // measure 53
0001
0010
0001
0100
0001
0100
0020
0000
,  // measure 54
0031
0010
0100
0200
0000
0301
1000
0100
,  // measure 55
0010
0100
1000
0010
0100
0202
0000
0303
,  // measure 56
0001
0100
0010
0200
0000
0000
0000
0000
,  // measure 57
0000
0000
0301
0010
0001
0000
1000
0000
,  // measure 58
0100
2000
0000
0000
3001
0200
0000
0000
,  // measure 59
0310
2000
0000
0000
3001
0100
0001
0020
,  // measure 60
0000
0000
0000
0001
0030
0000
0010
0000
0000
0001
0000
0000
1000
0000
0000
0020
0000
0000
0000
0000
0000
0000
0000
0000
,  // measure 61
0000
0000
0000
0000
0030
0000
0000
0000
0100
0000
0001
0000
1000
0000
0000
0100
,  // measure 62
0000
0010
0002
0000
0003
1000
0010
1000
,  // measure 63
0010
0100
0001
0100
0001
0010
0010
0100
,  // measure 64
0010
0001
1000
0010
1000
0100
2000
0001
,  // measure 65
3001
1000
0020
0100
0130
0000
0001
1000
,  // measure 66
0200
0000
1300
0001
1000
1000
0010
0100
,  // measure 67
0010
0000
0100
0010
1000
0000
0100
0010
,  // measure 68
0001
0000
0001
1000
0001
0020
0001
0031
,  // measure 69
0100
0001
2000
0010
3010
0000
0010
0100
,  // measure 70
0001
0010
0001
1000
0010
2000
0000
3000
,  // measure 71
0001
0100
0001
1000
0010
1000
0200
0000
,  // measure 72
0310
0100
1000
0001
0010
0000
0010
0001
,  // measure 73
0010
0100
1000
0010
1000
0000
1000
0000
,  // measure 74
0010
0100
0001
0000
0011
0000
0000
1010
,  // measure 75
0000
0000
0011
0000
0000
0101
0000
1100
,  // measure 76
0000
0001
0010
0100
1000
2002
0000
0000
,  // measure 77
3003
0000
0000
0000
;

//---------------dance-single - ----------------
#NOTES:
     dance-single:
     :
     Challenge:
     15:
     0.778243,0.869494,0.324161,0.351174,0.666331,605.000000,569.000000,36.000000,39.000000,0.000000,0.000000,0.778243,0.869494,0.324161,0.351174,0.666331,605.000000,569.000000,36.000000,39.000000,0.000000,0.000000:
// measure 0
0000
0000
0000
0000
,  // measure 1
0000
0000
0000
0000
,  // measure 2
0000
0000
0000
0000
,  // measure 3
0000
0000
0000
0000
,  // measure 4
1000
0001
1000
1000
0000
0001
0010
0100
,  // measure 5
1000
0000
0100
0000
0010
0000
0001
0000
1000
0000
0010
1000
0020
0000
0000
0000
,  // measure 6
1030
0001
1000
0000
0001
0000
0200
0000
0000
0000
0301
0000
1000
0000
0010
0000
,  // measure 7
1000
0010
0100
0001
0010
0010
0001
0000
,  // measure 8
0010
0100
0010
0000
0100
0000
1000
0000
0001
0000
0010
0000
0001
0000
0000
0000
,  // measure 9
0100
0000
0010
0000
1000
0000
0010
0000
0100
0000
0001
0010
0002
0000
0000
0000
,  // measure 10
1003
0010
1000
0000
0001
0000
0200
0000
0000
0000
0310
0000
0100
0000
0001
0000
,  // measure 11
0010
0000
0100
0000
0010
0000
0001
0000
1000
0000
1000
0000
0001
0100
0001
0100
,  // measure 12
0010
0000
1000
0000
0002
0000
0000
0000
0013
0000
0001
0000
0100
0010
0100
0000
,  // measure 13
0001
0000
0000
1000
0000
0000
0001
0000
0000
0000
0000
0000
1000
0000
0000
0100
0000
0000
0010
0000
0001
0000
0010
0000
,  // measure 14
0001
0100
0020
0000
1030
0100
0001
0100
,  // measure 15
1000
0000
0010
1000
0010
0000
0000
0000
0100
0000
0001
0000
0010
0001
0010
0001
,  // measure 16
1000
0100
1000
0010
0200
0000
0001
0000
,  // measure 17
0001
0000
0000
0000
0301
0000
0010
0000
0001
0000
0000
1000
0000
0000
0001
0000
,  // measure 18
0200
0000
0000
0000
0310
0000
1000
0000
0200
0000
0000
0000
1300
0000
0001
0010
,  // measure 19
0002
0000
0000
0000
0103
0000
0010
0000
1000
0000
0010
0100
0002
0000
0000
0000
,  // measure 20
0013
0100
0010
0001
0100
0001
1000
0000
,  // measure 21
0010
0000
1000
0000
0001
0000
1000
0000
0010
0000
0100
0000
0001
0000
0010
0100
,  // measure 22
0010
0000
0100
0000
1000
0000
0001
1000
0001
0000
0100
0000
0010
0000
1000
0010
,  // measure 23
2000
0000
0000
0000
3100
0000
0010
0000
0100
0000
1000
0000
0010
0100
0010
0100
,  // measure 24
0001
0010
0001
1000
0010
1000
0001
0010
,  // measure 25
0100
0010
0002
0000
1003
0100
0010
0100
,  // measure 26
1200
0000
1300
1001
0000
0001
0101
0000
,  // measure 27
0110
0000
0000
0000
0010
0000
1010
0000
0000
0000
0001
0000
0100
0010
0100
0010
,  // measure 28
1000
0100
2000
0000
3001
0100
0010
0100
,  // measure 29
0001
0000
1000
0000
0010
0000
1000
0000
0100
0010
0100
0000
0010
0000
0001
0000
,  // measure 30
1000
0010
1000
0010
1000
0000
2001
0000
0000
0000
3001
0000
0010
0000
0100
0000
,  // measure 31
0010
0001
0010
0001
0100
0000
0120
0000
0000
0000
1030
0000
0100
1000
0100
0000
,  // measure 32
2000
0000
0010
0000
3020
0000
0000
0000
0130
0000
0010
0100
0010
0100
0001
0000
,  // measure 33
1001
0000
0000
0101
0000
0000
0110
0000
1010
0000
0000
1100
0000
0000
0010
0000
,  // measure 34
0001
0000
1000
0000
0001
0100
0010
0000
1000
0000
0010
0000
0100
0001
0010
0000
,  // measure 35
0001
0000
0000
0101
0000
0000
1001
0000
0101
0000
0000
0110
0000
0000
0100
0000
,  // measure 36
0101
0000
0001
0000
0010
0100
0010
0000
0100
0000
1000
0001
1000
0001
0010
0000
,  // measure 37
0001
0000
1000
0010
1010
0000
1001
0000
,  // measure 38
0001
0000
0010
0000
0100
1000
0100
0000
0010
0000
0001
0000
0010
0100
0010
0000
,  // measure 39
0001
0000
0001
0000
1000
0000
1000
0000
0010
0100
0010
0100
0001
0010
0001
0010
,  // measure 40
0001
0011
0000
0001
1001
0000
1000
1010
,  // measure 41
0000
0001
0101
0000
0100
0010
1000
0000
,  // measure 42
0100
0000
0010
0001
0010
0000
0001
0000
0100
0010
0100
0000
0010
0000
1000
0100
,  // measure 43
1000
0000
0001
0000
0010
0001
0010
0000
0100
0000
0100
0000
0100
0000
0100
0000
,  // measure 44
0010
0001
0010
0001
0010
0000
0011
0000
0000
0000
0001
0100
0001
0100
0001
0000
,  // measure 45
1000
0001
1000
0001
1000
0000
0020
0000
0000
0000
0130
0001
0100
0001
0100
0000
,  // measure 46
0001
1000
0001
1000
0001
0000
1001
0000
0000
0000
0001
0010
0001
0010
0001
0000
,  // measure 47
1000
0100
1000
0100
0010
0001
0010
0001
0100
0010
1000
0001
,  // measure 48
0100
0001
0100
0001
1000
0000
0020
0000
0000
0000
1030
0000
0010
0000
0100
0000
,  // measure 49
0001
0000
0010
0000
0001
0000
1000
0000
0100
0000
1000
0001
1000
0000
0000
0000
,  // measure 50
0001
0100
0001
0100
0001
0000
1000
0000
0000
0000
0010
0000
1000
0000
0100
0000
,  // measure 51
1000
0010
0100
0001
0010
0022
0000
0033
,  // measure 52
1000
0001
1000
0001
1000
0000
0020
0000
0000
0000
0130
0000
0001
0000
1000
0000
,  // measure 53
0100
0000
1000
0000
0001
0000
0010
0000
0001
0000
1000
0001
2000
0000
0000
0000
,  // measure 54
3001
1000
0001
1000
0010
0000
0200
0000
0000
0000
0310
0000
1000
0000
0100
0000
,  // measure 55
0001
0100
1000
0010
0100
0202
0000
0303
,  // measure 56
0001
0010
0100
2000
0000
0000
0000
0000
,  // measure 57
0000
0000
0000
0000
3001
0000
0100
0000
0010
0000
0000
1001
0000
0000
0100
0000
,  // measure 58
2000
0000
0000
0000
3001
0200
0000
0000
,  // measure 59
0310
1000
0020
0000
0000
0000
0000
0000
1030
0000
0100
0000
0010
0001
0020
0000
,  // measure 60
0000
0000
0000
0001
0030
0000
0010
0000
0000
1000
0000
0000
0020
0000
0000
0000
0000
0000
0000
0000
0000
0000
0000
0000
,  // measure 61
0000
0000
0000
0000
0000
0000
0000
0000
0130
0000
1000
0000
0001
0000
0000
0100
,  // measure 62
0000
0001
0010
0000
0001
0100
0010
0000
,  // measure 63
1000
0000
0010
0100
0020
0000
0000
0000
0030
0000
0100
0000
0001
0000
0010
0000
,  // measure 64
0001
1000
0001
0000
0000
1000
0100
1000
0000
0010
0000
0100
0000
0001
1000
0001
,  // measure 65
0000
0010
0000
0100
0000
2000
0000
0000
0000
0000
0000
0000
0000
3001
0000
0100
,  // measure 66
0000
0001
0000
0000
0000
0001
0000
1000
0000
0001
0000
1000
0000
0010
0000
1000
,  // measure 67
0000
0010
0000
1000
0000
0100
0000
0010
0000
0001
0000
1000
0000
0010
0000
0010
,  // measure 68
0000
0100
0000
0001
0000
1000
0001
0100
0001
0100
0000
0002
0000
0000
0000
0013
,  // measure 69
0000
0001
0000
1000
0000
1002
0000
0000
0000
0000
0000
0000
0003
0010
0000
0100
,  // measure 70
0000
1000
0000
0100
0000
0010
0001
0010
0100
0000
0000
1001
0000
0000
1000
0000
,  // measure 71
0010
0000
0100
0000
0001
0100
0001
0100
0010
0000
0000
1010
0000
0000
0100
0000
,  // measure 72
0001
0000
0010
0000
0100
1000
0100
1000
0001
0000
0000
1000
0010
1000
0000
0000
,  // measure 73
0000
0010
0000
0100
0000
0001
0010
0001
0000
0000
0000
1000
0100
1000
0000
0000
,  // measure 74
0010
0100
0010
0100
0001
0000
0000
0000
0011
0000
0000
0000
0000
0000
1010
0000
,  // measure 75
0000
0000
0011
0000
0000
0101
0000
1100
,  // measure 76
0000
0000
0001
0000
1000
0010
1000
0010
1000
0010
1000
0020
0000
0000
0000
0000
,  // measure 77
0000
0030
0000
0000
;
